<svg xmlns="http://www.w3.org/2000/svg"><metadata>This is a custom SVG webfont generated by Font Squirrel. Copyright : Digitized data copyright 20102011 Google Corporation Foundry : Ascender Corporation Foundry URL : httpwwwascendercorpcom</metadata><defs><font id="OpenSansExtraboldItalic" horiz-adv-x="1243"><font-face ascent="1638" descent="-410" units-per-em="2048"/><glyph d="M-217 -162q63 -18 117 -18q74 0 111.5 30t51.5 95l191 897h-166l43 190l188 96l17 74q41 185 142.5 275t279.5 90q80 0 155 -16t127 -42l-98 -264q-64 31 -129 31q-35 0 -59.5 -18.5t-32.5 -53.5l-16 -71h331l17 69q41 185 142.5 275t279.5 90q80 0 155 -16t127 -42 l-98 -264q-64 31 -129 31q-35 0 -59.5 -18.5t-32.5 -53.5l-17 -71h211l-65 -291h-209l-205 -959q-43 -192 -153.5 -283.5t-292.5 -91.5q-110 0 -207 27v303q63 -18 116 -18q75 0 112.5 30t51.5 95l191 897h-330l-205 -959q-43 -192 -153.5 -283.5t-292.5 -91.5 q-110 0 -207 27v303z" horiz-adv-x="1556" unicode="ﬀ"/><glyph d="M-209 -162q63 -18 117 -18q74 0 112 30t52 95l190 897h-166l43 190l189 96l16 74q43 192 146.5 278.5t275.5 86.5q80 0 155 -16t128 -42l-99 -264q-64 31 -129 31q-35 0 -59.5 -18.5t-32.5 -53.5l-16 -71h211l-66 -291h-209l-205 -959q-43 -192 -153.5 -283.5 t-292.5 -91.5q-110 0 -207 27v303zM863 0l239 1133h389l-241 -1133h-387zM1149 1382q0 103 59.5 156t166.5 53q91 0 140.5 -36.5t49.5 -104.5q0 -100 -58 -154.5t-167 -54.5q-191 0 -191 141z" horiz-adv-x="1505" unicode="ﬁ"/><glyph d="M-209 -162q63 -18 117 -18q74 0 112 30t52 95l190 897h-166l43 190l189 96l16 74q43 192 146.5 278.5t275.5 86.5q80 0 155 -16t128 -42l-99 -264q-64 31 -129 31q-35 0 -59.5 -18.5t-32.5 -53.5l-16 -71h211l-66 -291h-209l-205 -959q-43 -192 -153.5 -283.5 t-292.5 -91.5q-110 0 -207 27v303zM863 0l329 1556h387l-329 -1556h-387z" horiz-adv-x="1505" unicode="ﬂ"/><glyph d="M-209 -162q63 -18 117 -18q74 0 112 30t52 95l190 897h-166l43 190l189 96l16 74q43 192 146.5 278.5t275.5 86.5q80 0 155 -16t128 -42l-99 -264q-64 31 -129 31q-35 0 -59.5 -18.5t-32.5 -53.5l-16 -71h331l17 69q41 185 142.5 275t279.5 90q80 0 155 -16t127 -42 l-98 -264q-64 31 -129 31q-35 0 -59.5 -18.5t-32.5 -53.5l-16 -71h210l-65 -291h-209l-205 -959q-43 -192 -153.5 -283.5t-292.5 -91.5q-110 0 -207 27v303q63 -18 117 -18q74 0 111.5 30t51.5 95l191 897h-330l-205 -959q-43 -192 -153.5 -283.5t-292.5 -91.5 q-110 0 -207 27v303zM1520 0l239 1133h389l-241 -1133h-387zM1806 1382q0 103 59.5 156t166.5 53q91 0 140.5 -36.5t49.5 -104.5q0 -100 -58 -154.5t-167 -54.5q-191 0 -191 141z" horiz-adv-x="2163" unicode="ﬃ"/><glyph d="M-209 -162q63 -18 117 -18q74 0 112 30t52 95l190 897h-166l43 190l189 96l16 74q43 192 146.5 278.5t275.5 86.5q80 0 155 -16t128 -42l-99 -264q-64 31 -129 31q-35 0 -59.5 -18.5t-32.5 -53.5l-16 -71h331l17 69q41 185 142.5 275t279.5 90q80 0 155 -16t127 -42 l-98 -264q-64 31 -129 31q-35 0 -59.5 -18.5t-32.5 -53.5l-16 -71h210l-65 -291h-209l-205 -959q-43 -192 -153.5 -283.5t-292.5 -91.5q-110 0 -207 27v303q63 -18 117 -18q74 0 111.5 30t51.5 95l191 897h-330l-205 -959q-43 -192 -153.5 -283.5t-292.5 -91.5 q-110 0 -207 27v303zM1516 0l329 1556h387l-329 -1556h-387z" horiz-adv-x="2159" unicode="ﬄ"/><glyph horiz-adv-x="532"/><glyph horiz-adv-x="532"/><glyph horiz-adv-x="532"/><glyph d="M12 127q0 107 65 170t179 63q87 0 133.5 -40.5t46.5 -114.5q0 -110 -63.5 -170t-173.5 -60q-88 0 -137.5 38.5t-49.5 113.5zM125 516l156 946h426l-254 -946h-328z" horiz-adv-x="623" unicode="!"/><glyph d="M182 934l72 528h342l-158 -528h-256zM623 934l73 528h342l-157 -528h-258z" horiz-adv-x="930" unicode="&quot;"/><glyph d="M14 393l21 238h266l57 200h-235l20 242h285l111 389h270l-111 -389h168l111 389h270l-110 -389h221l-21 -242h-270l-57 -200h243l-20 -238h-293l-111 -393h-270l113 393h-168l-113 -393h-270l112 393h-219zM571 631h168l58 200h-168z" horiz-adv-x="1323" unicode="#"/><glyph d="M61 162v311q126 -59 228 -86t203 -27q174 0 174 105q0 40 -32.5 72.5t-139.5 83.5q-139 62 -214 160t-75 227q0 176 133.5 288t357.5 127l29 133h168l-31 -137q161 -15 314 -90l-140 -270q-158 71 -295 71q-66 0 -103.5 -28t-37.5 -68q0 -53 39 -89.5t158 -94.5 q140 -68 205 -155.5t65 -213.5q0 -178 -133 -290t-361 -125l-38 -187h-168l41 191q-221 16 -347 92z" horiz-adv-x="1188" unicode="$"/><glyph d="M80 887q0 173 54 309.5t154.5 211.5t237.5 75q147 0 231.5 -85t84.5 -237q0 -165 -56.5 -303t-158 -215.5t-230.5 -77.5q-159 0 -238 83.5t-79 238.5zM252 0l1089 1462h289l-1081 -1462h-297zM371 891q0 -84 53 -84q52 0 89.5 110.5t37.5 239.5q0 43 -12 63.5t-41 20.5 q-50 0 -88.5 -110t-38.5 -240zM1057 301q0 173 54 309.5t154.5 211.5t237.5 75q147 0 231.5 -85t84.5 -237q0 -164 -56 -302t-158 -215.5t-231 -77.5q-159 0 -238 83t-79 238zM1348 305q0 -84 53 -84q52 0 89.5 110.5t37.5 239.5q0 44 -12 64t-41 20q-50 0 -88.5 -110 t-38.5 -240z" horiz-adv-x="1878" unicode="%"/><glyph d="M8 385q0 159 87.5 264.5t271.5 165.5q-37 46 -60.5 118.5t-23.5 131.5q0 197 126 308.5t355 111.5q189 0 302.5 -88t113.5 -236q0 -130 -80 -233t-262 -197l129 -186q36 36 75.5 114.5t63.5 161.5h383q-46 -161 -128.5 -305.5t-189.5 -253.5l191 -262h-442l-43 61 q-155 -81 -349 -81q-244 0 -382 106.5t-138 298.5zM399 424q0 -62 47.5 -99.5t124.5 -37.5t138 26l-193 279q-117 -52 -117 -168zM635 1092q0 -76 51 -144q72 31 106.5 79.5t34.5 107.5q0 35 -22 60.5t-60 25.5q-49 0 -79.5 -34.5t-30.5 -94.5z" horiz-adv-x="1501" unicode="&amp;"/><glyph d="M182 934l72 528h342l-158 -528h-256z" horiz-adv-x="487" unicode="'"/><glyph d="M68 326q0 330 124.5 619t387.5 558h323q-260 -281 -384 -576t-124 -618q0 -150 32.5 -326t84.5 -307h-293q-67 120 -109 299t-42 351zM720 1485z" horiz-adv-x="766" unicode="("/><glyph d="M-133 -324q256 277 378 571.5t122 622.5q0 150 -32.5 322.5t-86.5 310.5h295q71 -124 111 -298t40 -351q0 -341 -123 -628t-378 -550h-326zM420 1485z" horiz-adv-x="766" unicode=")"/><glyph d="M152 1108l100 278l319 -165l31 350l307 -62l-116 -331l368 30l-22 -301l-310 41l148 -311l-285 -86l-80 303l-166 -244l-249 185l254 229z" horiz-adv-x="1110" unicode="*"/><glyph d="M102 586v272h353v352h270v-352h352v-272h-352v-348h-270v348h-353z" horiz-adv-x="1159" unicode="+"/><glyph d="M-104 -264q53 121 147 387l41 115h348l8 -23q-116 -262 -256 -479h-288z" horiz-adv-x="627" unicode=","/><glyph d="M23 393l63 312h553l-64 -312h-552z" horiz-adv-x="674" unicode="-"/><glyph d="M0 127q0 109 65 171t179 62q84 0 132 -40t48 -115q0 -118 -60 -174t-190 -56q-78 0 -126 37t-48 115z" horiz-adv-x="627" unicode="."/><glyph d="M-90 -20l838 1503h344l-838 -1503h-344z" horiz-adv-x="956" unicode="/"/><glyph d="M63 465q0 295 85 533.5t235 362.5t348 124q135 0 230.5 -62.5t145.5 -174.5t50 -265q0 -298 -85 -529.5t-235 -352.5t-348 -121q-210 0 -318 126t-108 359zM453 457q0 -84 15 -123t60 -39q58 0 111.5 94.5t91 265.5t37.5 336q0 85 -18.5 131.5t-63.5 46.5 q-55 0 -110 -111t-89 -282t-34 -319z" horiz-adv-x="1188" unicode="0"/><glyph d="M150 1079l620 383h311l-307 -1462h-389l174 799q28 132 76 256q-78 -68 -131 -103l-203 -125z" horiz-adv-x="1188" unicode="1"/><glyph d="M-57 0l53 256l483 436q248 221 248 361q0 49 -26 73.5t-66 24.5q-120 0 -281 -147l-186 258q234 221 541 221q183 0 295 -99.5t112 -269.5q0 -152 -87 -285t-298 -315l-205 -176v-12h490l-68 -326h-1005z" horiz-adv-x="1188" unicode="2"/><glyph d="M14 59v332q167 -100 377 -100q138 0 206.5 46.5t68.5 133.5q0 54 -27 81t-86 39.5t-166 12.5h-84l53 291h78q147 0 229 46.5t82 127.5q0 46 -36 74t-99 28q-117 0 -270 -84l-158 248q126 81 243.5 114.5t258.5 33.5q201 0 321.5 -93t120.5 -253q0 -148 -89.5 -245 t-252.5 -130v-8q129 -25 202 -111.5t73 -212.5q0 -216 -178 -333t-482 -117q-116 0 -217.5 20.5t-167.5 58.5z" horiz-adv-x="1188" unicode="3"/><glyph d="M-10 283l51 256l762 923h360l-186 -884h149l-61 -295h-150l-59 -283h-377l60 283h-549zM391 578h209l49 194q29 107 60 211h-9q-51 -97 -114 -172z" horiz-adv-x="1188" unicode="4"/><glyph d="M20 63v324q79 -45 181 -70.5t184 -25.5q277 0 277 192q0 76 -50.5 123t-136.5 47q-53 0 -111 -10t-92 -22l-122 92l215 749h813l-68 -323h-471l-59 -185q35 4 75 4q181 0 293.5 -117.5t112.5 -316.5q0 -261 -161 -402.5t-466 -141.5q-129 0 -244.5 22t-169.5 61z" horiz-adv-x="1188" unicode="5"/><glyph d="M78 471q0 105 26 254q85 392 298.5 575t568.5 183q102 0 233 -31l-63 -303q-95 25 -183 25q-145 0 -237 -34t-151.5 -108.5t-106.5 -224.5h8q106 170 307 170q160 0 244 -103t84 -299q0 -175 -68.5 -311.5t-197 -210t-297.5 -73.5q-225 0 -345 124t-120 367zM463 420 q0 -66 26.5 -99.5t71.5 -33.5q66 0 109 76.5t43 181.5q0 129 -92 129q-68 0 -113 -73t-45 -181z" horiz-adv-x="1188" unicode="6"/><glyph d="M35 0l717 1135h-574l70 327h1030l-51 -231l-744 -1231h-448z" horiz-adv-x="1188" unicode="7"/><glyph d="M49 338q0 301 332 418q-156 121 -156 309q0 121 60.5 216.5t174 149.5t265.5 54q200 0 316 -92.5t116 -241.5q0 -128 -77.5 -228.5t-202.5 -140.5q92 -71 140 -158t48 -204q0 -206 -141 -323t-387 -117q-225 0 -356.5 99t-131.5 259zM414 385q0 -54 36.5 -88.5 t96.5 -34.5q70 0 112.5 42t42.5 110q0 115 -118 194q-170 -90 -170 -223zM588 1065q0 -38 23.5 -77t62.5 -58q58 22 92.5 71t34.5 103q0 49 -28.5 73.5t-65.5 24.5q-48 0 -83.5 -39.5t-35.5 -97.5z" horiz-adv-x="1188" unicode="8"/><glyph d="M106 10v314q92 -37 203 -37q187 0 291.5 87t144.5 281h-8q-59 -95 -132 -134.5t-169 -39.5q-151 0 -239 110t-88 296q0 176 65.5 310.5t190 210t297.5 75.5q230 0 352.5 -137.5t122.5 -393.5q0 -293 -103 -519.5t-285.5 -339.5t-431.5 -113q-115 0 -211 30zM502 932 q0 -144 92 -144q74 0 125 70.5t51 171.5q0 66 -27.5 106t-70.5 40q-73 0 -121.5 -71t-48.5 -173z" horiz-adv-x="1188" unicode="9"/><glyph d="M0 127q0 109 65 171t179 62q84 0 132 -40t48 -115q0 -118 -60 -174t-190 -56q-78 0 -126 37t-48 115zM195 915q0 110 65 171t176 61q82 0 132 -37.5t50 -116.5q0 -119 -59 -175t-190 -56q-79 0 -126.5 37.5t-47.5 115.5z" horiz-adv-x="627" unicode=":"/><glyph d="M-117 -264q65 147 148 387l41 115h348l8 -23q-116 -262 -256 -479h-289zM195 915q0 110 65 171t176 61q82 0 132 -37.5t50 -116.5q0 -119 -59 -175t-190 -56q-79 0 -126.5 37.5t-47.5 115.5z" horiz-adv-x="627" unicode=";"/><glyph d="M88 627v172l973 508v-299l-576 -283l576 -252v-297z" horiz-adv-x="1159" unicode="&lt;"/><glyph d="M102 399v271h975v-271h-975zM102 774v266h975v-266h-975z" horiz-adv-x="1159" unicode="="/><glyph d="M109 176v297l575 252l-575 283v299l972 -508v-172z" horiz-adv-x="1159" unicode="&gt;"/><glyph d="M162 1348q231 135 461 135q201 0 319.5 -90t118.5 -248q0 -89 -27.5 -156t-79 -120.5t-170.5 -125.5q-100 -60 -142.5 -100t-55.5 -84l-15 -43h-315l12 64q15 80 42 138t71 104t141 110q89 58 125.5 95t36.5 77q0 70 -90 70q-126 0 -313 -109zM176 127q0 107 65 170 t179 63q87 0 133.5 -40.5t46.5 -114.5q0 -110 -63.5 -170t-174.5 -60q-87 0 -136.5 39t-49.5 113z" horiz-adv-x="999" unicode="?"/><glyph d="M82 500q0 288 117 511t335.5 347.5t485.5 124.5q355 0 554.5 -174t199.5 -482q0 -170 -69.5 -314t-191 -225t-266.5 -81q-170 0 -219 129h-10q-48 -65 -111.5 -97t-156.5 -32q-117 0 -191 83.5t-74 221.5q0 156 74 294.5t196.5 211t276.5 72.5q155 0 336 -70l-100 -414 q-23 -94 -23 -137q0 -41 39 -41q64 0 116 48.5t81.5 138.5t29.5 206q0 213 -133.5 322.5t-382.5 109.5q-187 0 -336.5 -91.5t-232 -258t-82.5 -379.5q0 -145 55 -254t153.5 -168t223.5 -59q103 0 234 24.5t245 69.5v-225q-90 -43 -223.5 -70.5t-251.5 -27.5 q-209 0 -367.5 83.5t-244.5 240t-86 362.5zM764 532q0 -104 78 -104q61 0 99.5 51.5t74.5 188.5l47 190q-23 10 -51 10q-73 0 -128.5 -47.5t-87.5 -127t-32 -161.5z" horiz-adv-x="1837" unicode="@"/><glyph d="M-121 0l744 1462h503l123 -1462h-381l-10 274h-448l-125 -274h-406zM553 586h293l-17 424l-2 86q0 75 4 131q-24 -86 -61 -166z" horiz-adv-x="1384" unicode="A"/><glyph d="M33 0l309 1462h487q217 0 329 -82.5t112 -236.5q0 -288 -297 -377v-8q88 -29 140 -101.5t52 -177.5q0 -229 -152.5 -354t-432.5 -125h-547zM489 305h82q86 0 143.5 48.5t57.5 121.5q0 69 -33 103t-116 34h-68zM614 901h72q88 0 133 38t45 122q0 102 -127 102h-63z" horiz-adv-x="1298" unicode="B"/><glyph d="M104 549q0 266 101.5 488t276 335t399.5 113q265 0 481 -131l-148 -305q-93 55 -171 82.5t-162 27.5q-108 0 -195 -78t-136.5 -215t-49.5 -297q0 -134 56 -200t161 -66q83 0 168 20.5t200 69.5v-323q-203 -90 -440 -90q-260 0 -400.5 148.5t-140.5 420.5z" horiz-adv-x="1290" unicode="C"/><glyph d="M33 0l309 1462h416q276 0 427.5 -144.5t151.5 -408.5q0 -280 -99 -485.5t-287.5 -314.5t-446.5 -109h-471zM494 324h69q110 0 196.5 70t134.5 199.5t48 295.5q0 125 -54 189.5t-151 64.5h-71z" horiz-adv-x="1401" unicode="D"/><glyph d="M33 0l309 1462h868l-65 -317h-477l-47 -230h444l-72 -317h-444l-57 -276h477l-68 -322h-868z" horiz-adv-x="1151" unicode="E"/><glyph d="M33 0l309 1462h862l-67 -317h-471l-58 -279h436l-69 -319h-438l-113 -547h-391z" horiz-adv-x="1165" unicode="F"/><glyph d="M104 563q0 267 110 482t301.5 327.5t445.5 112.5q266 0 448 -107l-147 -309q-153 90 -306 90q-132 0 -233.5 -72.5t-162 -214.5t-60.5 -303q0 -264 209 -264q63 0 133 14l51 232h-229l67 305h610l-167 -795q-250 -81 -521 -81q-261 0 -405 152t-144 431z" horiz-adv-x="1430" unicode="G"/><glyph d="M33 0l309 1462h391l-112 -542h348l112 542h392l-310 -1462h-391l125 596h-346l-127 -596h-391z" horiz-adv-x="1462" unicode="H"/><glyph d="M31 0l309 1462h397l-309 -1462h-397z" horiz-adv-x="727" unicode="I"/><glyph d="M-328 -113q99 -24 174 -24q107 0 162 59t84 195l289 1345h391l-299 -1394q-43 -200 -113 -312.5t-182.5 -164.5t-292.5 -52q-106 0 -213 29v319z" horiz-adv-x="764" unicode="J"/><glyph d="M33 0l309 1462h391l-135 -624l38 59q88 143 130 195l297 370h459l-551 -674l270 -788h-438l-174 578l-97 -56l-108 -522h-391z" horiz-adv-x="1370" unicode="K"/><glyph d="M33 0l309 1462h391l-241 -1143h477l-68 -319h-868z" horiz-adv-x="1079" unicode="L"/><glyph d="M33 0l309 1462h518v-1038h8l478 1038h526l-313 -1462h-351l117 549q50 228 108 436l15 64h-8l-482 -1049h-370v1049h-8q-67 -417 -86 -512l-113 -537h-348z" horiz-adv-x="1862" unicode="M"/><glyph d="M33 0l309 1462h455l286 -983h9q29 236 57 371l131 612h348l-309 -1462h-455l-289 1028h-8q-29 -291 -57 -418l-129 -610h-348z" horiz-adv-x="1618" unicode="N"/><glyph d="M104 543q0 265 103 487t280.5 338.5t409.5 116.5q260 0 404.5 -148.5t144.5 -414.5t-99.5 -486.5t-274.5 -338t-406 -117.5q-269 0 -415.5 149t-146.5 414zM500 545q0 -242 200 -242q95 0 176.5 83t128 224t46.5 308q0 114 -48 178.5t-139 64.5q-99 0 -182 -84 t-132.5 -231t-49.5 -301z" horiz-adv-x="1509" unicode="O"/><glyph d="M33 0l309 1462h373q259 0 397.5 -113.5t138.5 -324.5q0 -252 -171.5 -395.5t-469.5 -143.5h-86l-100 -485h-391zM594 805h63q91 0 147 58.5t56 148.5q0 59 -36 95t-99 36h-59z" horiz-adv-x="1276" unicode="P"/><glyph d="M104 543q0 265 102.5 486t282 338.5t414.5 117.5q258 0 400.5 -149.5t142.5 -413.5q0 -280 -114 -509t-310 -339l238 -422h-439l-162 328h-12q-258 0 -400.5 149.5t-142.5 413.5zM500 539q0 -115 47.5 -172.5t134.5 -57.5q102 0 186.5 81t133.5 224.5t49 311.5 q0 114 -47 172.5t-134 58.5q-103 0 -188.5 -83t-133.5 -226t-48 -309z" horiz-adv-x="1509" unicode="Q"/><glyph d="M33 0l309 1462h387q252 0 386 -100t134 -301q0 -156 -71 -272t-211 -177l224 -516l40 -96h-426l-195 532h-73l-113 -532h-391zM600 829h51q95 0 151 54.5t56 152.5q0 62 -34.5 94.5t-100.5 32.5h-53z" horiz-adv-x="1331" unicode="R"/><glyph d="M43 76v350q84 -53 192.5 -89t196.5 -36q74 0 112 31t38 88q0 27 -12 50.5t-34 47t-118 103.5q-117 94 -170 192t-53 215q0 131 65.5 235.5t185 162t267.5 57.5q239 0 430 -107l-135 -297q-171 88 -291 88q-64 0 -98.5 -28t-34.5 -82q0 -49 33.5 -91.5t127.5 -113.5 q118 -87 175 -183t57 -220q0 -222 -147 -345.5t-410 -123.5q-110 0 -208 24.5t-169 71.5z" horiz-adv-x="1122" unicode="S"/><glyph d="M156 1139l69 323h1028l-71 -323h-318l-237 -1139h-391l237 1139h-317z" horiz-adv-x="1130" unicode="T"/><glyph d="M125 410q0 64 12 129l199 923h391l-195 -913q-14 -68 -14 -115q0 -127 121 -127q94 0 147.5 64.5t81.5 197.5l191 893h391l-199 -932q-59 -281 -225 -415.5t-451 -134.5q-134 0 -236.5 55t-158 154t-55.5 221z" horiz-adv-x="1436" unicode="U"/><glyph d="M150 1462h382l27 -801v-51q0 -144 -16 -256h8q14 64 44.5 157.5t55.5 145.5l350 805h414l-725 -1462h-436z" horiz-adv-x="1264" unicode="V"/><glyph d="M152 1462h370l-10 -733q-6 -267 -25 -375l40 104l94 232l335 772h336v-792q0 -156 -26 -316q10 28 133 346l303 762h387l-635 -1462h-461v620q0 155 13 324q-33 -133 -118 -349l-253 -595h-434z" horiz-adv-x="1915" unicode="W"/><glyph d="M-125 0l563 776l-223 686h416l123 -469l309 469h448l-538 -725l262 -737h-432l-146 498l-338 -498h-444z" horiz-adv-x="1358" unicode="X"/><glyph d="M164 1462h403l90 -542l312 542h436l-612 -895l-121 -567h-391l120 567z" horiz-adv-x="1237" unicode="Y"/><glyph d="M-92 0l47 242l690 901h-479l67 319h986l-52 -245l-700 -898h543l-68 -319h-1034z" horiz-adv-x="1104" unicode="Z"/><glyph d="M-53 -344l393 1847h530l-55 -254h-215l-285 -1339h215l-53 -254h-530zM182 -324zM491 1485z" horiz-adv-x="737" unicode="["/><glyph d="M221 1483h309l248 -1503h-319z" horiz-adv-x="956" unicode="\"/><glyph d="M-133 -344l53 254h213l285 1339h-215l55 254h528l-393 -1847h-526zM65 -324zM533 1485z" horiz-adv-x="737" unicode="]"/><glyph d="M-6 502l631 960h172l284 -960h-274l-156 569l-360 -569h-297z" horiz-adv-x="1096" unicode="^"/><glyph d="M-184 -379l57 246h930l-58 -246h-929z" horiz-adv-x="922" unicode="_"/><glyph d="M485 1548v21h396q29 -157 94 -303v-25h-236q-82 75 -152 159t-102 148z" horiz-adv-x="1135" unicode="`"/><glyph d="M84 412q0 179 73 365t184.5 281t246.5 95q84 0 148 -37.5t114 -122.5h8l53 140h310l-240 -1133h-309l10 123h-8q-56 -78 -121 -110.5t-147 -32.5q-158 0 -240 111.5t-82 320.5zM479 434q0 -143 86 -143q50 0 95.5 58.5t72.5 156.5t27 192q0 65 -20 104.5t-62 39.5 q-76 0 -137.5 -126.5t-61.5 -281.5z" unicode="a"/><glyph d="M23 0l329 1556h387l-49 -231q-38 -175 -90 -301h8q48 59 77.5 81.5t66.5 35t86 12.5q155 0 238 -111.5t83 -320.5q0 -178 -70.5 -362t-182.5 -281.5t-249 -97.5q-83 0 -145 32t-125 113h-8l-49 -125h-307zM485 434q0 -65 19 -104t59 -39q49 0 96 59t76 156t29 192 q0 144 -86 144q-50 0 -95 -57t-71.5 -154t-26.5 -197z" unicode="b"/><glyph d="M84 442q0 201 76.5 364.5t215 255t314.5 91.5q195 0 367 -80l-123 -287q-133 60 -225 60q-62 0 -115 -48t-87 -143.5t-34 -187.5q0 -91 30 -133.5t95 -42.5q72 0 139.5 23t143.5 63v-307q-80 -44 -168.5 -67t-206.5 -23q-199 0 -310.5 120.5t-111.5 341.5z" horiz-adv-x="1032" unicode="c"/><glyph d="M84 412q0 178 71.5 363t183.5 281.5t247 96.5q75 0 126 -30.5t111 -121.5h8l2 37q7 138 25 217l62 301h391l-330 -1556h-309l10 123h-8q-57 -79 -120 -111t-148 -32q-158 0 -240 111.5t-82 320.5zM479 434q0 -143 86 -143q50 0 95.5 58.5t72.5 156.5t27 192 q0 144 -80 144q-49 0 -96 -59t-76 -155.5t-29 -193.5z" horiz-adv-x="1237" unicode="d"/><glyph d="M84 428q0 211 83.5 380.5t229 257t336.5 87.5q190 0 299 -86t109 -229q0 -201 -156.5 -308.5t-452.5 -107.5h-59v-16q0 -148 164 -148q79 0 155 23.5t173 74.5v-274q-112 -57 -209 -79.5t-224 -22.5q-212 0 -330 118.5t-118 329.5zM512 664h29q109 0 171 41.5t62 109.5 q0 32 -20 54t-64 22q-61 0 -114 -69.5t-64 -157.5z" horiz-adv-x="1186" unicode="e"/><glyph d="M-209 -162q63 -18 117 -18q74 0 112 30t52 95l190 897h-166l43 190l189 96l16 74q43 192 146.5 278.5t275.5 86.5q80 0 155 -16t128 -42l-99 -264q-64 31 -129 31q-35 0 -59.5 -18.5t-32.5 -53.5l-16 -71h211l-66 -291h-209l-205 -959q-43 -192 -153.5 -283.5 t-292.5 -91.5q-110 0 -207 27v303z" horiz-adv-x="840" unicode="f"/><glyph d="M-133 -207q0 98 68 169t212 118q-37 23 -60.5 60t-23.5 79q0 71 51 126t152 101q-131 103 -131 281q0 196 136 311t368 115q51 0 107.5 -6t89.5 -14h399l-41 -207l-160 -52q10 -40 10 -94q0 -191 -130 -308.5t-339 -117.5q-76 0 -124 13q-20 -11 -34 -22t-14 -30 q0 -43 111 -59l137 -18q174 -25 250 -91.5t76 -189.5q0 -215 -168.5 -332t-478.5 -117q-212 0 -337.5 75.5t-125.5 209.5zM197 -152q0 -86 170 -86q125 0 190.5 29t65.5 82q0 36 -33 54.5t-115 27.5l-115 12q-78 -11 -120.5 -41.5t-42.5 -77.5zM500 692q0 -94 67 -94 q52 0 85.5 68.5t33.5 158.5q0 95 -61 95q-38 0 -66 -33.5t-43.5 -87.5t-15.5 -107z" horiz-adv-x="1145" unicode="g"/><glyph d="M23 0l329 1556h387l-53 -249q-35 -158 -88 -283h8q101 129 273 129q141 0 220 -85.5t79 -236.5q0 -106 -25 -229l-127 -602h-387l129 618q18 78 18 142q0 43 -22 64.5t-53 21.5q-125 0 -185 -293l-116 -553h-387z" horiz-adv-x="1274" unicode="h"/><glyph d="M23 0l239 1133h389l-241 -1133h-387zM309 1382q0 103 59.5 156t166.5 53q91 0 140.5 -36.5t49.5 -104.5q0 -100 -58 -154.5t-167 -54.5q-191 0 -191 141z" horiz-adv-x="666" unicode="i"/><glyph d="M-264 -162q56 -18 112 -18q142 0 175 147l247 1166h387l-260 -1227q-40 -193 -157 -295.5t-297 -102.5q-110 0 -207 27v303zM317 1382q0 103 59.5 156t166.5 53q91 0 140.5 -36.5t49.5 -104.5q0 -94 -55 -151.5t-170 -57.5q-191 0 -191 141z" horiz-adv-x="666" unicode="j"/><glyph d="M23 0l325 1556h387l-139 -663q-17 -77 -68 -223h9q84 127 153 200l242 263h442l-491 -512l274 -621h-438l-139 391l-101 -53l-69 -338h-387z" horiz-adv-x="1264" unicode="k"/><glyph d="M23 0l329 1556h387l-329 -1556h-387z" horiz-adv-x="666" unicode="l"/><glyph d="M23 0l239 1133h309l-16 -187h8q61 114 137 160.5t191 46.5q117 0 180.5 -53.5t89.5 -153.5h8q65 106 149 156.5t195 50.5q141 0 214 -84.5t73 -249.5q0 -97 -22 -205l-125 -614h-387l129 631q14 56 14 133q0 40 -19 61t-51 21q-74 0 -119.5 -76t-76.5 -227l-111 -543 h-387l131 631q15 90 15 121q0 94 -72 94q-68 0 -113.5 -74.5t-77.5 -220.5l-118 -551h-387z" horiz-adv-x="1896" unicode="m"/><glyph d="M23 0l239 1133h309l-12 -158h8q55 95 129.5 136.5t182.5 41.5q141 0 220 -85.5t79 -236.5q0 -106 -25 -229l-127 -602h-387l129 618q18 78 18 142q0 43 -22 64.5t-53 21.5q-57 0 -105.5 -71t-79.5 -222l-116 -553h-387z" horiz-adv-x="1274" unicode="n"/><glyph d="M84 416q0 210 79.5 379.5t223.5 263.5t336 94q209 0 322.5 -113t113.5 -323t-79.5 -379.5t-223.5 -263.5t-336 -94q-209 0 -322.5 113t-113.5 323zM479 403q0 -133 84 -133q81 0 141 139t60 320q0 66 -23 99.5t-63 33.5q-82 0 -140.5 -139.5t-58.5 -319.5z" unicode="o"/><glyph d="M-82 -492l344 1625h309l-12 -127h8q96 147 258 147q156 0 245 -111.5t89 -306.5q0 -203 -70 -382.5t-185.5 -276t-252.5 -96.5q-143 0 -231 145h-8q-12 -166 -56 -371l-51 -246h-387zM485 434q0 -65 23 -104t65 -39q48 0 92 57t71.5 153t27.5 197q0 144 -86 144 q-50 0 -95 -57t-71.5 -154t-26.5 -197z" unicode="p"/><glyph d="M84 408q0 181 71.5 366.5t183 282t247.5 96.5q89 0 145.5 -33t118.5 -127h8l53 140h310l-344 -1625h-392l68 293q25 116 90 310h-8q-55 -74 -114 -102.5t-134 -28.5q-89 0 -158 50.5t-107 148t-38 229.5zM479 434q0 -143 86 -143q50 0 95.5 58.5t72.5 156.5t27 192 q0 144 -80 144q-49 0 -96 -59t-76 -155.5t-29 -193.5z" unicode="q"/><glyph d="M23 0l239 1133h309l-18 -189h8q65 112 141 160.5t199 48.5q56 0 80 -8l-84 -383q-54 22 -123 22q-103 0 -164.5 -70.5t-93.5 -215.5l-106 -498h-387z" horiz-adv-x="895" unicode="r"/><glyph d="M31 43v311q92 -50 171 -70t160 -20q68 0 102 18.5t34 51.5q0 35 -26 60.5t-130 84.5q-106 58 -154.5 133t-48.5 183q0 172 121 265t344 93q112 0 204 -26t179 -80l-121 -252q-66 43 -136.5 68.5t-121.5 25.5q-76 0 -76 -68q0 -29 31.5 -51t102.5 -57q225 -112 225 -320 q0 -199 -130 -306t-374 -107q-222 0 -356 63z" horiz-adv-x="1028" unicode="s"/><glyph d="M63 842l41 190l218 88l137 240h258l-49 -227h288l-63 -291h-289l-84 -383q-16 -77 -16 -105q0 -63 63 -63q66 0 183 47v-291q-136 -67 -340 -67q-148 0 -224.5 63.5t-76.5 208.5q0 76 24 188l84 402h-154z" horiz-adv-x="936" unicode="t"/><glyph d="M96 301q0 106 25 229l127 603h387l-129 -617q-19 -82 -19 -141q0 -44 22.5 -65t53.5 -21q59 0 107.5 78.5t77.5 214.5l116 551h387l-239 -1133h-310l13 158h-8q-54 -93 -128.5 -135.5t-183.5 -42.5q-141 0 -220 85.5t-79 235.5z" horiz-adv-x="1274" unicode="u"/><glyph d="M88 1133h385l27 -603q0 -73 -8 -118h8q1 14 18 63t36 90t265 568h414l-612 -1133h-388z" horiz-adv-x="1114" unicode="v"/><glyph d="M102 1133h365v-512q0 -182 -8 -259h8q46 177 88 295l172 476h428l-20 -476q-9 -129 -33 -295h8q7 22 15.5 47.5t48.5 140t241 583.5h385l-538 -1133h-422l20 449q2 73 11.5 209t21.5 219h-8q-60 -233 -121 -390l-189 -487h-407z" horiz-adv-x="1686" unicode="w"/><glyph d="M-119 0l473 578l-207 555h422l76 -314l186 314h459l-465 -576l228 -557h-428l-80 328l-211 -328h-453z" horiz-adv-x="1159" unicode="x"/><glyph d="M-129 -168q46 -12 109 -12q87 0 142.5 36.5t98.5 114.5l23 41l-162 1121h389l43 -562l2 -62v-87h8q37 132 50 165.5t239 545.5h416l-670 -1276q-96 -185 -223 -267t-311 -82q-92 0 -154 17v307z" horiz-adv-x="1114" unicode="y"/><glyph d="M-41 0l43 221l502 613h-348l67 299h811l-53 -242l-496 -592h383l-65 -299h-844z" horiz-adv-x="993" unicode="z"/><glyph d="M-16 434l53 287q119 0 175 38.5t77 133.5l55 246q28 124 76.5 190t130 99.5t203.5 33.5h129l-62 -280q-81 -2 -120 -29.5t-56 -99.5l-53 -258q-20 -96 -85.5 -151.5t-193.5 -70.5v-8q90 -29 130 -87t40 -146q0 -17 -10 -74l-35 -164q-6 -30 -6 -49q0 -88 113 -88v-281 h-82q-183 0 -272 68.5t-89 208.5q0 63 15 127l37 174q6 24 6 43q0 75 -42 106t-134 31z" horiz-adv-x="735" unicode="{"/><glyph d="M442 -465v2013h271v-2013h-271z" horiz-adv-x="1159" unicode="|"/><glyph d="M-123 -43q73 3 109 13.5t54 33.5t30 82l53 258q21 99 88 154t190 67v8q-170 55 -170 234q0 12 11 74l34 163q7 29 7 50q0 88 -136 88l54 280h61q168 0 259 -70.5t91 -203.5q0 -69 -14 -129l-37 -174q-6 -26 -6 -43q0 -66 44.5 -100.5t148.5 -34.5l-58 -287 q-121 0 -182.5 -40.5t-81.5 -133.5l-55 -246q-37 -171 -137.5 -247.5t-282.5 -76.5h-74v281z" horiz-adv-x="735" unicode="}"/><glyph d="M96 524v285q107 109 262 109q61 0 110.5 -11.5t152.5 -52.5q67 -28 114 -41.5t99 -13.5q51 0 115.5 32t121.5 89v-285q-107 -109 -262 -109q-62 0 -113.5 12.5t-148.5 51.5q-75 31 -118.5 43t-92.5 12q-52 0 -114.5 -30t-125.5 -91z" horiz-adv-x="1159" unicode="~"/><glyph d="M-109 -338l254 946h328l-156 -946h-426zM107 -324zM162 924q0 109 64 169t173 60q89 0 138 -39.5t49 -112.5q0 -107 -65 -170t-179 -63q-87 0 -133.5 40.5t-46.5 115.5z" horiz-adv-x="623" unicode="¡"/><glyph d="M154 586q0 306 140.5 510t371.5 239l32 148h230l-33 -150q122 -19 231 -76l-122 -286q-79 37 -128 48t-98 11q-63 0 -115 -49.5t-84 -146.5t-32 -207q0 -79 31 -113.5t90 -34.5q72 0 140 25t142 65v-311q-145 -78 -307 -90l-41 -188h-229l51 208q-270 74 -270 398z" horiz-adv-x="1188" unicode="¢"/><glyph d="M-18 0l63 313q76 21 120.5 49t69 69.5t41.5 123.5l21 96h-188l57 279h188l23 129q26 149 85 243t150.5 137.5t237.5 43.5q89 0 177 -19t196 -67l-144 -299q-66 31 -114 47t-99 16q-35 0 -56.5 -24.5t-35.5 -92.5l-24 -114h251l-57 -279h-252l-20 -94 q-16 -74 -69.5 -133.5t-133.5 -93.5h604l-72 -330h-1019z" horiz-adv-x="1188" unicode="£"/><glyph d="M106 1032l185 185l127 -125q96 43 182 43q96 0 184 -48l125 130l189 -179l-129 -129q43 -82 43 -186q0 -94 -43 -186l123 -123l-183 -183l-125 123q-96 -41 -184 -41q-108 0 -186 39l-123 -119l-182 183l127 123q-46 90 -46 184q0 92 46 184zM451 723q0 -64 43 -108 t106 -44q65 0 110.5 44.5t45.5 107.5q0 61 -44.5 106t-111.5 45q-64 0 -106.5 -44t-42.5 -107z" horiz-adv-x="1188" unicode="¤"/><glyph d="M76 190l43 205h227l25 129h-226l45 205h179l-187 733h385l72 -487l293 487h393l-489 -733h184l-45 -205h-223l-27 -129h223l-43 -205h-223l-41 -190h-379l41 190h-227z" horiz-adv-x="1188" unicode="¥"/><glyph d="M444 395h271v-839h-271v839zM444 705v841h271v-841h-271z" horiz-adv-x="1159" unicode="¦"/><glyph d="M37 70v249q85 -52 173 -86t185 -34q69 0 109.5 28.5t40.5 75.5q0 38 -31 70.5t-104 72.5q-130 71 -191 152t-61 178q0 84 46 156t132 125q-38 38 -59 89.5t-21 102.5q0 160 116 244t339 84q184 0 360 -102l-100 -224q-91 58 -159.5 79.5t-133.5 21.5q-60 0 -85.5 -22.5 t-25.5 -51.5q0 -33 14 -53.5t46.5 -43t89.5 -48.5q244 -113 244 -312q0 -99 -38 -171t-130 -124q32 -38 50.5 -90.5t18.5 -109.5q0 -170 -127 -260.5t-358 -90.5q-110 0 -197 25.5t-143 69.5zM442 817q0 -43 37 -84t125 -90q74 51 74 127q0 54 -36.5 95t-117.5 75 q-37 -19 -59.5 -54t-22.5 -69z" horiz-adv-x="1036" unicode="§"/><glyph d="M336 1384q0 187 201 187q170 0 170 -125q0 -189 -201 -189q-88 0 -129 31t-41 96zM823 1384q0 187 201 187q168 0 168 -125q0 -97 -49.5 -143t-149.5 -46q-88 0 -129 31t-41 96z" horiz-adv-x="1135" unicode="¨"/><glyph d="M113 731q0 202 101.5 378t275.5 275t374 99t375 -100t276 -275t101 -377q0 -197 -97 -370t-272 -277t-383 -104q-206 0 -380 102.5t-272.5 276.5t-98.5 372zM276 731q0 -158 78.5 -294t215 -215t294.5 -79q157 0 293 77.5t215.5 214t79.5 296.5q0 158 -78.5 294.5 t-215 215t-294.5 78.5t-295.5 -79.5t-215 -215.5t-77.5 -293zM461 735q0 220 113.5 341.5t320.5 121.5q166 0 332 -82l-92 -205q-114 60 -222 60q-80 0 -126 -61t-46 -179q0 -128 44 -185t135 -57q138 0 258 68v-231q-126 -64 -273 -64q-213 0 -328.5 125t-115.5 348z" horiz-adv-x="1688" unicode="©"/><glyph d="M139 1001q0 120 45 232t123 177t176 65q64 0 111.5 -20t101.5 -79h9l36 86h199l-170 -721h-195l9 86h-9q-89 -98 -223 -98q-60 0 -108 31.5t-76.5 91.5t-28.5 149zM412 1012q0 -48 19 -74.5t50 -26.5q46 0 79 38.5t51 100t18 128.5q0 53 -19.5 83.5t-52.5 30.5 q-39 0 -72.5 -40.5t-53 -107.5t-19.5 -132z" horiz-adv-x="827" unicode="ª"/><glyph d="M61 553v10l408 518l264 -204l-266 -334l111 -330l-334 -137zM608 582v10l424 495l260 -210l-278 -306l123 -358l-334 -137z" horiz-adv-x="1276" unicode="«"/><glyph d="M82 586v272h975v-620h-271v348h-704z" horiz-adv-x="1159" unicode="¬"/><glyph d="M23 393l63 312h553l-64 -312h-552z" horiz-adv-x="674" unicode="­"/><glyph d="M113 731q0 202 101.5 378t275.5 275t374 99t375 -100t276 -275t101 -377q0 -197 -97 -370t-272 -277t-383 -104q-206 0 -380 102.5t-272.5 276.5t-98.5 372zM276 731q0 -158 78.5 -294t215 -215t294.5 -79q157 0 293 77.5t215.5 214t79.5 296.5q0 158 -78.5 294.5 t-215 215t-294.5 78.5t-295.5 -79.5t-215 -215.5t-77.5 -293zM535 313v875h290q214 0 317 -70.5t103 -199.5q0 -91 -44.5 -153t-139.5 -97l211 -355h-285l-160 320h-12v-320h-280zM815 809h10q78 0 108 22t30 76t-35.5 70t-104.5 16h-8v-184z" horiz-adv-x="1688" unicode="®"/><glyph d="M183 1554l57 246h930l-58 -246h-929z" horiz-adv-x="922" unicode="¯"/><glyph d="M166 1114q0 97 49 182.5t135 136t185 50.5q98 0 184 -50t135 -136.5t49 -182.5q0 -98 -49.5 -183t-135.5 -133t-183 -48q-99 0 -185 49t-135 133t-49 182zM403 1114q0 -51 39.5 -89t92.5 -38q52 0 91.5 38t39.5 89q0 53 -38.5 93t-92.5 40q-55 0 -93.5 -39.5t-38.5 -93.5 z" horiz-adv-x="864" unicode="°"/><glyph d="M102 0v270h975v-270h-975zM102 694v271h353v352h270v-352h352v-271h-352v-350h-270v350h-353z" horiz-adv-x="1159" unicode="±"/><glyph d="M23 584l43 204l276 211q108 83 144 124t36 75q0 51 -63 51q-35 0 -85 -18t-104 -62l-118 191q84 65 172.5 94t216.5 29q134 0 218.5 -61t84.5 -156q0 -70 -31.5 -129.5t-102 -121t-251.5 -175.5h319l-51 -256h-704z" horiz-adv-x="848" unicode="²"/><glyph d="M66 639v225q63 -43 131.5 -62.5t124.5 -19.5q151 0 151 80q0 68 -113 68h-120l43 194h96q71 0 114.5 21.5t43.5 66.5q0 28 -22 43t-54 15q-79 0 -185 -66l-100 182q83 52 161 73.5t181 21.5q137 0 220 -57t83 -152q0 -91 -55.5 -146t-175.5 -84v-8q92 -23 129 -69.5 t37 -112.5q0 -127 -104 -205t-275 -78q-106 0 -177.5 16t-133.5 54z" horiz-adv-x="848" unicode="³"/><glyph d="M453 1241v23q123 102 282 305h439v-15q-45 -54 -191.5 -157t-245.5 -156h-284z" horiz-adv-x="1135" unicode="´"/><glyph d="M-82 -492l344 1625h387l-129 -617q-18 -78 -18 -141q0 -44 22.5 -65t53.5 -21q52 0 82.5 26t53.5 87t48 180l117 551h387l-240 -1133h-289l6 123h-8q-68 -143 -190 -143q-102 0 -131 77h-8q-10 -134 -48 -303l-53 -246h-387z" horiz-adv-x="1288" unicode="µ"/><glyph d="M102 1042q0 256 107.5 385t343.5 129h633v-1816h-191v1587h-157v-1587h-191v819q-54 -18 -125 -18q-216 0 -318 125t-102 376z" horiz-adv-x="1317" unicode="¶"/><glyph d="M115 684q0 106 65 168.5t178 62.5q82 0 131.5 -40.5t49.5 -114.5q0 -117 -65.5 -173.5t-178.5 -56.5q-86 0 -133 40t-47 114z" horiz-adv-x="627" unicode="·"/><glyph d="M-221 -258q30 -9 78.5 -18t72.5 -9q68 0 68 49q0 73 -145 101l75 135h205l-24 -41q178 -37 178 -195q0 -121 -82.5 -188.5t-233.5 -67.5q-115 0 -192 29v205z" horiz-adv-x="383" unicode="¸"/><glyph d="M115 1202l426 260h252l-187 -878h-317l82 364q21 102 55 207l-74 -59l-119 -78z" horiz-adv-x="848" unicode="¹"/><glyph d="M139 1004q0 213 116.5 344t317.5 131q143 0 222 -79t79 -218q0 -134 -51 -237t-149.5 -160.5t-231.5 -57.5q-144 0 -223.5 75.5t-79.5 201.5zM412 1016q0 -84 55 -84q59 0 97 70.5t38 179.5q0 45 -11.5 68.5t-43.5 23.5q-60 0 -97.5 -73t-37.5 -185z" horiz-adv-x="817" unicode="º"/><glyph d="M-14 248l276 305l-121 358l332 138l195 -506v-11l-424 -497zM543 248l266 334l-111 329l334 138l182 -478v-10l-407 -518z" horiz-adv-x="1276" unicode="»"/><glyph d="M921 122l31 178l490 577h325l-119 -557h113l-41 -198h-113l-26 -123h-289l27 123h-398zM1198 320h162q62 239 73 274t15 44q-13 -18 -35 -48.5t-215 -269.5zM195 0l1089 1462h291l-1083 -1462h-297zM79 1202l426 260h252l-187 -878h-317l82 364q21 102 55 207l-74 -59 l-119 -78z" horiz-adv-x="1991" unicode="¼"/><glyph d="M1002 -1l43 204l276 211q108 83 144 124t36 75q0 51 -63 51q-35 0 -85 -18t-104 -62l-118 191q84 65 172.5 94t216.5 29q134 0 218.5 -61t84.5 -156q0 -70 -31.5 -129.5t-102 -121t-251.5 -175.5h319l-51 -256h-704zM104 1202l426 260h252l-187 -878h-317l82 364 q21 102 55 207l-74 -59l-119 -78zM219 0l1089 1462h291l-1083 -1462h-297z" horiz-adv-x="1991" unicode="½"/><glyph d="M968 122l31 178l490 577h325l-119 -557h113l-41 -198h-113l-26 -123h-289l27 123h-398zM1245 320h162q62 239 73 274t15 44q-13 -18 -35 -48.5t-215 -269.5zM195 639v225q63 -43 131.5 -62.5t124.5 -19.5q151 0 151 80q0 68 -113 68h-120l43 194h96q71 0 114.5 21.5 t43.5 66.5q0 28 -22 43t-54 15q-79 0 -185 -66l-100 182q83 52 161 73.5t181 21.5q137 0 220 -57t83 -152q0 -91 -55.5 -146t-175.5 -84v-8q92 -23 129 -69.5t37 -112.5q0 -127 -104 -205t-275 -78q-106 0 -177.5 16t-133.5 54zM363 0l1089 1462h291l-1083 -1462h-297z" horiz-adv-x="1991" unicode="¾"/><glyph d="M-84 -16q0 89 27.5 155.5t77.5 119t172 126.5q100 60 142.5 101t55.5 83l15 43h315l-12 -63q-15 -82 -43 -140t-72.5 -104.5t-138.5 -107.5q-89 -58 -125.5 -95t-36.5 -77q0 -37 22.5 -53.5t67.5 -16.5q124 0 313 108l119 -282q-227 -135 -461 -135q-201 0 -319.5 90 t-118.5 248zM285 -324zM377 924q0 109 64 169t173 60q89 0 138 -39.5t49 -112.5q0 -107 -65 -170t-179 -63q-87 0 -133.5 40.5t-46.5 115.5z" horiz-adv-x="999" unicode="¿"/><glyph d="M-121 0l744 1462h503l123 -1462h-381l-10 274h-448l-125 -274h-406zM553 586h293l-17 424l-2 86q0 75 4 131q-24 -86 -61 -166zM551 1886v21h396q29 -157 94 -303v-25h-236q-82 75 -152 159t-102 148z" horiz-adv-x="1384" unicode="À"/><glyph d="M-121 0l744 1462h503l123 -1462h-381l-10 274h-448l-125 -274h-406zM553 586h293l-17 424l-2 86q0 75 4 131q-24 -86 -61 -166zM709 1579v23q123 102 282 305h439v-15q-45 -54 -191.5 -157t-245.5 -156h-284z" horiz-adv-x="1384" unicode="Á"/><glyph d="M-121 0l744 1462h503l123 -1462h-381l-10 274h-448l-125 -274h-406zM553 586h293l-17 424l-2 86q0 75 4 131q-24 -86 -61 -166zM399 1579v23q79 72 170 162.5t139 142.5h447q26 -59 78 -149.5t102 -155.5v-23h-266q-46 41 -156 174q-140 -110 -240 -174h-274z" horiz-adv-x="1384" unicode="Â"/><glyph d="M-121 0l744 1462h503l123 -1462h-381l-10 274h-448l-125 -274h-406zM553 586h293l-17 424l-2 86q0 75 4 131q-24 -86 -61 -166zM459 1575q32 172 108.5 257t204.5 85q34 0 59.5 -6.5t94.5 -42.5q31 -17 66 -33t67 -16q78 0 115 100h190q-34 -172 -112.5 -257t-208.5 -85 q-33 0 -65 8t-61 22t-46 23q-73 45 -127 45q-31 0 -60.5 -27t-36.5 -73h-188z" horiz-adv-x="1384" unicode="Ã"/><glyph d="M-121 0l744 1462h503l123 -1462h-381l-10 274h-448l-125 -274h-406zM553 586h293l-17 424l-2 86q0 75 4 131q-24 -86 -61 -166zM502 1722q0 187 201 187q170 0 170 -125q0 -189 -201 -189q-88 0 -129 31t-41 96zM989 1722q0 187 201 187q168 0 168 -125q0 -97 -49.5 -143 t-149.5 -46q-88 0 -129 31t-41 96z" horiz-adv-x="1384" unicode="Ä"/><glyph d="M-121 0l744 1462h503l123 -1462h-381l-10 274h-448l-125 -274h-406zM553 586h293l-17 424l-2 86q0 75 4 131q-24 -86 -61 -166zM608 1550q0 114 73.5 184t195.5 70q118 0 193 -70.5t75 -181.5q0 -113 -74.5 -183.5t-193.5 -70.5q-121 0 -195 68.5t-74 183.5zM788 1550 q0 -37 23.5 -60.5t65.5 -23.5q39 0 63.5 25t24.5 59q0 38 -26.5 62t-61.5 24q-36 0 -62.5 -24t-26.5 -62z" horiz-adv-x="1384" unicode="Å"/><glyph d="M-125 0l909 1462h1213l-66 -317h-477l-47 -230h444l-71 -317h-445l-57 -276h477l-67 -322h-869l58 274h-418l-170 -274h-414zM662 602h286l113 543h-68z" horiz-adv-x="1937" unicode="Æ"/><glyph d="M104 549q0 266 101.5 488t276 335t399.5 113q265 0 481 -131l-148 -305q-93 55 -171 82.5t-162 27.5q-108 0 -195 -78t-136.5 -215t-49.5 -297q0 -134 56 -200t161 -66q83 0 168 20.5t200 69.5v-323q-203 -90 -440 -90q-260 0 -400.5 148.5t-140.5 420.5zM305 -258 q30 -9 78.5 -18t72.5 -9q68 0 68 49q0 73 -145 101l75 135h205l-24 -41q178 -37 178 -195q0 -121 -82.5 -188.5t-233.5 -67.5q-115 0 -192 29v205z" horiz-adv-x="1290" unicode="Ç"/><glyph d="M33 0l309 1462h868l-65 -317h-477l-47 -230h444l-72 -317h-444l-57 -276h477l-68 -322h-868zM443 1886v21h396q29 -157 94 -303v-25h-236q-82 75 -152 159t-102 148z" horiz-adv-x="1151" unicode="È"/><glyph d="M33 0l309 1462h868l-65 -317h-477l-47 -230h444l-72 -317h-444l-57 -276h477l-68 -322h-868zM578 1579v23q123 102 282 305h439v-15q-45 -54 -191.5 -157t-245.5 -156h-284z" horiz-adv-x="1151" unicode="É"/><glyph d="M33 0l309 1462h868l-65 -317h-477l-47 -230h444l-72 -317h-444l-57 -276h477l-68 -322h-868zM303 1579v23q79 72 170 162.5t139 142.5h447q26 -59 78 -149.5t102 -155.5v-23h-266q-46 41 -156 174q-140 -110 -240 -174h-274z" horiz-adv-x="1151" unicode="Ê"/><glyph d="M33 0l309 1462h868l-65 -317h-477l-47 -230h444l-72 -317h-444l-57 -276h477l-68 -322h-868zM383 1722q0 187 201 187q170 0 170 -125q0 -189 -201 -189q-88 0 -129 31t-41 96zM870 1722q0 187 201 187q168 0 168 -125q0 -97 -49.5 -143t-149.5 -46q-88 0 -129 31t-41 96 z" horiz-adv-x="1151" unicode="Ë"/><glyph d="M31 0l309 1462h397l-309 -1462h-397zM259 1886v21h396q29 -157 94 -303v-25h-236q-82 75 -152 159t-102 148z" horiz-adv-x="727" unicode="Ì"/><glyph d="M31 0l309 1462h397l-309 -1462h-397zM345 1579v23q123 102 282 305h439v-15q-45 -54 -191.5 -157t-245.5 -156h-284z" horiz-adv-x="727" unicode="Í"/><glyph d="M31 0l309 1462h397l-309 -1462h-397zM79 1579v23q79 72 170 162.5t139 142.5h447q26 -59 78 -149.5t102 -155.5v-23h-266q-46 41 -156 174q-140 -110 -240 -174h-274z" horiz-adv-x="727" unicode="Î"/><glyph d="M31 0l309 1462h397l-309 -1462h-397zM159 1722q0 187 201 187q170 0 170 -125q0 -189 -201 -189q-88 0 -129 31t-41 96zM646 1722q0 187 201 187q168 0 168 -125q0 -97 -49.5 -143t-149.5 -46q-88 0 -129 31t-41 96z" horiz-adv-x="727" unicode="Ï"/><glyph d="M10 563l70 320h139l123 579h430q271 0 418 -143.5t147 -409.5q0 -434 -213 -671.5t-598 -237.5h-493l119 563h-142zM494 324h69q111 0 198 71.5t134 204t47 301.5q0 116 -54 179t-151 63h-71l-56 -260h178l-69 -320h-176z" horiz-adv-x="1401" unicode="Ð"/><glyph d="M33 0l309 1462h455l286 -983h9q29 236 57 371l131 612h348l-309 -1462h-455l-289 1028h-8q-29 -291 -57 -418l-129 -610h-348zM553 1575q32 172 108.5 257t204.5 85q34 0 59.5 -6.5t94.5 -42.5q31 -17 66 -33t67 -16q78 0 115 100h190q-34 -172 -112.5 -257t-208.5 -85 q-33 0 -65 8t-61 22t-46 23q-73 45 -127 45q-31 0 -60.5 -27t-36.5 -73h-188z" horiz-adv-x="1618" unicode="Ñ"/><glyph d="M104 543q0 265 103 487t280.5 338.5t409.5 116.5q260 0 404.5 -148.5t144.5 -414.5t-99.5 -486.5t-274.5 -338t-406 -117.5q-269 0 -415.5 149t-146.5 414zM500 545q0 -242 200 -242q95 0 176.5 83t128 224t46.5 308q0 114 -48 178.5t-139 64.5q-99 0 -182 -84 t-132.5 -231t-49.5 -301zM612 1886v21h396q29 -157 94 -303v-25h-236q-82 75 -152 159t-102 148z" horiz-adv-x="1509" unicode="Ò"/><glyph d="M104 543q0 265 103 487t280.5 338.5t409.5 116.5q260 0 404.5 -148.5t144.5 -414.5t-99.5 -486.5t-274.5 -338t-406 -117.5q-269 0 -415.5 149t-146.5 414zM500 545q0 -242 200 -242q95 0 176.5 83t128 224t46.5 308q0 114 -48 178.5t-139 64.5q-99 0 -182 -84 t-132.5 -231t-49.5 -301zM717 1579v23q123 102 282 305h439v-15q-45 -54 -191.5 -157t-245.5 -156h-284z" horiz-adv-x="1509" unicode="Ó"/><glyph d="M104 543q0 265 103 487t280.5 338.5t409.5 116.5q260 0 404.5 -148.5t144.5 -414.5t-99.5 -486.5t-274.5 -338t-406 -117.5q-269 0 -415.5 149t-146.5 414zM500 545q0 -242 200 -242q95 0 176.5 83t128 224t46.5 308q0 114 -48 178.5t-139 64.5q-99 0 -182 -84 t-132.5 -231t-49.5 -301zM432 1579v23q79 72 170 162.5t139 142.5h447q26 -59 78 -149.5t102 -155.5v-23h-266q-46 41 -156 174q-140 -110 -240 -174h-274z" horiz-adv-x="1509" unicode="Ô"/><glyph d="M104 543q0 265 103 487t280.5 338.5t409.5 116.5q260 0 404.5 -148.5t144.5 -414.5t-99.5 -486.5t-274.5 -338t-406 -117.5q-269 0 -415.5 149t-146.5 414zM500 545q0 -242 200 -242q95 0 176.5 83t128 224t46.5 308q0 114 -48 178.5t-139 64.5q-99 0 -182 -84 t-132.5 -231t-49.5 -301zM489 1575q32 172 108.5 257t204.5 85q34 0 59.5 -6.5t94.5 -42.5q31 -17 66 -33t67 -16q78 0 115 100h190q-34 -172 -112.5 -257t-208.5 -85q-33 0 -65 8t-61 22t-46 23q-73 45 -127 45q-31 0 -60.5 -27t-36.5 -73h-188z" horiz-adv-x="1509" unicode="Õ"/><glyph d="M104 543q0 265 103 487t280.5 338.5t409.5 116.5q260 0 404.5 -148.5t144.5 -414.5t-99.5 -486.5t-274.5 -338t-406 -117.5q-269 0 -415.5 149t-146.5 414zM500 545q0 -242 200 -242q95 0 176.5 83t128 224t46.5 308q0 114 -48 178.5t-139 64.5q-99 0 -182 -84 t-132.5 -231t-49.5 -301zM512 1722q0 187 201 187q170 0 170 -125q0 -189 -201 -189q-88 0 -129 31t-41 96zM999 1722q0 187 201 187q168 0 168 -125q0 -97 -49.5 -143t-149.5 -46q-88 0 -129 31t-41 96z" horiz-adv-x="1509" unicode="Ö"/><glyph d="M102 1010l187 190l289 -285l292 285l191 -184l-293 -293l287 -291l-185 -188l-292 288l-289 -286l-185 188l283 289z" horiz-adv-x="1159" unicode="×"/><glyph d="M94 31l117 145q-107 141 -107 367q0 262 101 484.5t275.5 340t398.5 117.5q182 0 315 -72l92 115l156 -119l-99 -125q103 -143 103 -362q0 -258 -98.5 -480.5t-271 -342t-392.5 -119.5q-192 0 -324 69l-106 -135zM500 539l467 589q-45 33 -115 33q-94 0 -175 -82 t-129 -224t-48 -306v-10zM586 332q46 -29 114 -29q95 0 176 81.5t128 222.5t47 308z" horiz-adv-x="1509" unicode="Ø"/><glyph d="M125 410q0 64 12 129l199 923h391l-195 -913q-14 -68 -14 -115q0 -127 121 -127q94 0 147.5 64.5t81.5 197.5l191 893h391l-199 -932q-59 -281 -225 -415.5t-451 -134.5q-134 0 -236.5 55t-158 154t-55.5 221zM555 1886v21h396q29 -157 94 -303v-25h-236q-82 75 -152 159 t-102 148z" horiz-adv-x="1436" unicode="Ù"/><glyph d="M125 410q0 64 12 129l199 923h391l-195 -913q-14 -68 -14 -115q0 -127 121 -127q94 0 147.5 64.5t81.5 197.5l191 893h391l-199 -932q-59 -281 -225 -415.5t-451 -134.5q-134 0 -236.5 55t-158 154t-55.5 221zM725 1579v23q123 102 282 305h439v-15q-45 -54 -191.5 -157 t-245.5 -156h-284z" horiz-adv-x="1436" unicode="Ú"/><glyph d="M125 410q0 64 12 129l199 923h391l-195 -913q-14 -68 -14 -115q0 -127 121 -127q94 0 147.5 64.5t81.5 197.5l191 893h391l-199 -932q-59 -281 -225 -415.5t-451 -134.5q-134 0 -236.5 55t-158 154t-55.5 221zM440 1579v23q79 72 170 162.5t139 142.5h447 q26 -59 78 -149.5t102 -155.5v-23h-266q-46 41 -156 174q-140 -110 -240 -174h-274z" horiz-adv-x="1436" unicode="Û"/><glyph d="M125 410q0 64 12 129l199 923h391l-195 -913q-14 -68 -14 -115q0 -127 121 -127q94 0 147.5 64.5t81.5 197.5l191 893h391l-199 -932q-59 -281 -225 -415.5t-451 -134.5q-134 0 -236.5 55t-158 154t-55.5 221zM533 1722q0 187 201 187q170 0 170 -125q0 -189 -201 -189 q-88 0 -129 31t-41 96zM1020 1722q0 187 201 187q168 0 168 -125q0 -97 -49.5 -143t-149.5 -46q-88 0 -129 31t-41 96z" horiz-adv-x="1436" unicode="Ü"/><glyph d="M164 1462h403l90 -542l312 542h436l-612 -895l-121 -567h-391l120 567zM615 1579v23q123 102 282 305h439v-15q-45 -54 -191.5 -157t-245.5 -156h-284z" horiz-adv-x="1237" unicode="Ý"/><glyph d="M33 0l309 1462h391l-45 -211q251 0 385.5 -114t134.5 -326q0 -250 -170.5 -393.5t-470.5 -143.5h-86l-57 -274h-391zM551 594h63q94 0 148.5 49t54.5 156q0 58 -41.5 95.5t-107.5 37.5h-45z" horiz-adv-x="1276" unicode="Þ"/><glyph d="M-260 -162q63 -18 117 -18q74 0 111.5 30t51.5 95l244 1151q53 249 201.5 360t417.5 111q243 0 379.5 -99t136.5 -274q0 -118 -51 -198t-162 -132q-117 -56 -117 -102q0 -29 20.5 -50.5t87.5 -56.5q95 -51 140 -118t45 -164q0 -117 -58.5 -205.5t-170 -138t-271.5 -49.5 q-161 0 -274 45v299q59 -29 136.5 -45.5t133.5 -16.5q59 0 87 22t28 50q0 32 -19.5 53.5t-113.5 83.5q-88 56 -127 111.5t-39 130.5q0 92 42 150.5t165 125.5q71 40 100 76t29 80q0 58 -41.5 88.5t-116.5 30.5q-78 0 -132.5 -50t-74.5 -147l-252 -1184 q-43 -192 -153.5 -283.5t-292.5 -91.5q-110 0 -207 27v303z" horiz-adv-x="1460" unicode="ß"/><glyph d="M84 412q0 179 73 365t184.5 281t246.5 95q84 0 148 -37.5t114 -122.5h8l53 140h310l-240 -1133h-309l10 123h-8q-56 -78 -121 -110.5t-147 -32.5q-158 0 -240 111.5t-82 320.5zM479 434q0 -143 86 -143q50 0 95.5 58.5t72.5 156.5t27 192q0 65 -20 104.5t-62 39.5 q-76 0 -137.5 -126.5t-61.5 -281.5zM400 1548v21h396q29 -157 94 -303v-25h-236q-82 75 -152 159t-102 148z" unicode="à"/><glyph d="M84 412q0 179 73 365t184.5 281t246.5 95q84 0 148 -37.5t114 -122.5h8l53 140h310l-240 -1133h-309l10 123h-8q-56 -78 -121 -110.5t-147 -32.5q-158 0 -240 111.5t-82 320.5zM479 434q0 -143 86 -143q50 0 95.5 58.5t72.5 156.5t27 192q0 65 -20 104.5t-62 39.5 q-76 0 -137.5 -126.5t-61.5 -281.5zM531 1241v23q123 102 282 305h439v-15q-45 -54 -191.5 -157t-245.5 -156h-284z" unicode="á"/><glyph d="M84 412q0 179 73 365t184.5 281t246.5 95q84 0 148 -37.5t114 -122.5h8l53 140h310l-240 -1133h-309l10 123h-8q-56 -78 -121 -110.5t-147 -32.5q-158 0 -240 111.5t-82 320.5zM479 434q0 -143 86 -143q50 0 95.5 58.5t72.5 156.5t27 192q0 65 -20 104.5t-62 39.5 q-76 0 -137.5 -126.5t-61.5 -281.5zM262 1238v23q79 72 170 162.5t139 142.5h447q26 -59 78 -149.5t102 -155.5v-23h-266q-46 41 -156 174q-140 -110 -240 -174h-274z" unicode="â"/><glyph d="M84 412q0 179 73 365t184.5 281t246.5 95q84 0 148 -37.5t114 -122.5h8l53 140h310l-240 -1133h-309l10 123h-8q-56 -78 -121 -110.5t-147 -32.5q-158 0 -240 111.5t-82 320.5zM479 434q0 -143 86 -143q50 0 95.5 58.5t72.5 156.5t27 192q0 65 -20 104.5t-62 39.5 q-76 0 -137.5 -126.5t-61.5 -281.5zM301 1237q32 172 108.5 257t204.5 85q34 0 59.5 -6.5t94.5 -42.5q31 -17 66 -33t67 -16q78 0 115 100h190q-34 -172 -112.5 -257t-208.5 -85q-33 0 -65 8t-61 22t-46 23q-73 45 -127 45q-31 0 -60.5 -27t-36.5 -73h-188z" unicode="ã"/><glyph d="M84 412q0 179 73 365t184.5 281t246.5 95q84 0 148 -37.5t114 -122.5h8l53 140h310l-240 -1133h-309l10 123h-8q-56 -78 -121 -110.5t-147 -32.5q-158 0 -240 111.5t-82 320.5zM479 434q0 -143 86 -143q50 0 95.5 58.5t72.5 156.5t27 192q0 65 -20 104.5t-62 39.5 q-76 0 -137.5 -126.5t-61.5 -281.5zM331 1384q0 187 201 187q170 0 170 -125q0 -189 -201 -189q-88 0 -129 31t-41 96zM818 1384q0 187 201 187q168 0 168 -125q0 -97 -49.5 -143t-149.5 -46q-88 0 -129 31t-41 96z" unicode="ä"/><glyph d="M84 412q0 179 73 365t184.5 281t246.5 95q84 0 148 -37.5t114 -122.5h8l53 140h310l-240 -1133h-309l10 123h-8q-56 -78 -121 -110.5t-147 -32.5q-158 0 -240 111.5t-82 320.5zM479 434q0 -143 86 -143q50 0 95.5 58.5t72.5 156.5t27 192q0 65 -20 104.5t-62 39.5 q-76 0 -137.5 -126.5t-61.5 -281.5zM488 1489q0 114 73.5 184t195.5 70q118 0 193 -70.5t75 -181.5q0 -113 -74.5 -183.5t-193.5 -70.5q-121 0 -195 68.5t-74 183.5zM668 1489q0 -37 23.5 -60.5t65.5 -23.5q39 0 63.5 25t24.5 59q0 38 -26.5 62t-61.5 24q-36 0 -62.5 -24 t-26.5 -62z" unicode="å"/><glyph d="M84 412q0 179 73 365t184.5 281t246.5 95q92 0 152 -38t110 -122h8l53 140h207v-95q58 56 132.5 85.5t146.5 29.5q157 0 251.5 -86.5t94.5 -228.5q0 -201 -157 -308.5t-451 -107.5h-60v-16q0 -148 164 -148q79 0 155 23.5t173 74.5v-274q-99 -58 -182.5 -80t-192.5 -22 q-179 0 -262 112l-31 -92h-227l10 123h-8q-56 -78 -121 -110.5t-147 -32.5q-158 0 -240 111.5t-82 320.5zM479 434q0 -143 86 -143q76 0 134.5 123t58.5 284q0 65 -23 104.5t-65 39.5q-49 0 -93 -57.5t-71 -155t-27 -195.5zM1114 664h29q109 0 171 41.5t62 109.5 q0 32 -20 54t-64 22q-61 0 -114 -69.5t-64 -157.5z" horiz-adv-x="1788" unicode="æ"/><glyph d="M84 442q0 201 76.5 364.5t215 255t314.5 91.5q195 0 367 -80l-123 -287q-133 60 -225 60q-62 0 -115 -48t-87 -143.5t-34 -187.5q0 -91 30 -133.5t95 -42.5q72 0 139.5 23t143.5 63v-307q-80 -44 -168.5 -67t-206.5 -23q-199 0 -310.5 120.5t-111.5 341.5zM176 -258 q30 -9 78.5 -18t72.5 -9q68 0 68 49q0 73 -145 101l75 135h205l-24 -41q178 -37 178 -195q0 -121 -82.5 -188.5t-233.5 -67.5q-115 0 -192 29v205z" horiz-adv-x="1032" unicode="ç"/><glyph d="M84 428q0 211 83.5 380.5t229 257t336.5 87.5q190 0 299 -86t109 -229q0 -201 -156.5 -308.5t-452.5 -107.5h-59v-16q0 -148 164 -148q79 0 155 23.5t173 74.5v-274q-112 -57 -209 -79.5t-224 -22.5q-212 0 -330 118.5t-118 329.5zM512 664h29q109 0 171 41.5t62 109.5 q0 32 -20 54t-64 22q-61 0 -114 -69.5t-64 -157.5zM429 1548v21h396q29 -157 94 -303v-25h-236q-82 75 -152 159t-102 148z" horiz-adv-x="1186" unicode="è"/><glyph d="M84 428q0 211 83.5 380.5t229 257t336.5 87.5q190 0 299 -86t109 -229q0 -201 -156.5 -308.5t-452.5 -107.5h-59v-16q0 -148 164 -148q79 0 155 23.5t173 74.5v-274q-112 -57 -209 -79.5t-224 -22.5q-212 0 -330 118.5t-118 329.5zM512 664h29q109 0 171 41.5t62 109.5 q0 32 -20 54t-64 22q-61 0 -114 -69.5t-64 -157.5zM523 1241v23q123 102 282 305h439v-15q-45 -54 -191.5 -157t-245.5 -156h-284z" horiz-adv-x="1186" unicode="é"/><glyph d="M84 428q0 211 83.5 380.5t229 257t336.5 87.5q190 0 299 -86t109 -229q0 -201 -156.5 -308.5t-452.5 -107.5h-59v-16q0 -148 164 -148q79 0 155 23.5t173 74.5v-274q-112 -57 -209 -79.5t-224 -22.5q-212 0 -330 118.5t-118 329.5zM512 664h29q109 0 171 41.5t62 109.5 q0 32 -20 54t-64 22q-61 0 -114 -69.5t-64 -157.5zM277 1241v23q79 72 170 162.5t139 142.5h447q26 -59 78 -149.5t102 -155.5v-23h-266q-46 41 -156 174q-140 -110 -240 -174h-274z" horiz-adv-x="1186" unicode="ê"/><glyph d="M84 428q0 211 83.5 380.5t229 257t336.5 87.5q190 0 299 -86t109 -229q0 -201 -156.5 -308.5t-452.5 -107.5h-59v-16q0 -148 164 -148q79 0 155 23.5t173 74.5v-274q-112 -57 -209 -79.5t-224 -22.5q-212 0 -330 118.5t-118 329.5zM512 664h29q109 0 171 41.5t62 109.5 q0 32 -20 54t-64 22q-61 0 -114 -69.5t-64 -157.5zM336 1384q0 187 201 187q170 0 170 -125q0 -189 -201 -189q-88 0 -129 31t-41 96zM823 1384q0 187 201 187q168 0 168 -125q0 -97 -49.5 -143t-149.5 -46q-88 0 -129 31t-41 96z" horiz-adv-x="1186" unicode="ë"/><glyph d="M23 0l239 1133h389l-241 -1133h-387zM167 1548v21h396q29 -157 94 -303v-25h-236q-82 75 -152 159t-102 148z" horiz-adv-x="666" unicode="ì"/><glyph d="M23 0l239 1133h389l-241 -1133h-387zM294 1241v23q123 102 282 305h439v-15q-45 -54 -191.5 -157t-245.5 -156h-284z" horiz-adv-x="666" unicode="í"/><glyph d="M23 0l239 1133h389l-241 -1133h-387zM-7 1241v23q79 72 170 162.5t139 142.5h447q26 -59 78 -149.5t102 -155.5v-23h-266q-46 41 -156 174q-140 -110 -240 -174h-274z" horiz-adv-x="666" unicode="î"/><glyph d="M23 0l239 1133h389l-241 -1133h-387zM91 1384q0 187 201 187q170 0 170 -125q0 -189 -201 -189q-88 0 -129 31t-41 96zM578 1384q0 187 201 187q168 0 168 -125q0 -97 -49.5 -143t-149.5 -46q-88 0 -129 31t-41 96z" horiz-adv-x="666" unicode="ï"/><glyph d="M84 426q0 170 62.5 305t178.5 209t267 74q130 0 203 -88l10 4q-19 142 -90 246l-273 -127l-82 168l220 102q-29 25 -95 74l115 180q136 -61 231 -137l238 110l82 -166l-184 -90q71 -88 114 -249t43 -324q0 -360 -154.5 -548.5t-449.5 -188.5q-201 0 -318.5 119 t-117.5 327zM471 408q0 -148 84 -148q53 0 93 44.5t63.5 119t23.5 147.5q0 76 -18.5 119t-65.5 43q-81 0 -130.5 -101t-49.5 -224z" horiz-adv-x="1155" unicode="ð"/><glyph d="M23 0l239 1133h309l-12 -158h8q55 95 129.5 136.5t182.5 41.5q141 0 220 -85.5t79 -236.5q0 -106 -25 -229l-127 -602h-387l129 618q18 78 18 142q0 43 -22 64.5t-53 21.5q-57 0 -105.5 -71t-79.5 -222l-116 -553h-387zM319 1237q32 172 108.5 257t204.5 85 q34 0 59.5 -6.5t94.5 -42.5q31 -17 66 -33t67 -16q78 0 115 100h190q-34 -172 -112.5 -257t-208.5 -85q-33 0 -65 8t-61 22t-46 23q-73 45 -127 45q-31 0 -60.5 -27t-36.5 -73h-188z" horiz-adv-x="1274" unicode="ñ"/><glyph d="M84 416q0 210 79.5 379.5t223.5 263.5t336 94q209 0 322.5 -113t113.5 -323t-79.5 -379.5t-223.5 -263.5t-336 -94q-209 0 -322.5 113t-113.5 323zM479 403q0 -133 84 -133q81 0 141 139t60 320q0 66 -23 99.5t-63 33.5q-82 0 -140.5 -139.5t-58.5 -319.5zM404 1548v21 h396q29 -157 94 -303v-25h-236q-82 75 -152 159t-102 148z" unicode="ò"/><glyph d="M84 416q0 210 79.5 379.5t223.5 263.5t336 94q209 0 322.5 -113t113.5 -323t-79.5 -379.5t-223.5 -263.5t-336 -94q-209 0 -322.5 113t-113.5 323zM479 403q0 -133 84 -133q81 0 141 139t60 320q0 66 -23 99.5t-63 33.5q-82 0 -140.5 -139.5t-58.5 -319.5zM533 1241v23 q123 102 282 305h439v-15q-45 -54 -191.5 -157t-245.5 -156h-284z" unicode="ó"/><glyph d="M84 416q0 210 79.5 379.5t223.5 263.5t336 94q209 0 322.5 -113t113.5 -323t-79.5 -379.5t-223.5 -263.5t-336 -94q-209 0 -322.5 113t-113.5 323zM479 403q0 -133 84 -133q81 0 141 139t60 320q0 66 -23 99.5t-63 33.5q-82 0 -140.5 -139.5t-58.5 -319.5zM247 1241v23 q79 72 170 162.5t139 142.5h447q26 -59 78 -149.5t102 -155.5v-23h-266q-46 41 -156 174q-140 -110 -240 -174h-274z" unicode="ô"/><glyph d="M84 416q0 210 79.5 379.5t223.5 263.5t336 94q209 0 322.5 -113t113.5 -323t-79.5 -379.5t-223.5 -263.5t-336 -94q-209 0 -322.5 113t-113.5 323zM479 403q0 -133 84 -133q81 0 141 139t60 320q0 66 -23 99.5t-63 33.5q-82 0 -140.5 -139.5t-58.5 -319.5zM277 1237 q32 172 108.5 257t204.5 85q34 0 59.5 -6.5t94.5 -42.5q31 -17 66 -33t67 -16q78 0 115 100h190q-34 -172 -112.5 -257t-208.5 -85q-33 0 -65 8t-61 22t-46 23q-73 45 -127 45q-31 0 -60.5 -27t-36.5 -73h-188z" unicode="õ"/><glyph d="M84 416q0 210 79.5 379.5t223.5 263.5t336 94q209 0 322.5 -113t113.5 -323t-79.5 -379.5t-223.5 -263.5t-336 -94q-209 0 -322.5 113t-113.5 323zM479 403q0 -133 84 -133q81 0 141 139t60 320q0 66 -23 99.5t-63 33.5q-82 0 -140.5 -139.5t-58.5 -319.5zM317 1384 q0 187 201 187q170 0 170 -125q0 -189 -201 -189q-88 0 -129 31t-41 96zM804 1384q0 187 201 187q168 0 168 -125q0 -97 -49.5 -143t-149.5 -46q-88 0 -129 31t-41 96z" unicode="ö"/><glyph d="M102 586v272h975v-272h-975zM432 373q0 83 41 127.5t117 44.5q74 0 114.5 -44.5t40.5 -127.5q0 -81 -41.5 -126.5t-113.5 -45.5q-74 0 -116 46t-42 126zM432 1071q0 83 41 127.5t117 44.5q74 0 114.5 -44.5t40.5 -127.5q0 -81 -41.5 -126.5t-113.5 -45.5q-74 0 -116 46 t-42 126z" horiz-adv-x="1159" unicode="÷"/><glyph d="M66 -2l112 131q-94 117 -94 287q0 207 81.5 377.5t230.5 265t347 94.5q136 0 250 -57l105 121l127 -109l-105 -123q82 -114 82 -268q0 -208 -81 -377.5t-229 -264.5t-343 -95q-127 0 -238 49l-118 -140zM449 451l335 397q-35 29 -82 29q-67 0 -125 -55t-92 -153t-36 -218 zM518 274q29 -14 72 -14q107 0 172 101.5t74 287.5z" horiz-adv-x="1286" unicode="ø"/><glyph d="M96 301q0 106 25 229l127 603h387l-129 -617q-19 -82 -19 -141q0 -44 22.5 -65t53.5 -21q59 0 107.5 78.5t77.5 214.5l116 551h387l-239 -1133h-310l13 158h-8q-54 -93 -128.5 -135.5t-183.5 -42.5q-141 0 -220 85.5t-79 235.5zM412 1548v21h396q29 -157 94 -303v-25 h-236q-82 75 -152 159t-102 148z" horiz-adv-x="1274" unicode="ù"/><glyph d="M96 301q0 106 25 229l127 603h387l-129 -617q-19 -82 -19 -141q0 -44 22.5 -65t53.5 -21q59 0 107.5 78.5t77.5 214.5l116 551h387l-239 -1133h-310l13 158h-8q-54 -93 -128.5 -135.5t-183.5 -42.5q-141 0 -220 85.5t-79 235.5zM584 1241v23q123 102 282 305h439v-15 q-45 -54 -191.5 -157t-245.5 -156h-284z" horiz-adv-x="1274" unicode="ú"/><glyph d="M96 301q0 106 25 229l127 603h387l-129 -617q-19 -82 -19 -141q0 -44 22.5 -65t53.5 -21q59 0 107.5 78.5t77.5 214.5l116 551h387l-239 -1133h-310l13 158h-8q-54 -93 -128.5 -135.5t-183.5 -42.5q-141 0 -220 85.5t-79 235.5zM285 1241v23q79 72 170 162.5t139 142.5 h447q26 -59 78 -149.5t102 -155.5v-23h-266q-46 41 -156 174q-140 -110 -240 -174h-274z" horiz-adv-x="1274" unicode="û"/><glyph d="M96 301q0 106 25 229l127 603h387l-129 -617q-19 -82 -19 -141q0 -44 22.5 -65t53.5 -21q59 0 107.5 78.5t77.5 214.5l116 551h387l-239 -1133h-310l13 158h-8q-54 -93 -128.5 -135.5t-183.5 -42.5q-141 0 -220 85.5t-79 235.5zM371 1384q0 187 201 187q170 0 170 -125 q0 -189 -201 -189q-88 0 -129 31t-41 96zM858 1384q0 187 201 187q168 0 168 -125q0 -97 -49.5 -143t-149.5 -46q-88 0 -129 31t-41 96z" horiz-adv-x="1274" unicode="ü"/><glyph d="M-129 -168q46 -12 109 -12q87 0 142.5 36.5t98.5 114.5l23 41l-162 1121h389l43 -562l2 -62v-87h8q37 132 50 165.5t239 545.5h416l-670 -1276q-96 -185 -223 -267t-311 -82q-92 0 -154 17v307zM492 1241v23q123 102 282 305h439v-15q-45 -54 -191.5 -157t-245.5 -156 h-284z" horiz-adv-x="1114" unicode="ý"/><glyph d="M-82 -492l434 2048h387l-49 -231q-38 -175 -90 -301h8q44 59 96.5 94t131.5 35q151 0 237 -112t86 -306q0 -203 -70 -382.5t-185.5 -276t-252.5 -96.5q-143 0 -231 145h-8q-12 -166 -56 -371l-51 -246h-387zM485 434q0 -65 23 -104t65 -39q48 0 92 57t71.5 153t27.5 197 q0 144 -86 144q-50 0 -95 -57t-71.5 -154t-26.5 -197z" unicode="þ"/><glyph d="M-129 -168q46 -12 109 -12q87 0 142.5 36.5t98.5 114.5l23 41l-162 1121h389l43 -562l2 -62v-87h8q37 132 50 165.5t239 545.5h416l-670 -1276q-96 -185 -223 -267t-311 -82q-92 0 -154 17v307zM259 1384q0 187 201 187q170 0 170 -125q0 -189 -201 -189q-88 0 -129 31 t-41 96zM746 1384q0 187 201 187q168 0 168 -125q0 -97 -49.5 -143t-149.5 -46q-88 0 -129 31t-41 96z" horiz-adv-x="1114" unicode="ÿ"/><glyph d="M-121 0l744 1462h503l123 -1462h-381l-10 274h-448l-125 -274h-406zM553 586h293l-17 424l-2 86q0 75 4 131q-24 -86 -61 -166zM549 1579l51 236h665l-49 -236h-667z" horiz-adv-x="1384" unicode="Ā"/><glyph d="M84 412q0 179 73 365t184.5 281t246.5 95q84 0 148 -37.5t114 -122.5h8l53 140h310l-240 -1133h-309l10 123h-8q-56 -78 -121 -110.5t-147 -32.5q-158 0 -240 111.5t-82 320.5zM479 434q0 -143 86 -143q50 0 95.5 58.5t72.5 156.5t27 192q0 65 -20 104.5t-62 39.5 q-76 0 -137.5 -126.5t-61.5 -281.5zM406 1241l51 236h665l-49 -236h-667z" unicode="ā"/><glyph d="M-121 0l744 1462h503l123 -1462h-381l-10 274h-448l-125 -274h-406zM553 586h293l-17 424l-2 86q0 75 4 131q-24 -86 -61 -166zM518 1894q0 38 9 56h217q0 -65 44.5 -97t118.5 -32q85 0 132.5 32.5t68.5 96.5h221q-31 -188 -143 -279.5t-311 -91.5q-167 0 -262 83.5 t-95 231.5z" horiz-adv-x="1384" unicode="Ă"/><glyph d="M84 412q0 179 73 365t184.5 281t246.5 95q84 0 148 -37.5t114 -122.5h8l53 140h310l-240 -1133h-309l10 123h-8q-56 -78 -121 -110.5t-147 -32.5q-158 0 -240 111.5t-82 320.5zM479 434q0 -143 86 -143q50 0 95.5 58.5t72.5 156.5t27 192q0 65 -20 104.5t-62 39.5 q-76 0 -137.5 -126.5t-61.5 -281.5zM367 1556q0 38 9 56h217q0 -65 44.5 -97t118.5 -32q85 0 132.5 32.5t68.5 96.5h221q-31 -188 -143 -279.5t-311 -91.5q-167 0 -262 83.5t-95 231.5z" unicode="ă"/><glyph d="M-121 0l744 1462h503l123 -1462h-381l-10 274h-448l-125 -274h-406zM553 586h293l-17 424l-2 86q0 75 4 131q-24 -86 -61 -166zM775 -309q0 87 50 160t167 149h252q-97 -80 -127.5 -113.5t-47 -66t-16.5 -66.5q0 -20 13.5 -35.5t39.5 -15.5q47 0 117 25v-222 q-94 -30 -199 -30q-113 0 -181 60t-68 155z" horiz-adv-x="1384" unicode="Ą"/><glyph d="M84 412q0 179 73 365t184.5 281t246.5 95q84 0 148 -37.5t114 -122.5h8l53 140h310l-240 -1133h-309l10 123h-8q-56 -78 -121 -110.5t-147 -32.5q-158 0 -240 111.5t-82 320.5zM479 434q0 -143 86 -143q50 0 95.5 58.5t72.5 156.5t27 192q0 65 -20 104.5t-62 39.5 q-76 0 -137.5 -126.5t-61.5 -281.5zM500 -309q0 87 50 160t167 149h252q-97 -80 -127.5 -113.5t-47 -66t-16.5 -66.5q0 -20 13.5 -35.5t39.5 -15.5q47 0 117 25v-222q-94 -30 -199 -30q-113 0 -181 60t-68 155z" unicode="ą"/><glyph d="M104 549q0 266 101.5 488t276 335t399.5 113q265 0 481 -131l-148 -305q-93 55 -171 82.5t-162 27.5q-108 0 -195 -78t-136.5 -215t-49.5 -297q0 -134 56 -200t161 -66q83 0 168 20.5t200 69.5v-323q-203 -90 -440 -90q-260 0 -400.5 148.5t-140.5 420.5zM664 1579v23 q123 102 282 305h439v-15q-45 -54 -191.5 -157t-245.5 -156h-284z" horiz-adv-x="1290" unicode="Ć"/><glyph d="M84 442q0 201 76.5 364.5t215 255t314.5 91.5q195 0 367 -80l-123 -287q-133 60 -225 60q-62 0 -115 -48t-87 -143.5t-34 -187.5q0 -91 30 -133.5t95 -42.5q72 0 139.5 23t143.5 63v-307q-80 -44 -168.5 -67t-206.5 -23q-199 0 -310.5 120.5t-111.5 341.5zM500 1241v23 q123 102 282 305h439v-15q-45 -54 -191.5 -157t-245.5 -156h-284z" horiz-adv-x="1032" unicode="ć"/><glyph d="M104 549q0 266 101.5 488t276 335t399.5 113q265 0 481 -131l-148 -305q-93 55 -171 82.5t-162 27.5q-108 0 -195 -78t-136.5 -215t-49.5 -297q0 -134 56 -200t161 -66q83 0 168 20.5t200 69.5v-323q-203 -90 -440 -90q-260 0 -400.5 148.5t-140.5 420.5zM430 1579v23 q79 72 170 162.5t139 142.5h447q26 -59 78 -149.5t102 -155.5v-23h-266q-46 41 -156 174q-140 -110 -240 -174h-274z" horiz-adv-x="1290" unicode="Ĉ"/><glyph d="M84 442q0 201 76.5 364.5t215 255t314.5 91.5q195 0 367 -80l-123 -287q-133 60 -225 60q-62 0 -115 -48t-87 -143.5t-34 -187.5q0 -91 30 -133.5t95 -42.5q72 0 139.5 23t143.5 63v-307q-80 -44 -168.5 -67t-206.5 -23q-199 0 -310.5 120.5t-111.5 341.5zM230 1241v23 q79 72 170 162.5t139 142.5h447q26 -59 78 -149.5t102 -155.5v-23h-266q-46 41 -156 174q-140 -110 -240 -174h-274z" horiz-adv-x="1032" unicode="ĉ"/><glyph d="M104 549q0 266 101.5 488t276 335t399.5 113q265 0 481 -131l-148 -305q-93 55 -171 82.5t-162 27.5q-108 0 -195 -78t-136.5 -215t-49.5 -297q0 -134 56 -200t161 -66q83 0 168 20.5t200 69.5v-323q-203 -90 -440 -90q-260 0 -400.5 148.5t-140.5 420.5zM741 1720 q0 209 228 209q95 0 142.5 -36.5t47.5 -104.5q0 -209 -227 -209q-100 0 -145.5 35.5t-45.5 105.5z" horiz-adv-x="1290" unicode="Ċ"/><glyph d="M84 442q0 201 76.5 364.5t215 255t314.5 91.5q195 0 367 -80l-123 -287q-133 60 -225 60q-62 0 -115 -48t-87 -143.5t-34 -187.5q0 -91 30 -133.5t95 -42.5q72 0 139.5 23t143.5 63v-307q-80 -44 -168.5 -67t-206.5 -23q-199 0 -310.5 120.5t-111.5 341.5zM481 1382 q0 209 228 209q95 0 142.5 -36.5t47.5 -104.5q0 -209 -227 -209q-100 0 -145.5 35.5t-45.5 105.5z" horiz-adv-x="1032" unicode="ċ"/><glyph d="M104 549q0 266 101.5 488t276 335t399.5 113q265 0 481 -131l-148 -305q-93 55 -171 82.5t-162 27.5q-108 0 -195 -78t-136.5 -215t-49.5 -297q0 -134 56 -200t161 -66q83 0 168 20.5t200 69.5v-323q-203 -90 -440 -90q-260 0 -400.5 148.5t-140.5 420.5zM439 1884v23 h266q43 -38 155 -174q140 110 240 174h274v-23q-135 -114 -309 -305h-446q-31 71 -87.5 164.5t-92.5 140.5z" horiz-adv-x="1290" unicode="Č"/><glyph d="M84 442q0 201 76.5 364.5t215 255t314.5 91.5q195 0 367 -80l-123 -287q-133 60 -225 60q-62 0 -115 -48t-87 -143.5t-34 -187.5q0 -91 30 -133.5t95 -42.5q72 0 139.5 23t143.5 63v-307q-80 -44 -168.5 -67t-206.5 -23q-199 0 -310.5 120.5t-111.5 341.5zM251 1546v23 h266q43 -38 155 -174q140 110 240 174h274v-23q-135 -114 -309 -305h-446q-31 71 -87.5 164.5t-92.5 140.5z" horiz-adv-x="1032" unicode="č"/><glyph d="M33 0l309 1462h416q276 0 427.5 -144.5t151.5 -408.5q0 -280 -99 -485.5t-287.5 -314.5t-446.5 -109h-471zM494 324h69q110 0 196.5 70t134.5 199.5t48 295.5q0 125 -54 189.5t-151 64.5h-71zM412 1884v23h266q43 -38 155 -174q140 110 240 174h274v-23 q-135 -114 -309 -305h-446q-31 71 -87.5 164.5t-92.5 140.5z" horiz-adv-x="1401" unicode="Ď"/><glyph d="M1337 1229v26q69 176 111 301h362v-20q-50 -82 -108 -154t-127 -153h-238zM84 412q0 178 71.5 363t183.5 281.5t247 96.5q75 0 126 -30.5t111 -121.5h8l2 37q7 138 25 217l62 301h391l-330 -1556h-309l10 123h-8q-57 -79 -120 -111t-148 -32q-158 0 -240 111.5t-82 320.5 zM479 434q0 -143 86 -143q50 0 95.5 58.5t72.5 156.5t27 192q0 144 -80 144q-49 0 -96 -59t-76 -155.5t-29 -193.5z" horiz-adv-x="1362" unicode="ď"/><glyph d="M10 563l70 320h139l123 579h430q271 0 418 -143.5t147 -409.5q0 -434 -213 -671.5t-598 -237.5h-493l119 563h-142zM494 324h69q111 0 198 71.5t134 204t47 301.5q0 116 -54 179t-151 63h-71l-56 -260h178l-69 -320h-176z" horiz-adv-x="1401" unicode="Đ"/><glyph d="M84 412q0 165 62 315.5t167.5 237t235.5 86.5q77 0 136.5 -33.5t117.5 -118.5h8l2 37q7 138 25 217l2 14h-244l49 242h244l31 147h391l-33 -147h158l-52 -242h-157l-246 -1167h-309l10 123h-8q-48 -66 -81.5 -91t-79 -38.5t-107.5 -13.5q-158 0 -240 111.5t-82 320.5z M479 434q0 -143 86 -143q77 0 124.5 87.5t47.5 217.5q0 65 -23 104t-65 39q-70 0 -120 -92t-50 -213z" horiz-adv-x="1237" unicode="đ"/><glyph d="M33 0l309 1462h868l-65 -317h-477l-47 -230h444l-72 -317h-444l-57 -276h477l-68 -322h-868zM455 1579l51 236h665l-49 -236h-667z" horiz-adv-x="1151" unicode="Ē"/><glyph d="M84 428q0 211 83.5 380.5t229 257t336.5 87.5q190 0 299 -86t109 -229q0 -201 -156.5 -308.5t-452.5 -107.5h-59v-16q0 -148 164 -148q79 0 155 23.5t173 74.5v-274q-112 -57 -209 -79.5t-224 -22.5q-212 0 -330 118.5t-118 329.5zM512 664h29q109 0 171 41.5t62 109.5 q0 32 -20 54t-64 22q-61 0 -114 -69.5t-64 -157.5zM389 1241l51 236h665l-49 -236h-667z" horiz-adv-x="1186" unicode="ē"/><glyph d="M33 0l309 1462h868l-65 -317h-477l-47 -230h444l-72 -317h-444l-57 -276h477l-68 -322h-868zM409 1894q0 38 9 56h217q0 -65 44.5 -97t118.5 -32q85 0 132.5 32.5t68.5 96.5h221q-31 -188 -143 -279.5t-311 -91.5q-167 0 -262 83.5t-95 231.5z" horiz-adv-x="1151" unicode="Ĕ"/><glyph d="M84 428q0 211 83.5 380.5t229 257t336.5 87.5q190 0 299 -86t109 -229q0 -201 -156.5 -308.5t-452.5 -107.5h-59v-16q0 -148 164 -148q79 0 155 23.5t173 74.5v-274q-112 -57 -209 -79.5t-224 -22.5q-212 0 -330 118.5t-118 329.5zM512 664h29q109 0 171 41.5t62 109.5 q0 32 -20 54t-64 22q-61 0 -114 -69.5t-64 -157.5zM390 1556q0 38 9 56h217q0 -65 44.5 -97t118.5 -32q85 0 132.5 32.5t68.5 96.5h221q-31 -188 -143 -279.5t-311 -91.5q-167 0 -262 83.5t-95 231.5z" horiz-adv-x="1186" unicode="ĕ"/><glyph d="M33 0l309 1462h868l-65 -317h-477l-47 -230h444l-72 -317h-444l-57 -276h477l-68 -322h-868zM589 1691q0 209 228 209q95 0 142.5 -36.5t47.5 -104.5q0 -209 -227 -209q-100 0 -145.5 35.5t-45.5 105.5z" horiz-adv-x="1151" unicode="Ė"/><glyph d="M84 428q0 211 83.5 380.5t229 257t336.5 87.5q190 0 299 -86t109 -229q0 -201 -156.5 -308.5t-452.5 -107.5h-59v-16q0 -148 164 -148q79 0 155 23.5t173 74.5v-274q-112 -57 -209 -79.5t-224 -22.5q-212 0 -330 118.5t-118 329.5zM512 664h29q109 0 171 41.5t62 109.5 q0 32 -20 54t-64 22q-61 0 -114 -69.5t-64 -157.5zM561 1382q0 209 228 209q95 0 142.5 -36.5t47.5 -104.5q0 -209 -227 -209q-100 0 -145.5 35.5t-45.5 105.5z" horiz-adv-x="1186" unicode="ė"/><glyph d="M33 0l309 1462h868l-65 -317h-477l-47 -230h444l-72 -317h-444l-57 -276h477l-68 -322h-868zM304 -309q0 87 50 160t167 149h252q-97 -80 -127.5 -113.5t-47 -66t-16.5 -66.5q0 -20 13.5 -35.5t39.5 -15.5q47 0 117 25v-222q-94 -30 -199 -30q-113 0 -181 60t-68 155z" horiz-adv-x="1151" unicode="Ę"/><glyph d="M84 428q0 211 83.5 380.5t229 257t336.5 87.5q190 0 299 -86t109 -229q0 -201 -156.5 -308.5t-452.5 -107.5h-59v-16q0 -148 164 -148q79 0 155 23.5t173 74.5v-274q-112 -57 -209 -79.5t-224 -22.5q-212 0 -330 118.5t-118 329.5zM512 664h29q109 0 171 41.5t62 109.5 q0 32 -20 54t-64 22q-61 0 -114 -69.5t-64 -157.5zM256 -297q0 87 50 160t167 149h252q-97 -80 -127.5 -113.5t-47 -66t-16.5 -66.5q0 -20 13.5 -35.5t39.5 -15.5q47 0 117 25v-222q-94 -30 -199 -30q-113 0 -181 60t-68 155z" horiz-adv-x="1186" unicode="ę"/><glyph d="M33 0l309 1462h868l-65 -317h-477l-47 -230h444l-72 -317h-444l-57 -276h477l-68 -322h-868zM365 1884v23h266q43 -38 155 -174q140 110 240 174h274v-23q-135 -114 -309 -305h-446q-31 71 -87.5 164.5t-92.5 140.5z" horiz-adv-x="1151" unicode="Ě"/><glyph d="M84 428q0 211 83.5 380.5t229 257t336.5 87.5q190 0 299 -86t109 -229q0 -201 -156.5 -308.5t-452.5 -107.5h-59v-16q0 -148 164 -148q79 0 155 23.5t173 74.5v-274q-112 -57 -209 -79.5t-224 -22.5q-212 0 -330 118.5t-118 329.5zM512 664h29q109 0 171 41.5t62 109.5 q0 32 -20 54t-64 22q-61 0 -114 -69.5t-64 -157.5zM340 1546v23h266q43 -38 155 -174q140 110 240 174h274v-23q-135 -114 -309 -305h-446q-31 71 -87.5 164.5t-92.5 140.5z" horiz-adv-x="1186" unicode="ě"/><glyph d="M104 563q0 267 110 482t301.5 327.5t445.5 112.5q266 0 448 -107l-147 -309q-153 90 -306 90q-132 0 -233.5 -72.5t-162 -214.5t-60.5 -303q0 -264 209 -264q63 0 133 14l51 232h-229l67 305h610l-167 -795q-250 -81 -521 -81q-261 0 -405 152t-144 431zM477 1579v23 q79 72 170 162.5t139 142.5h447q26 -59 78 -149.5t102 -155.5v-23h-266q-46 41 -156 174q-140 -110 -240 -174h-274z" horiz-adv-x="1430" unicode="Ĝ"/><glyph d="M-133 -207q0 98 68 169t212 118q-37 23 -60.5 60t-23.5 79q0 71 51 126t152 101q-131 103 -131 281q0 196 136 311t368 115q51 0 107.5 -6t89.5 -14h399l-41 -207l-160 -52q10 -40 10 -94q0 -191 -130 -308.5t-339 -117.5q-76 0 -124 13q-20 -11 -34 -22t-14 -30 q0 -43 111 -59l137 -18q174 -25 250 -91.5t76 -189.5q0 -215 -168.5 -332t-478.5 -117q-212 0 -337.5 75.5t-125.5 209.5zM197 -152q0 -86 170 -86q125 0 190.5 29t65.5 82q0 36 -33 54.5t-115 27.5l-115 12q-78 -11 -120.5 -41.5t-42.5 -77.5zM500 692q0 -94 67 -94 q52 0 85.5 68.5t33.5 158.5q0 95 -61 95q-38 0 -66 -33.5t-43.5 -87.5t-15.5 -107zM283 1241v23q79 72 170 162.5t139 142.5h447q26 -59 78 -149.5t102 -155.5v-23h-266q-46 41 -156 174q-140 -110 -240 -174h-274z" horiz-adv-x="1145" unicode="ĝ"/><glyph d="M104 563q0 267 110 482t301.5 327.5t445.5 112.5q266 0 448 -107l-147 -309q-153 90 -306 90q-132 0 -233.5 -72.5t-162 -214.5t-60.5 -303q0 -264 209 -264q63 0 133 14l51 232h-229l67 305h610l-167 -795q-250 -81 -521 -81q-261 0 -405 152t-144 431zM534 1894 q0 38 9 56h217q0 -65 44.5 -97t118.5 -32q85 0 132.5 32.5t68.5 96.5h221q-31 -188 -143 -279.5t-311 -91.5q-167 0 -262 83.5t-95 231.5z" horiz-adv-x="1430" unicode="Ğ"/><glyph d="M-133 -207q0 98 68 169t212 118q-37 23 -60.5 60t-23.5 79q0 71 51 126t152 101q-131 103 -131 281q0 196 136 311t368 115q51 0 107.5 -6t89.5 -14h399l-41 -207l-160 -52q10 -40 10 -94q0 -191 -130 -308.5t-339 -117.5q-76 0 -124 13q-20 -11 -34 -22t-14 -30 q0 -43 111 -59l137 -18q174 -25 250 -91.5t76 -189.5q0 -215 -168.5 -332t-478.5 -117q-212 0 -337.5 75.5t-125.5 209.5zM197 -152q0 -86 170 -86q125 0 190.5 29t65.5 82q0 36 -33 54.5t-115 27.5l-115 12q-78 -11 -120.5 -41.5t-42.5 -77.5zM500 692q0 -94 67 -94 q52 0 85.5 68.5t33.5 158.5q0 95 -61 95q-38 0 -66 -33.5t-43.5 -87.5t-15.5 -107zM363 1556q0 38 9 56h217q0 -65 44.5 -97t118.5 -32q85 0 132.5 32.5t68.5 96.5h221q-31 -188 -143 -279.5t-311 -91.5q-167 0 -262 83.5t-95 231.5z" horiz-adv-x="1145" unicode="ğ"/><glyph d="M104 563q0 267 110 482t301.5 327.5t445.5 112.5q266 0 448 -107l-147 -309q-153 90 -306 90q-132 0 -233.5 -72.5t-162 -214.5t-60.5 -303q0 -264 209 -264q63 0 133 14l51 232h-229l67 305h610l-167 -795q-250 -81 -521 -81q-261 0 -405 152t-144 431zM737 1720 q0 209 228 209q95 0 142.5 -36.5t47.5 -104.5q0 -209 -227 -209q-100 0 -145.5 35.5t-45.5 105.5z" horiz-adv-x="1430" unicode="Ġ"/><glyph d="M-133 -207q0 98 68 169t212 118q-37 23 -60.5 60t-23.5 79q0 71 51 126t152 101q-131 103 -131 281q0 196 136 311t368 115q51 0 107.5 -6t89.5 -14h399l-41 -207l-160 -52q10 -40 10 -94q0 -191 -130 -308.5t-339 -117.5q-76 0 -124 13q-20 -11 -34 -22t-14 -30 q0 -43 111 -59l137 -18q174 -25 250 -91.5t76 -189.5q0 -215 -168.5 -332t-478.5 -117q-212 0 -337.5 75.5t-125.5 209.5zM197 -152q0 -86 170 -86q125 0 190.5 29t65.5 82q0 36 -33 54.5t-115 27.5l-115 12q-78 -11 -120.5 -41.5t-42.5 -77.5zM500 692q0 -94 67 -94 q52 0 85.5 68.5t33.5 158.5q0 95 -61 95q-38 0 -66 -33.5t-43.5 -87.5t-15.5 -107zM565 1382q0 209 228 209q95 0 142.5 -36.5t47.5 -104.5q0 -209 -227 -209q-100 0 -145.5 35.5t-45.5 105.5z" horiz-adv-x="1145" unicode="ġ"/><glyph d="M104 563q0 267 110 482t301.5 327.5t445.5 112.5q266 0 448 -107l-147 -309q-153 90 -306 90q-132 0 -233.5 -72.5t-162 -214.5t-60.5 -303q0 -264 209 -264q63 0 133 14l51 232h-229l67 305h610l-167 -795q-250 -81 -521 -81q-261 0 -405 152t-144 431zM368 -426 q77 196 109 301h362v-20q-89 -150 -233 -308h-238v27z" horiz-adv-x="1430" unicode="Ģ"/><glyph d="M-133 -207q0 98 68 169t212 118q-37 23 -60.5 60t-23.5 79q0 71 51 126t152 101q-131 103 -131 281q0 196 136 311t368 115q51 0 107.5 -6t89.5 -14h399l-41 -207l-160 -52q10 -40 10 -94q0 -191 -130 -308.5t-339 -117.5q-76 0 -124 13q-20 -11 -34 -22t-14 -30 q0 -43 111 -59l137 -18q174 -25 250 -91.5t76 -189.5q0 -215 -168.5 -332t-478.5 -117q-212 0 -337.5 75.5t-125.5 209.5zM197 -152q0 -86 170 -86q125 0 190.5 29t65.5 82q0 36 -33 54.5t-115 27.5l-115 12q-78 -11 -120.5 -41.5t-42.5 -77.5zM500 692q0 -94 67 -94 q52 0 85.5 68.5t33.5 158.5q0 95 -61 95q-38 0 -66 -33.5t-43.5 -87.5t-15.5 -107zM518 1241v21q77 125 236 307h238v-27q-17 -40 -54 -136.5t-57 -164.5h-363z" horiz-adv-x="1145" unicode="ģ"/><glyph d="M33 0l309 1462h391l-112 -542h348l112 542h392l-310 -1462h-391l125 596h-346l-127 -596h-391zM436 1579v23q79 72 170 162.5t139 142.5h447q26 -59 78 -149.5t102 -155.5v-23h-266q-46 41 -156 174q-140 -110 -240 -174h-274z" horiz-adv-x="1462" unicode="Ĥ"/><glyph d="M23 0l329 1556h387l-53 -249q-35 -158 -88 -283h8q101 129 273 129q141 0 220 -85.5t79 -236.5q0 -106 -25 -229l-127 -602h-387l129 618q18 78 18 142q0 43 -22 64.5t-53 21.5q-125 0 -185 -293l-116 -553h-387zM342 1634v23q79 72 170 162.5t139 142.5h447 q26 -59 78 -149.5t102 -155.5v-23h-266q-46 41 -156 174q-140 -110 -240 -174h-274z" horiz-adv-x="1274" unicode="ĥ"/><glyph d="M33 0l225 1069h-170l47 236h172l35 157h391l-31 -157h347l32 157h392l-33 -157h172l-49 -236h-174l-226 -1069h-391l125 594h-346l-127 -594h-391zM621 920h348l28 149h-348z" horiz-adv-x="1462" unicode="Ħ"/><glyph d="M23 0l245 1167h-168l52 242h167l33 147h387l-30 -147h268l-51 -242h-269q-31 -127 -79 -245h8q99 129 272 129q140 0 219.5 -85.5t79.5 -236.5q0 -111 -24 -229l-107 -500h-387l109 516q18 78 18 141q0 44 -22.5 65t-53.5 21q-68 0 -111.5 -75t-72.5 -217l-96 -451h-387z" horiz-adv-x="1274" unicode="ħ"/><glyph d="M31 0l309 1462h397l-309 -1462h-397zM114 1575q32 172 108.5 257t204.5 85q34 0 59.5 -6.5t94.5 -42.5q31 -17 66 -33t67 -16q78 0 115 100h190q-34 -172 -112.5 -257t-208.5 -85q-33 0 -65 8t-61 22t-46 23q-73 45 -127 45q-31 0 -60.5 -27t-36.5 -73h-188z" horiz-adv-x="727" unicode="Ĩ"/><glyph d="M23 0l239 1133h389l-241 -1133h-387zM48 1237q32 172 108.5 257t204.5 85q34 0 59.5 -6.5t94.5 -42.5q31 -17 66 -33t67 -16q78 0 115 100h190q-34 -172 -112.5 -257t-208.5 -85q-33 0 -65 8t-61 22t-46 23q-73 45 -127 45q-31 0 -60.5 -27t-36.5 -73h-188z" horiz-adv-x="666" unicode="ĩ"/><glyph d="M31 0l309 1462h397l-309 -1462h-397zM212 1579l51 236h665l-49 -236h-667z" horiz-adv-x="727" unicode="Ī"/><glyph d="M23 0l239 1133h389l-241 -1133h-387zM128 1241l51 236h665l-49 -236h-667z" horiz-adv-x="666" unicode="ī"/><glyph d="M31 0l309 1462h397l-309 -1462h-397zM183 1894q0 38 9 56h217q0 -65 44.5 -97t118.5 -32q85 0 132.5 32.5t68.5 96.5h221q-31 -188 -143 -279.5t-311 -91.5q-167 0 -262 83.5t-95 231.5z" horiz-adv-x="727" unicode="Ĭ"/><glyph d="M23 0l239 1133h389l-241 -1133h-387zM121 1556q0 38 9 56h217q0 -65 44.5 -97t118.5 -32q85 0 132.5 32.5t68.5 96.5h221q-31 -188 -143 -279.5t-311 -91.5q-167 0 -262 83.5t-95 231.5z" horiz-adv-x="666" unicode="ĭ"/><glyph d="M31 0l309 1462h397l-309 -1462h-397zM-96 -309q0 87 50 160t167 149h252q-97 -80 -127.5 -113.5t-47 -66t-16.5 -66.5q0 -20 13.5 -35.5t39.5 -15.5q47 0 117 25v-222q-94 -30 -199 -30q-113 0 -181 60t-68 155z" horiz-adv-x="727" unicode="Į"/><glyph d="M23 0l239 1133h389l-241 -1133h-387zM309 1382q0 103 59.5 156t166.5 53q91 0 140.5 -36.5t49.5 -104.5q0 -100 -58 -154.5t-167 -54.5q-191 0 -191 141zM-59 -309q0 87 50 160t167 149h252q-97 -80 -127.5 -113.5t-47 -66t-16.5 -66.5q0 -20 13.5 -35.5t39.5 -15.5 q47 0 117 25v-222q-94 -30 -199 -30q-113 0 -181 60t-68 155z" horiz-adv-x="666" unicode="į"/><glyph d="M31 0l309 1462h397l-309 -1462h-397zM368 1720q0 209 228 209q95 0 142.5 -36.5t47.5 -104.5q0 -209 -227 -209q-100 0 -145.5 35.5t-45.5 105.5z" horiz-adv-x="727" unicode="İ"/><glyph d="M23 0l239 1133h389l-241 -1133h-387z" horiz-adv-x="666" unicode="ı"/><glyph d="M31 0l309 1462h397l-309 -1462h-397zM399 -113q99 -24 174 -24q107 0 162 59t84 195l289 1345h391l-299 -1394q-43 -200 -113 -312.5t-182.5 -164.5t-292.5 -52q-106 0 -213 29v319z" horiz-adv-x="1489" unicode="Ĳ"/><glyph d="M402 -162q56 -18 112 -18q142 0 175 147l247 1166h387l-260 -1227q-40 -193 -157 -295.5t-297 -102.5q-110 0 -207 27v303zM983 1382q0 103 59.5 156t166.5 53q91 0 140.5 -36.5t49.5 -104.5q0 -94 -55 -151.5t-170 -57.5q-191 0 -191 141zM23 0l239 1133h389l-241 -1133 h-387zM309 1382q0 103 59.5 156t166.5 53q91 0 140.5 -36.5t49.5 -104.5q0 -100 -58 -154.5t-167 -54.5q-191 0 -191 141z" horiz-adv-x="1331" unicode="ĳ"/><glyph d="M-328 -113q99 -24 174 -24q107 0 162 59t84 195l289 1345h391l-299 -1394q-43 -200 -113 -312.5t-182.5 -164.5t-292.5 -52q-106 0 -213 29v319zM114 1579v23q79 72 170 162.5t139 142.5h447q26 -59 78 -149.5t102 -155.5v-23h-266q-46 41 -156 174q-140 -110 -240 -174 h-274z" horiz-adv-x="764" unicode="Ĵ"/><glyph d="M-264 -162q56 -18 112 -18q142 0 175 147l247 1166h387l-260 -1227q-40 -193 -157 -295.5t-297 -102.5q-110 0 -207 27v303zM-9 1241v23q79 72 170 162.5t139 142.5h447q26 -59 78 -149.5t102 -155.5v-23h-266q-46 41 -156 174q-140 -110 -240 -174h-274z" horiz-adv-x="666" unicode="ĵ"/><glyph d="M33 0l309 1462h391l-135 -624l38 59q88 143 130 195l297 370h459l-551 -674l270 -788h-438l-174 578l-97 -56l-108 -522h-391zM307 -426q77 196 109 301h362v-20q-89 -150 -233 -308h-238v27z" horiz-adv-x="1370" unicode="Ķ"/><glyph d="M23 0l325 1556h387l-139 -663q-17 -77 -68 -223h9q84 127 153 200l242 263h442l-491 -512l274 -621h-438l-139 391l-101 -53l-69 -338h-387zM260 -426q77 196 109 301h362v-20q-89 -150 -233 -308h-238v27z" horiz-adv-x="1264" unicode="ķ"/><glyph d="M23 0l237 1133h387l-51 -240q-11 -50 -33.5 -120.5t-36.5 -102.5h9q79 119 155 200l238 263h442l-487 -512l274 -621h-438l-139 391l-101 -53l-69 -338h-387z" horiz-adv-x="1264" unicode="ĸ"/><glyph d="M33 0l309 1462h391l-241 -1143h477l-68 -319h-868zM384 1579v23q123 102 282 305h439v-15q-45 -54 -191.5 -157t-245.5 -156h-284z" horiz-adv-x="1079" unicode="Ĺ"/><glyph d="M23 0l329 1556h387l-329 -1556h-387zM372 1636v23q123 102 282 305h439v-15q-45 -54 -191.5 -157t-245.5 -156h-284z" horiz-adv-x="666" unicode="ĺ"/><glyph d="M33 0l309 1462h391l-241 -1143h477l-68 -319h-868zM165 -426q77 196 109 301h362v-20q-89 -150 -233 -308h-238v27z" horiz-adv-x="1079" unicode="Ļ"/><glyph d="M23 0l329 1556h387l-329 -1556h-387zM-87 -426q77 196 109 301h362v-20q-89 -150 -233 -308h-238v27z" horiz-adv-x="666" unicode="ļ"/><glyph d="M33 0l309 1462h391l-241 -1143h477l-68 -319h-868zM803 1136v26q69 176 111 301h362v-20q-50 -82 -108 -154t-127 -153h-238z" horiz-adv-x="1079" unicode="Ľ"/><glyph d="M23 0l329 1556h387l-329 -1556h-387zM766 1229v26q69 176 111 301h362v-20q-50 -82 -108 -154t-127 -153h-238z" horiz-adv-x="793" unicode="ľ"/><glyph d="M33 0l309 1462h391l-241 -1143h477l-68 -319h-868zM716 734q0 209 228 209q95 0 142.5 -36.5t47.5 -104.5q0 -209 -227 -209q-100 0 -145.5 35.5t-45.5 105.5z" horiz-adv-x="1079" unicode="Ŀ"/><glyph d="M23 0l329 1556h387l-329 -1556h-387zM702 670q0 209 228 209q95 0 142.5 -36.5t47.5 -104.5q0 -209 -227 -209q-100 0 -145.5 35.5t-45.5 105.5z" horiz-adv-x="1092" unicode="ŀ"/><glyph d="M-47 688l274 146l135 628h392l-90 -420l172 91l131 -244l-377 -197l-78 -373h477l-67 -319h-869l103 485l-78 -39z" horiz-adv-x="1100" unicode="Ł"/><glyph d="M-49 600l258 133l174 823h387l-133 -626l86 43l117 -223l-271 -136l-129 -614h-387l90 420l-86 -43z" horiz-adv-x="727" unicode="ł"/><glyph d="M33 0l309 1462h455l286 -983h9q29 236 57 371l131 612h348l-309 -1462h-455l-289 1028h-8q-29 -291 -57 -418l-129 -610h-348zM789 1579v23q123 102 282 305h439v-15q-45 -54 -191.5 -157t-245.5 -156h-284z" horiz-adv-x="1618" unicode="Ń"/><glyph d="M23 0l239 1133h309l-12 -158h8q55 95 129.5 136.5t182.5 41.5q141 0 220 -85.5t79 -236.5q0 -106 -25 -229l-127 -602h-387l129 618q18 78 18 142q0 43 -22 64.5t-53 21.5q-57 0 -105.5 -71t-79.5 -222l-116 -553h-387zM529 1241v23q123 102 282 305h439v-15 q-45 -54 -191.5 -157t-245.5 -156h-284z" horiz-adv-x="1274" unicode="ń"/><glyph d="M33 0l309 1462h455l286 -983h9q29 236 57 371l131 612h348l-309 -1462h-455l-289 1028h-8q-29 -291 -57 -418l-129 -610h-348zM401 -426q77 196 109 301h362v-20q-89 -150 -233 -308h-238v27z" horiz-adv-x="1618" unicode="Ņ"/><glyph d="M23 0l239 1133h309l-12 -158h8q55 95 129.5 136.5t182.5 41.5q141 0 220 -85.5t79 -236.5q0 -106 -25 -229l-127 -602h-387l129 618q18 78 18 142q0 43 -22 64.5t-53 21.5q-57 0 -105.5 -71t-79.5 -222l-116 -553h-387zM235 -426q77 196 109 301h362v-20 q-89 -150 -233 -308h-238v27z" horiz-adv-x="1274" unicode="ņ"/><glyph d="M33 0l309 1462h455l286 -983h9q29 236 57 371l131 612h348l-309 -1462h-455l-289 1028h-8q-29 -291 -57 -418l-129 -610h-348zM572 1884v23h266q43 -38 155 -174q140 110 240 174h274v-23q-135 -114 -309 -305h-446q-31 71 -87.5 164.5t-92.5 140.5z" horiz-adv-x="1618" unicode="Ň"/><glyph d="M23 0l239 1133h309l-12 -158h8q55 95 129.5 136.5t182.5 41.5q141 0 220 -85.5t79 -236.5q0 -106 -25 -229l-127 -602h-387l129 618q18 78 18 142q0 43 -22 64.5t-53 21.5q-57 0 -105.5 -71t-79.5 -222l-116 -553h-387zM324 1546v23h266q43 -38 155 -174q140 110 240 174 h274v-23q-135 -114 -309 -305h-446q-31 71 -87.5 164.5t-92.5 140.5z" horiz-adv-x="1274" unicode="ň"/><glyph d="M193 0l239 1133h309l-12 -158h8q55 95 129.5 136.5t182.5 41.5q141 0 220 -85.5t79 -236.5q0 -106 -25 -229l-127 -602h-387l129 618q18 78 18 142q0 43 -22 64.5t-53 21.5q-57 0 -105.5 -71t-79.5 -222l-116 -553h-387zM-61 961q34 81 67.5 167.5t121.5 333.5h348l8 -22 q-92 -212 -256 -479h-289z" horiz-adv-x="1444" unicode="ŉ"/><glyph d="M33 0l309 1462h430l326 -872h8q9 78 29.5 185.5t144.5 686.5h348l-309 -1462q-53 -249 -189 -355t-385 -106q-106 0 -213 29v307q95 -25 191 -25t157 42.5t81 115.5l-386 1020h-8q-29 -291 -57 -418l-129 -610h-348z" horiz-adv-x="1618" unicode="Ŋ"/><glyph d="M23 0l239 1133h309l-12 -158h8q55 95 129.5 136.5t182.5 41.5q141 0 220 -85.5t79 -236.5q0 -106 -25 -229l-147 -696q-40 -193 -157 -295.5t-298 -102.5q-110 0 -207 27v303q56 -18 113 -18q141 0 174 147l137 651q18 78 18 142q0 43 -22 64.5t-53 21.5 q-124 0 -185 -293l-116 -553h-387z" horiz-adv-x="1274" unicode="ŋ"/><glyph d="M104 543q0 265 103 487t280.5 338.5t409.5 116.5q260 0 404.5 -148.5t144.5 -414.5t-99.5 -486.5t-274.5 -338t-406 -117.5q-269 0 -415.5 149t-146.5 414zM500 545q0 -242 200 -242q95 0 176.5 83t128 224t46.5 308q0 114 -48 178.5t-139 64.5q-99 0 -182 -84 t-132.5 -231t-49.5 -301zM576 1579l51 236h665l-49 -236h-667z" horiz-adv-x="1509" unicode="Ō"/><glyph d="M84 416q0 210 79.5 379.5t223.5 263.5t336 94q209 0 322.5 -113t113.5 -323t-79.5 -379.5t-223.5 -263.5t-336 -94q-209 0 -322.5 113t-113.5 323zM479 403q0 -133 84 -133q81 0 141 139t60 320q0 66 -23 99.5t-63 33.5q-82 0 -140.5 -139.5t-58.5 -319.5zM379 1241 l51 236h665l-49 -236h-667z" unicode="ō"/><glyph d="M104 543q0 265 103 487t280.5 338.5t409.5 116.5q260 0 404.5 -148.5t144.5 -414.5t-99.5 -486.5t-274.5 -338t-406 -117.5q-269 0 -415.5 149t-146.5 414zM500 545q0 -242 200 -242q95 0 176.5 83t128 224t46.5 308q0 114 -48 178.5t-139 64.5q-99 0 -182 -84 t-132.5 -231t-49.5 -301zM544 1894q0 38 9 56h217q0 -65 44.5 -97t118.5 -32q85 0 132.5 32.5t68.5 96.5h221q-31 -188 -143 -279.5t-311 -91.5q-167 0 -262 83.5t-95 231.5z" horiz-adv-x="1509" unicode="Ŏ"/><glyph d="M84 416q0 210 79.5 379.5t223.5 263.5t336 94q209 0 322.5 -113t113.5 -323t-79.5 -379.5t-223.5 -263.5t-336 -94q-209 0 -322.5 113t-113.5 323zM479 403q0 -133 84 -133q81 0 141 139t60 320q0 66 -23 99.5t-63 33.5q-82 0 -140.5 -139.5t-58.5 -319.5zM357 1556 q0 38 9 56h217q0 -65 44.5 -97t118.5 -32q85 0 132.5 32.5t68.5 96.5h221q-31 -188 -143 -279.5t-311 -91.5q-167 0 -262 83.5t-95 231.5z" unicode="ŏ"/><glyph d="M104 543q0 265 103 487t280.5 338.5t409.5 116.5q260 0 404.5 -148.5t144.5 -414.5t-99.5 -486.5t-274.5 -338t-406 -117.5q-269 0 -415.5 149t-146.5 414zM500 545q0 -242 200 -242q95 0 176.5 83t128 224t46.5 308q0 114 -48 178.5t-139 64.5q-99 0 -182 -84 t-132.5 -231t-49.5 -301zM522 1579v29q44 53 113.5 146t103.5 153h371v-21q-43 -70 -385 -307h-203zM985 1579v29l49 67q116 155 158 232h372v-21q-49 -81 -376 -307h-203z" horiz-adv-x="1509" unicode="Ő"/><glyph d="M84 416q0 210 79.5 379.5t223.5 263.5t336 94q209 0 322.5 -113t113.5 -323t-79.5 -379.5t-223.5 -263.5t-336 -94q-209 0 -322.5 113t-113.5 323zM479 403q0 -133 84 -133q81 0 141 139t60 320q0 66 -23 99.5t-63 33.5q-82 0 -140.5 -139.5t-58.5 -319.5zM322 1241v29 q44 53 113.5 146t103.5 153h371v-21q-43 -70 -385 -307h-203zM785 1241v29l49 67q116 155 158 232h372v-21q-49 -81 -376 -307h-203z" unicode="ő"/><glyph d="M104 528q0 196 58.5 379t164.5 313t252.5 197.5t323.5 67.5q94 0 191 -23h874l-67 -319h-478l-47 -225h445l-72 -322h-444l-58 -272h477l-65 -324h-815q-104 -20 -197 -20q-256 0 -399.5 146.5t-143.5 401.5zM500 526q0 -217 182 -217q96 0 180 41l162 762 q-53 49 -154 49q-96 0 -182.5 -88t-137 -235t-50.5 -312z" horiz-adv-x="1909" unicode="Œ"/><glyph d="M84 416q0 209 79 380t217.5 264t319.5 93q187 0 277 -125q144 125 373 125q188 0 297.5 -86t109.5 -229q0 -203 -157 -309.5t-451 -106.5h-59v-16q0 -148 163 -148q79 0 155 23.5t173 74.5v-274q-114 -58 -210.5 -80t-221.5 -22q-203 0 -295 112q-124 -112 -334 -112 q-209 0 -322.5 113t-113.5 323zM479 403q0 -133 84 -133q81 0 141 139t60 320q0 66 -23 99.5t-63 33.5q-82 0 -140.5 -139.5t-58.5 -319.5zM1128 664h29q110 0 172 41t62 110q0 32 -20.5 54t-63.5 22q-60 0 -112.5 -68t-66.5 -159z" horiz-adv-x="1802" unicode="œ"/><glyph d="M33 0l309 1462h387q252 0 386 -100t134 -301q0 -156 -71 -272t-211 -177l224 -516l40 -96h-426l-195 532h-73l-113 -532h-391zM600 829h51q95 0 151 54.5t56 152.5q0 62 -34.5 94.5t-100.5 32.5h-53zM584 1579v23q123 102 282 305h439v-15q-45 -54 -191.5 -157 t-245.5 -156h-284z" horiz-adv-x="1331" unicode="Ŕ"/><glyph d="M23 0l239 1133h309l-18 -189h8q65 112 141 160.5t199 48.5q56 0 80 -8l-84 -383q-54 22 -123 22q-103 0 -164.5 -70.5t-93.5 -215.5l-106 -498h-387zM417 1241v23q123 102 282 305h439v-15q-45 -54 -191.5 -157t-245.5 -156h-284z" horiz-adv-x="895" unicode="ŕ"/><glyph d="M33 0l309 1462h387q252 0 386 -100t134 -301q0 -156 -71 -272t-211 -177l224 -516l40 -96h-426l-195 532h-73l-113 -532h-391zM600 829h51q95 0 151 54.5t56 152.5q0 62 -34.5 94.5t-100.5 32.5h-53zM313 -426q77 196 109 301h362v-20q-89 -150 -233 -308h-238v27z" horiz-adv-x="1331" unicode="Ŗ"/><glyph d="M23 0l239 1133h309l-18 -189h8q65 112 141 160.5t199 48.5q56 0 80 -8l-84 -383q-54 22 -123 22q-103 0 -164.5 -70.5t-93.5 -215.5l-106 -498h-387zM-90 -426q77 196 109 301h362v-20q-89 -150 -233 -308h-238v27z" horiz-adv-x="895" unicode="ŗ"/><glyph d="M33 0l309 1462h387q252 0 386 -100t134 -301q0 -156 -71 -272t-211 -177l224 -516l40 -96h-426l-195 532h-73l-113 -532h-391zM600 829h51q95 0 151 54.5t56 152.5q0 62 -34.5 94.5t-100.5 32.5h-53zM369 1884v23h266q43 -38 155 -174q140 110 240 174h274v-23 q-135 -114 -309 -305h-446q-31 71 -87.5 164.5t-92.5 140.5z" horiz-adv-x="1331" unicode="Ř"/><glyph d="M23 0l239 1133h309l-18 -189h8q65 112 141 160.5t199 48.5q56 0 80 -8l-84 -383q-54 22 -123 22q-103 0 -164.5 -70.5t-93.5 -215.5l-106 -498h-387zM186 1546v23h266q43 -38 155 -174q140 110 240 174h274v-23q-135 -114 -309 -305h-446q-31 71 -87.5 164.5t-92.5 140.5 z" horiz-adv-x="895" unicode="ř"/><glyph d="M43 76v350q84 -53 192.5 -89t196.5 -36q74 0 112 31t38 88q0 27 -12 50.5t-34 47t-118 103.5q-117 94 -170 192t-53 215q0 131 65.5 235.5t185 162t267.5 57.5q239 0 430 -107l-135 -297q-171 88 -291 88q-64 0 -98.5 -28t-34.5 -82q0 -49 33.5 -91.5t127.5 -113.5 q118 -87 175 -183t57 -220q0 -222 -147 -345.5t-410 -123.5q-110 0 -208 24.5t-169 71.5zM541 1579v23q123 102 282 305h439v-15q-45 -54 -191.5 -157t-245.5 -156h-284z" horiz-adv-x="1122" unicode="Ś"/><glyph d="M31 43v311q92 -50 171 -70t160 -20q68 0 102 18.5t34 51.5q0 35 -26 60.5t-130 84.5q-106 58 -154.5 133t-48.5 183q0 172 121 265t344 93q112 0 204 -26t179 -80l-121 -252q-66 43 -136.5 68.5t-121.5 25.5q-76 0 -76 -68q0 -29 31.5 -51t102.5 -57q225 -112 225 -320 q0 -199 -130 -306t-374 -107q-222 0 -356 63zM391 1241v23q123 102 282 305h439v-15q-45 -54 -191.5 -157t-245.5 -156h-284z" horiz-adv-x="1028" unicode="ś"/><glyph d="M43 76v350q84 -53 192.5 -89t196.5 -36q74 0 112 31t38 88q0 27 -12 50.5t-34 47t-118 103.5q-117 94 -170 192t-53 215q0 131 65.5 235.5t185 162t267.5 57.5q239 0 430 -107l-135 -297q-171 88 -291 88q-64 0 -98.5 -28t-34.5 -82q0 -49 33.5 -91.5t127.5 -113.5 q118 -87 175 -183t57 -220q0 -222 -147 -345.5t-410 -123.5q-110 0 -208 24.5t-169 71.5zM277 1579v23q79 72 170 162.5t139 142.5h447q26 -59 78 -149.5t102 -155.5v-23h-266q-46 41 -156 174q-140 -110 -240 -174h-274z" horiz-adv-x="1122" unicode="Ŝ"/><glyph d="M31 43v311q92 -50 171 -70t160 -20q68 0 102 18.5t34 51.5q0 35 -26 60.5t-130 84.5q-106 58 -154.5 133t-48.5 183q0 172 121 265t344 93q112 0 204 -26t179 -80l-121 -252q-66 43 -136.5 68.5t-121.5 25.5q-76 0 -76 -68q0 -29 31.5 -51t102.5 -57q225 -112 225 -320 q0 -199 -130 -306t-374 -107q-222 0 -356 63zM103 1241v23q79 72 170 162.5t139 142.5h447q26 -59 78 -149.5t102 -155.5v-23h-266q-46 41 -156 174q-140 -110 -240 -174h-274z" horiz-adv-x="1028" unicode="ŝ"/><glyph d="M43 76v350q84 -53 192.5 -89t196.5 -36q74 0 112 31t38 88q0 27 -12 50.5t-34 47t-118 103.5q-117 94 -170 192t-53 215q0 131 65.5 235.5t185 162t267.5 57.5q239 0 430 -107l-135 -297q-171 88 -291 88q-64 0 -98.5 -28t-34.5 -82q0 -49 33.5 -91.5t127.5 -113.5 q118 -87 175 -183t57 -220q0 -222 -147 -345.5t-410 -123.5q-110 0 -208 24.5t-169 71.5zM172 -258q30 -9 78.5 -18t72.5 -9q68 0 68 49q0 73 -145 101l75 135h205l-24 -41q178 -37 178 -195q0 -121 -82.5 -188.5t-233.5 -67.5q-115 0 -192 29v205z" horiz-adv-x="1122" unicode="Ş"/><glyph d="M31 43v311q92 -50 171 -70t160 -20q68 0 102 18.5t34 51.5q0 35 -26 60.5t-130 84.5q-106 58 -154.5 133t-48.5 183q0 172 121 265t344 93q112 0 204 -26t179 -80l-121 -252q-66 43 -136.5 68.5t-121.5 25.5q-76 0 -76 -68q0 -29 31.5 -51t102.5 -57q225 -112 225 -320 q0 -199 -130 -306t-374 -107q-222 0 -356 63zM127 -258q30 -9 78.5 -18t72.5 -9q68 0 68 49q0 73 -145 101l75 135h205l-24 -41q178 -37 178 -195q0 -121 -82.5 -188.5t-233.5 -67.5q-115 0 -192 29v205z" horiz-adv-x="1028" unicode="ş"/><glyph d="M43 76v350q84 -53 192.5 -89t196.5 -36q74 0 112 31t38 88q0 27 -12 50.5t-34 47t-118 103.5q-117 94 -170 192t-53 215q0 131 65.5 235.5t185 162t267.5 57.5q239 0 430 -107l-135 -297q-171 88 -291 88q-64 0 -98.5 -28t-34.5 -82q0 -49 33.5 -91.5t127.5 -113.5 q118 -87 175 -183t57 -220q0 -222 -147 -345.5t-410 -123.5q-110 0 -208 24.5t-169 71.5zM321 1884v23h266q43 -38 155 -174q140 110 240 174h274v-23q-135 -114 -309 -305h-446q-31 71 -87.5 164.5t-92.5 140.5z" horiz-adv-x="1122" unicode="Š"/><glyph d="M31 43v311q92 -50 171 -70t160 -20q68 0 102 18.5t34 51.5q0 35 -26 60.5t-130 84.5q-106 58 -154.5 133t-48.5 183q0 172 121 265t344 93q112 0 204 -26t179 -80l-121 -252q-66 43 -136.5 68.5t-121.5 25.5q-76 0 -76 -68q0 -29 31.5 -51t102.5 -57q225 -112 225 -320 q0 -199 -130 -306t-374 -107q-222 0 -356 63zM206 1546v23h266q43 -38 155 -174q140 110 240 174h274v-23q-135 -114 -309 -305h-446q-31 71 -87.5 164.5t-92.5 140.5z" horiz-adv-x="1028" unicode="š"/><glyph d="M156 1139l69 323h1028l-71 -323h-318l-237 -1139h-391l237 1139h-317zM178 -258q30 -9 78.5 -18t72.5 -9q68 0 68 49q0 73 -145 101l75 135h205l-24 -41q178 -37 178 -195q0 -121 -82.5 -188.5t-233.5 -67.5q-115 0 -192 29v205z" horiz-adv-x="1130" unicode="Ţ"/><glyph d="M63 842l41 190l218 88l137 240h258l-49 -227h288l-63 -291h-289l-84 -383q-16 -77 -16 -105q0 -63 63 -63q66 0 183 47v-291q-136 -67 -340 -67q-148 0 -224.5 63.5t-76.5 208.5q0 76 24 188l84 402h-154zM117 -258q30 -9 78.5 -18t72.5 -9q68 0 68 49q0 73 -145 101 l75 135h205l-24 -41q178 -37 178 -195q0 -121 -82.5 -188.5t-233.5 -67.5q-115 0 -192 29v205z" horiz-adv-x="936" unicode="ţ"/><glyph d="M156 1139l69 323h1028l-71 -323h-318l-237 -1139h-391l237 1139h-317zM336 1884v23h266q43 -38 155 -174q140 110 240 174h274v-23q-135 -114 -309 -305h-446q-31 71 -87.5 164.5t-92.5 140.5z" horiz-adv-x="1130" unicode="Ť"/><glyph d="M63 842l41 190l218 88l137 240h258l-49 -227h288l-63 -291h-289l-84 -383q-16 -77 -16 -105q0 -63 63 -63q66 0 183 47v-291q-136 -67 -340 -67q-148 0 -224.5 63.5t-76.5 208.5q0 76 24 188l84 402h-154zM799 1264v26q69 176 111 301h362v-20q-50 -82 -108 -154 t-127 -153h-238z" horiz-adv-x="954" unicode="ť"/><glyph d="M143 543l68 319h205l57 277h-317l69 323h1028l-71 -323h-318l-57 -277h207l-70 -319h-205l-112 -543h-391l112 543h-205z" horiz-adv-x="1130" unicode="Ŧ"/><glyph d="M23 442l51 242h108l35 156h-154l41 192l218 88l135 238h258l-47 -225h288l-63 -293h-289l-35 -156h248l-51 -242h-250l-2 -14q-14 -68 -14 -90q0 -27 13 -38t50 -11q31 0 82 11.5t100 31.5v-287q-132 -65 -331 -65q-165 0 -238.5 63t-73.5 195q0 53 29 204h-108z" horiz-adv-x="936" unicode="ŧ"/><glyph d="M125 410q0 64 12 129l199 923h391l-195 -913q-14 -68 -14 -115q0 -127 121 -127q94 0 147.5 64.5t81.5 197.5l191 893h391l-199 -932q-59 -281 -225 -415.5t-451 -134.5q-134 0 -236.5 55t-158 154t-55.5 221zM477 1575q32 172 108.5 257t204.5 85q34 0 59.5 -6.5 t94.5 -42.5q31 -17 66 -33t67 -16q78 0 115 100h190q-34 -172 -112.5 -257t-208.5 -85q-33 0 -65 8t-61 22t-46 23q-73 45 -127 45q-31 0 -60.5 -27t-36.5 -73h-188z" horiz-adv-x="1436" unicode="Ũ"/><glyph d="M96 301q0 106 25 229l127 603h387l-129 -617q-19 -82 -19 -141q0 -44 22.5 -65t53.5 -21q59 0 107.5 78.5t77.5 214.5l116 551h387l-239 -1133h-310l13 158h-8q-54 -93 -128.5 -135.5t-183.5 -42.5q-141 0 -220 85.5t-79 235.5zM350 1237q32 172 108.5 257t204.5 85 q34 0 59.5 -6.5t94.5 -42.5q31 -17 66 -33t67 -16q78 0 115 100h190q-34 -172 -112.5 -257t-208.5 -85q-33 0 -65 8t-61 22t-46 23q-73 45 -127 45q-31 0 -60.5 -27t-36.5 -73h-188z" horiz-adv-x="1274" unicode="ũ"/><glyph d="M125 410q0 64 12 129l199 923h391l-195 -913q-14 -68 -14 -115q0 -127 121 -127q94 0 147.5 64.5t81.5 197.5l191 893h391l-199 -932q-59 -281 -225 -415.5t-451 -134.5q-134 0 -236.5 55t-158 154t-55.5 221zM566 1579l51 236h665l-49 -236h-667z" horiz-adv-x="1436" unicode="Ū"/><glyph d="M96 301q0 106 25 229l127 603h387l-129 -617q-19 -82 -19 -141q0 -44 22.5 -65t53.5 -21q59 0 107.5 78.5t77.5 214.5l116 551h387l-239 -1133h-310l13 158h-8q-54 -93 -128.5 -135.5t-183.5 -42.5q-141 0 -220 85.5t-79 235.5zM412 1241l51 236h665l-49 -236h-667z" horiz-adv-x="1274" unicode="ū"/><glyph d="M125 410q0 64 12 129l199 923h391l-195 -913q-14 -68 -14 -115q0 -127 121 -127q94 0 147.5 64.5t81.5 197.5l191 893h391l-199 -932q-59 -281 -225 -415.5t-451 -134.5q-134 0 -236.5 55t-158 154t-55.5 221zM538 1894q0 38 9 56h217q0 -65 44.5 -97t118.5 -32 q85 0 132.5 32.5t68.5 96.5h221q-31 -188 -143 -279.5t-311 -91.5q-167 0 -262 83.5t-95 231.5z" horiz-adv-x="1436" unicode="Ŭ"/><glyph d="M96 301q0 106 25 229l127 603h387l-129 -617q-19 -82 -19 -141q0 -44 22.5 -65t53.5 -21q59 0 107.5 78.5t77.5 214.5l116 551h387l-239 -1133h-310l13 158h-8q-54 -93 -128.5 -135.5t-183.5 -42.5q-141 0 -220 85.5t-79 235.5zM392 1556q0 38 9 56h217q0 -65 44.5 -97 t118.5 -32q85 0 132.5 32.5t68.5 96.5h221q-31 -188 -143 -279.5t-311 -91.5q-167 0 -262 83.5t-95 231.5z" horiz-adv-x="1274" unicode="ŭ"/><glyph d="M125 410q0 64 12 129l199 923h391l-195 -913q-14 -68 -14 -115q0 -127 121 -127q94 0 147.5 64.5t81.5 197.5l191 893h391l-199 -932q-59 -281 -225 -415.5t-451 -134.5q-134 0 -236.5 55t-158 154t-55.5 221zM639 1827q0 114 73.5 184t195.5 70q118 0 193 -70.5 t75 -181.5q0 -113 -74.5 -183.5t-193.5 -70.5q-121 0 -195 68.5t-74 183.5zM819 1827q0 -37 23.5 -60.5t65.5 -23.5q39 0 63.5 25t24.5 59q0 38 -26.5 62t-61.5 24q-36 0 -62.5 -24t-26.5 -62z" horiz-adv-x="1436" unicode="Ů"/><glyph d="M96 301q0 106 25 229l127 603h387l-129 -617q-19 -82 -19 -141q0 -44 22.5 -65t53.5 -21q59 0 107.5 78.5t77.5 214.5l116 551h387l-239 -1133h-310l13 158h-8q-54 -93 -128.5 -135.5t-183.5 -42.5q-141 0 -220 85.5t-79 235.5zM505 1489q0 114 73.5 184t195.5 70 q118 0 193 -70.5t75 -181.5q0 -113 -74.5 -183.5t-193.5 -70.5q-121 0 -195 68.5t-74 183.5zM685 1489q0 -37 23.5 -60.5t65.5 -23.5q39 0 63.5 25t24.5 59q0 38 -26.5 62t-61.5 24q-36 0 -62.5 -24t-26.5 -62z" horiz-adv-x="1274" unicode="ů"/><glyph d="M125 410q0 64 12 129l199 923h391l-195 -913q-14 -68 -14 -115q0 -127 121 -127q94 0 147.5 64.5t81.5 197.5l191 893h391l-199 -932q-59 -281 -225 -415.5t-451 -134.5q-134 0 -236.5 55t-158 154t-55.5 221zM524 1579v29q44 53 113.5 146t103.5 153h371v-21 q-43 -70 -385 -307h-203zM987 1579v29l49 67q116 155 158 232h372v-21q-49 -81 -376 -307h-203z" horiz-adv-x="1436" unicode="Ű"/><glyph d="M96 301q0 106 25 229l127 603h387l-129 -617q-19 -82 -19 -141q0 -44 22.5 -65t53.5 -21q59 0 107.5 78.5t77.5 214.5l116 551h387l-239 -1133h-310l13 158h-8q-54 -93 -128.5 -135.5t-183.5 -42.5q-141 0 -220 85.5t-79 235.5zM381 1241v29q44 53 113.5 146t103.5 153 h371v-21q-43 -70 -385 -307h-203zM844 1241v29l49 67q116 155 158 232h372v-21q-49 -81 -376 -307h-203z" horiz-adv-x="1274" unicode="ű"/><glyph d="M125 410q0 64 12 129l199 923h391l-195 -913q-14 -68 -14 -115q0 -127 121 -127q94 0 147.5 64.5t81.5 197.5l191 893h391l-199 -932q-59 -281 -225 -415.5t-451 -134.5q-134 0 -236.5 55t-158 154t-55.5 221zM308 -309q0 87 50 160t167 149h252q-97 -80 -127.5 -113.5 t-47 -66t-16.5 -66.5q0 -20 13.5 -35.5t39.5 -15.5q47 0 117 25v-222q-94 -30 -199 -30q-113 0 -181 60t-68 155z" horiz-adv-x="1436" unicode="Ų"/><glyph d="M96 301q0 106 25 229l127 603h387l-129 -617q-19 -82 -19 -141q0 -44 22.5 -65t53.5 -21q59 0 107.5 78.5t77.5 214.5l116 551h387l-239 -1133h-310l13 158h-8q-54 -93 -128.5 -135.5t-183.5 -42.5q-141 0 -220 85.5t-79 235.5zM547 -309q0 87 50 160t167 149h252 q-97 -80 -127.5 -113.5t-47 -66t-16.5 -66.5q0 -20 13.5 -35.5t39.5 -15.5q47 0 117 25v-222q-94 -30 -199 -30q-113 0 -181 60t-68 155z" horiz-adv-x="1274" unicode="ų"/><glyph d="M152 1462h370l-10 -733q-6 -267 -25 -375l40 104l94 232l335 772h336v-792q0 -156 -26 -316q10 28 133 346l303 762h387l-635 -1462h-461v620q0 155 13 324q-33 -133 -118 -349l-253 -595h-434zM655 1579v23q79 72 170 162.5t139 142.5h447q26 -59 78 -149.5t102 -155.5 v-23h-266q-46 41 -156 174q-140 -110 -240 -174h-274z" horiz-adv-x="1915" unicode="Ŵ"/><glyph d="M102 1133h365v-512q0 -182 -8 -259h8q46 177 88 295l172 476h428l-20 -476q-9 -129 -33 -295h8q7 22 15.5 47.5t48.5 140t241 583.5h385l-538 -1133h-422l20 449q2 73 11.5 209t21.5 219h-8q-60 -233 -121 -390l-189 -487h-407zM494 1241v23q79 72 170 162.5t139 142.5 h447q26 -59 78 -149.5t102 -155.5v-23h-266q-46 41 -156 174q-140 -110 -240 -174h-274z" horiz-adv-x="1686" unicode="ŵ"/><glyph d="M164 1462h403l90 -542l312 542h436l-612 -895l-121 -567h-391l120 567zM322 1579v23q79 72 170 162.5t139 142.5h447q26 -59 78 -149.5t102 -155.5v-23h-266q-46 41 -156 174q-140 -110 -240 -174h-274z" horiz-adv-x="1237" unicode="Ŷ"/><glyph d="M-129 -168q46 -12 109 -12q87 0 142.5 36.5t98.5 114.5l23 41l-162 1121h389l43 -562l2 -62v-87h8q37 132 50 165.5t239 545.5h416l-670 -1276q-96 -185 -223 -267t-311 -82q-92 0 -154 17v307zM194 1241v23q79 72 170 162.5t139 142.5h447q26 -59 78 -149.5t102 -155.5 v-23h-266q-46 41 -156 174q-140 -110 -240 -174h-274z" horiz-adv-x="1114" unicode="ŷ"/><glyph d="M164 1462h403l90 -542l312 542h436l-612 -895l-121 -567h-391l120 567zM397 1722q0 187 201 187q170 0 170 -125q0 -189 -201 -189q-88 0 -129 31t-41 96zM884 1722q0 187 201 187q168 0 168 -125q0 -97 -49.5 -143t-149.5 -46q-88 0 -129 31t-41 96z" horiz-adv-x="1237" unicode="Ÿ"/><glyph d="M-92 0l47 242l690 901h-479l67 319h986l-52 -245l-700 -898h543l-68 -319h-1034zM512 1579v23q123 102 282 305h439v-15q-45 -54 -191.5 -157t-245.5 -156h-284z" horiz-adv-x="1104" unicode="Ź"/><glyph d="M-41 0l43 221l502 613h-348l67 299h811l-53 -242l-496 -592h383l-65 -299h-844zM405 1241v23q123 102 282 305h439v-15q-45 -54 -191.5 -157t-245.5 -156h-284z" horiz-adv-x="993" unicode="ź"/><glyph d="M-92 0l47 242l690 901h-479l67 319h986l-52 -245l-700 -898h543l-68 -319h-1034zM546 1720q0 209 228 209q95 0 142.5 -36.5t47.5 -104.5q0 -209 -227 -209q-100 0 -145.5 35.5t-45.5 105.5z" horiz-adv-x="1104" unicode="Ż"/><glyph d="M-41 0l43 221l502 613h-348l67 299h811l-53 -242l-496 -592h383l-65 -299h-844zM423 1382q0 209 228 209q95 0 142.5 -36.5t47.5 -104.5q0 -209 -227 -209q-100 0 -145.5 35.5t-45.5 105.5z" horiz-adv-x="993" unicode="ż"/><glyph d="M-92 0l47 242l690 901h-479l67 319h986l-52 -245l-700 -898h543l-68 -319h-1034zM317 1884v23h266q43 -38 155 -174q140 110 240 174h274v-23q-135 -114 -309 -305h-446q-31 71 -87.5 164.5t-92.5 140.5z" horiz-adv-x="1104" unicode="Ž"/><glyph d="M-41 0l43 221l502 613h-348l67 299h811l-53 -242l-496 -592h383l-65 -299h-844zM257 1546v23h266q43 -38 155 -174q140 110 240 174h274v-23q-135 -114 -309 -305h-446q-31 71 -87.5 164.5t-92.5 140.5z" horiz-adv-x="993" unicode="ž"/><glyph d="M-244 -162q63 -18 117 -18q74 0 112 30t52 95l272 1257q42 192 146 278.5t276 86.5q165 0 283 -58l-107 -284q-62 30 -121 30q-38 0 -65.5 -26t-38.5 -74l-272 -1272q-43 -192 -154 -283.5t-293 -91.5q-110 0 -207 27v303z" horiz-adv-x="752" unicode="ſ"/><glyph d="M-53 -158q55 -18 116 -18q141 0 166 125l166 788h-151l39 203l178 90l20 88q43 187 147.5 276t291.5 89q146 0 266 -58l-105 -282q-68 33 -129 33q-71 0 -86 -64l-18 -78h209l-66 -297h-207l-182 -854q-39 -184 -153.5 -279.5t-294.5 -95.5q-110 0 -207 27v307z" horiz-adv-x="1188" unicode="ƒ"/><glyph d="M104 543q0 265 103 487t280.5 338.5t409.5 116.5q302 0 446 -199q90 120 115 270h379l12 -26q-116 -351 -415 -467q12 -68 12 -141q0 -266 -99.5 -486.5t-274.5 -338t-406 -117.5q-269 0 -415.5 149t-146.5 414zM500 545q0 -242 200 -242q95 0 176.5 83t128 224t46.5 308 q0 114 -48 178.5t-139 64.5q-99 0 -182 -84t-132.5 -231t-49.5 -301z" horiz-adv-x="1645" unicode="Ơ"/><glyph d="M84 416q0 210 79.5 379.5t223.5 263.5t336 94q232 0 348 -143q56 22 97 89.5t67 200.5h364l13 -24q-58 -207 -166 -319t-291 -166l4 -74q0 -210 -79.5 -379.5t-223.5 -263.5t-336 -94q-209 0 -322.5 113t-113.5 323zM479 403q0 -133 84 -133q81 0 141 139t60 320 q0 66 -23 99.5t-63 33.5q-82 0 -140.5 -139.5t-58.5 -319.5z" horiz-adv-x="1448" unicode="ơ"/><glyph d="M125 410q0 64 12 129l199 923h391l-195 -913q-14 -68 -14 -115q0 -127 121 -127q94 0 147.5 64.5t81.5 197.5l191 893h391l-37 -176q71 25 110.5 86.5t51.5 183.5h379l12 -26q-87 -247 -235.5 -358.5t-368.5 -118.5l-111 -523q-59 -281 -225 -415.5t-451 -134.5 q-134 0 -236.5 55t-158 154t-55.5 221z" horiz-adv-x="1659" unicode="Ư"/><glyph d="M96 301q0 106 25 229l127 603h387l-129 -617q-19 -82 -19 -141q0 -44 22.5 -65t53.5 -21q59 0 107.5 78.5t77.5 214.5l116 551h387l-22 -101q68 21 102.5 73t57.5 193h380l13 -26q-59 -169 -139 -266.5t-195 -152t-268 -58.5l-168 -795h-310l13 158h-8 q-54 -93 -128.5 -135.5t-183.5 -42.5q-141 0 -220 85.5t-79 235.5z" horiz-adv-x="1573" unicode="ư"/><glyph d="M-264 -162q56 -18 112 -18q142 0 175 147l247 1166h387l-260 -1227q-40 -193 -157 -295.5t-297 -102.5q-110 0 -207 27v303zM65 1546v23h266q43 -38 155 -174q140 110 240 174h274v-23q-135 -114 -309 -305h-446q-31 71 -87.5 164.5t-92.5 140.5z" horiz-adv-x="666" unicode="ǰ"/><glyph d="M-121 0l744 1397q-13 38 -13 90q0 114 73.5 184t195.5 70q118 0 193 -70.5t75 -181.5q0 -44 -16.5 -85.5t-43.5 -68.5l162 -1335h-381l-18 274h-440l-125 -274h-406zM553 586h285l-27 305q-6 138 -6 211h-10l-27 -72l-23 -53zM762 1792v10q121 84 201 160h426v-8 q-112 -85 -349 -162h-278zM791 1487q0 -37 22 -60.5t64 -23.5q38 0 64 24.5t26 59.5q0 38 -26.5 62t-61.5 24q-36 0 -62 -24t-26 -62zM914 1462z" horiz-adv-x="1384" unicode="Ǻ"/><glyph d="M84 412q0 179 73 365t184.5 281t246.5 95q84 0 148 -37.5t114 -122.5h8l53 140h310l-240 -1133h-309l10 123h-8q-56 -78 -121 -110.5t-147 -32.5q-158 0 -240 111.5t-82 320.5zM479 434q0 -143 86 -143q50 0 95.5 58.5t72.5 156.5t27 192q0 65 -20 104.5t-62 39.5 q-76 0 -137.5 -126.5t-61.5 -281.5zM487 1452q0 114 73.5 184t195.5 70q118 0 193 -70.5t75 -181.5q0 -113 -74.5 -183.5t-193.5 -70.5q-121 0 -195 68.5t-74 183.5zM668 1452q0 -37 23 -60.5t65 -23.5q39 0 63.5 25t24.5 59q0 38 -26.5 62t-61.5 24t-61.5 -24t-26.5 -62z M676 1769v11q128 93 217 182h428v-12q-60 -46 -163.5 -97t-203.5 -84h-278z" unicode="ǻ"/><glyph d="M-125 0l909 1462h1213l-66 -317h-477l-47 -230h444l-71 -317h-445l-57 -276h477l-67 -322h-869l58 274h-418l-170 -274h-414zM662 602h286l113 543h-68zM1129 1579v23q123 102 282 305h439v-15q-45 -54 -191.5 -157t-245.5 -156h-284z" horiz-adv-x="1937" unicode="Ǽ"/><glyph d="M84 412q0 179 73 365t184.5 281t246.5 95q92 0 152 -38t110 -122h8l53 140h207v-95q58 56 132.5 85.5t146.5 29.5q157 0 251.5 -86.5t94.5 -228.5q0 -201 -157 -308.5t-451 -107.5h-60v-16q0 -148 164 -148q79 0 155 23.5t173 74.5v-274q-99 -58 -182.5 -80t-192.5 -22 q-179 0 -262 112l-31 -92h-227l10 123h-8q-56 -78 -121 -110.5t-147 -32.5q-158 0 -240 111.5t-82 320.5zM479 434q0 -143 86 -143q76 0 134.5 123t58.5 284q0 65 -23 104.5t-65 39.5q-49 0 -93 -57.5t-71 -155t-27 -195.5zM1114 664h29q109 0 171 41.5t62 109.5 q0 32 -20 54t-64 22q-61 0 -114 -69.5t-64 -157.5zM840 1241v23q123 102 282 305h439v-15q-45 -54 -191.5 -157t-245.5 -156h-284z" horiz-adv-x="1788" unicode="ǽ"/><glyph d="M94 31l117 145q-107 141 -107 367q0 262 101 484.5t275.5 340t398.5 117.5q182 0 315 -72l92 115l156 -119l-99 -125q103 -143 103 -362q0 -258 -98.5 -480.5t-271 -342t-392.5 -119.5q-192 0 -324 69l-106 -135zM500 539l467 589q-45 33 -115 33q-94 0 -175 -82 t-129 -224t-48 -306v-10zM586 332q46 -29 114 -29q95 0 176 81.5t128 222.5t47 308zM717 1579v23q123 102 282 305h439v-15q-45 -54 -191.5 -157t-245.5 -156h-284z" horiz-adv-x="1509" unicode="Ǿ"/><glyph d="M66 -2l112 131q-94 117 -94 287q0 207 81.5 377.5t230.5 265t347 94.5q136 0 250 -57l105 121l127 -109l-105 -123q82 -114 82 -268q0 -208 -81 -377.5t-229 -264.5t-343 -95q-127 0 -238 49l-118 -140zM449 451l335 397q-35 29 -82 29q-67 0 -125 -55t-92 -153t-36 -218 zM518 274q29 -14 72 -14q107 0 172 101.5t74 287.5zM564 1241v23q123 102 282 305h439v-15q-45 -54 -191.5 -157t-245.5 -156h-284z" horiz-adv-x="1286" unicode="ǿ"/><glyph d="M43 76v350q84 -53 192.5 -89t196.5 -36q74 0 112 31t38 88q0 27 -12 50.5t-34 47t-118 103.5q-117 94 -170 192t-53 215q0 131 65.5 235.5t185 162t267.5 57.5q239 0 430 -107l-135 -297q-171 88 -291 88q-64 0 -98.5 -28t-34.5 -82q0 -49 33.5 -91.5t127.5 -113.5 q118 -87 175 -183t57 -220q0 -222 -147 -345.5t-410 -123.5q-110 0 -208 24.5t-169 71.5zM129 -426q77 196 109 301h362v-20q-89 -150 -233 -308h-238v27z" horiz-adv-x="1122" unicode="Ș"/><glyph d="M31 43v311q92 -50 171 -70t160 -20q68 0 102 18.5t34 51.5q0 35 -26 60.5t-130 84.5q-106 58 -154.5 133t-48.5 183q0 172 121 265t344 93q112 0 204 -26t179 -80l-121 -252q-66 43 -136.5 68.5t-121.5 25.5q-76 0 -76 -68q0 -29 31.5 -51t102.5 -57q225 -112 225 -320 q0 -199 -130 -306t-374 -107q-222 0 -356 63zM116 -426q77 196 109 301h362v-20q-89 -150 -233 -308h-238v27z" horiz-adv-x="1028" unicode="ș"/><glyph d="M156 1139l69 323h1028l-71 -323h-318l-237 -1139h-391l237 1139h-317zM116 -426q77 196 109 301h362v-20q-89 -150 -233 -308h-238v27z" horiz-adv-x="1130" unicode="Ț"/><glyph d="M63 842l41 190l218 88l137 240h258l-49 -227h288l-63 -291h-289l-84 -383q-16 -77 -16 -105q0 -63 63 -63q66 0 183 47v-291q-136 -67 -340 -67q-148 0 -224.5 63.5t-76.5 208.5q0 76 24 188l84 402h-154zM56 -426q77 196 109 301h362v-20q-89 -150 -233 -308h-238v27z" horiz-adv-x="936" unicode="ț"/><glyph d="M-264 -162q56 -18 112 -18q142 0 175 147l247 1166h387l-260 -1227q-40 -193 -157 -295.5t-297 -102.5q-110 0 -207 27v303z" horiz-adv-x="666" unicode="ȷ"/><glyph d="M94 961q34 81 67.5 167.5t121.5 333.5h348l8 -22q-92 -212 -256 -479h-289z" horiz-adv-x="500" unicode="ʼ"/><glyph d="M254 1241v23q79 72 170 162.5t139 142.5h447q26 -59 78 -149.5t102 -155.5v-23h-266q-46 41 -156 174q-140 -110 -240 -174h-274z" horiz-adv-x="1135" unicode="ˆ"/><glyph d="M322 1546v23h266q43 -38 155 -174q140 110 240 174h274v-23q-135 -114 -309 -305h-446q-31 71 -87.5 164.5t-92.5 140.5z" horiz-adv-x="1135" unicode="ˇ"/><glyph d="M371 1241l51 236h665l-49 -236h-667z" horiz-adv-x="1096" unicode="ˉ"/><glyph d="M399 1556q0 38 9 56h217q0 -65 44.5 -97t118.5 -32q85 0 132.5 32.5t68.5 96.5h221q-31 -188 -143 -279.5t-311 -91.5q-167 0 -262 83.5t-95 231.5z" horiz-adv-x="1135" unicode="˘"/><glyph d="M319 1382q0 209 228 209q95 0 142.5 -36.5t47.5 -104.5q0 -209 -227 -209q-100 0 -145.5 35.5t-45.5 105.5z" horiz-adv-x="680" unicode="˙"/><glyph d="M522 1489q0 114 73.5 184t195.5 70q118 0 193 -70.5t75 -181.5q0 -113 -74.5 -183.5t-193.5 -70.5q-121 0 -195 68.5t-74 183.5zM702 1489q0 -37 23.5 -60.5t65.5 -23.5q39 0 63.5 25t24.5 59q0 38 -26.5 62t-61.5 24q-36 0 -62.5 -24t-26.5 -62z" horiz-adv-x="1182" unicode="˚"/><glyph d="M-190 -309q0 87 50 160t167 149h252q-97 -80 -127.5 -113.5t-47 -66t-16.5 -66.5q0 -20 13.5 -35.5t39.5 -15.5q47 0 117 25v-222q-94 -30 -199 -30q-113 0 -181 60t-68 155z" horiz-adv-x="453" unicode="˛"/><glyph d="M301 1237q32 172 108.5 257t204.5 85q34 0 59.5 -6.5t94.5 -42.5q31 -17 66 -33t67 -16q78 0 115 100h190q-34 -172 -112.5 -257t-208.5 -85q-33 0 -65 8t-61 22t-46 23q-73 45 -127 45q-31 0 -60.5 -27t-36.5 -73h-188z" horiz-adv-x="1135" unicode="˜"/><glyph d="M211 1241v29q44 53 113.5 146t103.5 153h371v-21q-43 -70 -385 -307h-203zM674 1241v29l49 67q116 155 158 232h372v-21q-49 -81 -376 -307h-203z" horiz-adv-x="1135" unicode="˝"/><glyph d="M-123 -379q0 116 73 185t193 69t195.5 -71.5t75.5 -180.5q0 -114 -75.5 -185t-195.5 -71q-122 0 -194 68.5t-72 185.5zM57 -379q0 -38 21.5 -61t64.5 -23q35 0 59.5 23t24.5 61t-24.5 61t-59.5 23q-37 0 -61.5 -23t-24.5 -61z" horiz-adv-x="682" unicode="˳"/><glyph d="M-806 1548v21h396q29 -157 94 -303v-25h-236q-82 75 -152 159t-102 148z" horiz-adv-x="0" unicode="̀"/><glyph d="M-625 1241v23q123 102 282 305h439v-15q-45 -54 -191.5 -157t-245.5 -156h-284z" horiz-adv-x="0" unicode="́"/><glyph d="M-931 1237q32 172 108.5 257t204.5 85q34 0 59.5 -6.5t94.5 -42.5q31 -17 66 -33t67 -16q78 0 115 100h190q-34 -172 -112.5 -257t-208.5 -85q-33 0 -65 8t-61 22t-46 23q-73 45 -127 45q-31 0 -60.5 -27t-36.5 -73h-188z" horiz-adv-x="0" unicode="̃"/><glyph d="M-623 1477v204q92 33 213 33q137 0 206 -53t69 -145q0 -85 -43 -144t-146 -100l-26 -45h-211v123l30 7q48 9 77.5 33t29.5 62q0 53 -72 53q-49 0 -127 -28z" horiz-adv-x="0" unicode="̉"/><glyph d="M-868 1548v21h346q30 -165 92 -303v-25h-184q-83 78 -154 163.5t-100 143.5zM-465 1548v21h346q33 -168 92 -303v-25h-184q-84 76 -155.5 162.5t-98.5 144.5z" horiz-adv-x="0" unicode="̏"/><glyph d="M-975 -338q0 207 227 207q96 0 143.5 -37t47.5 -104q0 -209 -225 -209q-100 0 -146.5 35.5t-46.5 107.5z" horiz-adv-x="0" unicode="̣"/><glyph d="M526 1241v25q26 53 68 161.5t70 202.5h348v-24q-29 -45 -57 -89t-58 -88.5t-64.5 -90.5t-74.5 -97h-232z" horiz-adv-x="1122" unicode="΄"/><glyph d="M264 1384q0 187 176 187q148 0 148 -125q0 -189 -176 -189q-76 0 -112 31t-36 96zM625 1389v20q28 62 55.5 149.5t42.5 157.5h299v-20q-39 -70 -85 -139t-124 -168h-188zM930 1384q0 187 176 187q147 0 147 -125q0 -189 -176 -189q-73 0 -110 30t-37 97z" horiz-adv-x="1122" unicode="΅"/><glyph d="M-121 0l744 1462h503l123 -1462h-381l-10 274h-448l-125 -274h-406zM553 586h293l-17 424l-2 86q0 75 4 131q-24 -86 -61 -166zM33 1136v25q26 53 68 161.5t70 202.5h348v-24q-29 -45 -57 -89t-58 -88.5t-64.5 -90.5t-74.5 -97h-232z" horiz-adv-x="1384" unicode="Ά"/><glyph d="M115 684q0 106 65 168.5t178 62.5q82 0 131.5 -40.5t49.5 -114.5q0 -117 -65.5 -173.5t-178.5 -56.5q-86 0 -133 40t-47 114z" horiz-adv-x="627" unicode="·"/><glyph d="M9 1136v25q26 53 68 161.5t70 202.5h348v-24q-29 -45 -57 -89t-58 -88.5t-64.5 -90.5t-74.5 -97h-232zM199 0l309 1462h868l-65 -317h-477l-47 -230h444l-72 -317h-444l-57 -276h477l-68 -322h-868z" horiz-adv-x="1374" unicode="Έ"/><glyph d="M9 1136v25q26 53 68 161.5t70 202.5h348v-24q-29 -45 -57 -89t-58 -88.5t-64.5 -90.5t-74.5 -97h-232zM185 0l309 1462h391l-112 -542h348l112 542h392l-310 -1462h-391l125 596h-346l-127 -596h-391z" horiz-adv-x="1606" unicode="Ή"/><glyph d="M187 0l309 1462h397l-309 -1462h-397zM9 1136v25q26 53 68 161.5t70 202.5h348v-24q-29 -45 -57 -89t-58 -88.5t-64.5 -90.5t-74.5 -97h-232z" horiz-adv-x="883" unicode="Ί"/><glyph d="M44 1136v25q26 53 68 161.5t70 202.5h348v-24q-29 -45 -57 -89t-58 -88.5t-64.5 -90.5t-74.5 -97h-232zM249 543q0 265 103 487t280.5 338.5t409.5 116.5q260 0 404.5 -148.5t144.5 -414.5t-99.5 -486.5t-274.5 -338t-406 -117.5q-269 0 -415.5 149t-146.5 414zM645 545 q0 -242 200 -242q95 0 176.5 83t128 224t46.5 308q0 114 -48 178.5t-139 64.5q-99 0 -182 -84t-132.5 -231t-49.5 -301z" horiz-adv-x="1655" unicode="Ό"/><glyph d="M516 1462h403l90 -542l312 542h436l-612 -895l-121 -567h-391l120 567zM9 1136v25q26 53 68 161.5t70 202.5h348v-24q-29 -45 -57 -89t-58 -88.5t-64.5 -90.5t-74.5 -97h-232z" horiz-adv-x="1567" unicode="Ύ"/><glyph d="M72 0l68 324h387q-109 67 -173.5 183.5t-64.5 248.5q0 220 94.5 386t268 254.5t397.5 88.5q289 0 458 -141t169 -381q0 -246 -107.5 -402t-314.5 -237h387l-70 -324h-657l82 371q128 70 206 214.5t78 325.5q0 114 -68 182t-184 68q-93 0 -169 -56t-125.5 -166.5 t-49.5 -221.5q0 -128 27.5 -205t99.5 -141l-82 -371h-657zM31 1136v25q26 53 68 161.5t70 202.5h348v-24q-29 -45 -57 -89t-58 -88.5t-64.5 -90.5t-74.5 -97h-232z" horiz-adv-x="1739" unicode="Ώ"/><glyph d="M86 242q0 55 20 145l154 746h387l-143 -707q-12 -58 -12 -84q0 -23 14 -37t39 -14q88 0 170 33v-285q-124 -59 -312 -59q-172 0 -244.5 62.5t-72.5 199.5zM27 1384q0 187 176 187q148 0 148 -125q0 -189 -176 -189q-76 0 -112 31t-36 96zM388 1389v20q28 62 55.5 149.5 t42.5 157.5h299v-20q-39 -70 -85 -139t-124 -168h-188zM693 1384q0 187 176 187q147 0 147 -125q0 -189 -176 -189q-73 0 -110 30t-37 97z" horiz-adv-x="817" unicode="ΐ"/><glyph d="M-121 0l744 1462h503l123 -1462h-381l-10 274h-448l-125 -274h-406zM553 586h293l-17 424l-2 86q0 75 4 131q-24 -86 -61 -166z" horiz-adv-x="1384" unicode="Α"/><glyph d="M33 0l309 1462h487q217 0 329 -82.5t112 -236.5q0 -288 -297 -377v-8q88 -29 140 -101.5t52 -177.5q0 -229 -152.5 -354t-432.5 -125h-547zM489 305h82q86 0 143.5 48.5t57.5 121.5q0 69 -33 103t-116 34h-68zM614 901h72q88 0 133 38t45 122q0 102 -127 102h-63z" horiz-adv-x="1298" unicode="Β"/><glyph d="M33 0l309 1462h862l-67 -319h-471l-242 -1143h-391z" horiz-adv-x="1079" unicode="Γ"/><glyph d="M-72 0l45 225l652 1237h483l104 -1237l-49 -225h-1235zM408 311h430l-23 760q0 75 4 131q-24 -86 -61 -166z" horiz-adv-x="1356" unicode="Δ"/><glyph d="M33 0l309 1462h868l-65 -317h-477l-47 -230h444l-72 -317h-444l-57 -276h477l-68 -322h-868z" horiz-adv-x="1151" unicode="Ε"/><glyph d="M-92 0l47 242l690 901h-479l67 319h986l-52 -245l-700 -898h543l-68 -319h-1034z" horiz-adv-x="1104" unicode="Ζ"/><glyph d="M33 0l309 1462h391l-112 -542h348l112 542h392l-310 -1462h-391l125 596h-346l-127 -596h-391z" horiz-adv-x="1462" unicode="Η"/><glyph d="M104 575q0 247 107 463.5t288.5 331.5t413.5 115q288 0 441 -151.5t153 -430.5q0 -251 -105 -470t-285 -336t-406 -117q-298 0 -452.5 153t-154.5 442zM500 565q0 -134 55.5 -198t167.5 -64q111 0 200.5 76.5t139 214t49.5 301.5q0 121 -58 193.5t-163 72.5 q-107 0 -197 -80t-142 -220.5t-52 -295.5zM584 586l69 307h387l-69 -307h-387z" horiz-adv-x="1571" unicode="Θ"/><glyph d="M31 0l309 1462h397l-309 -1462h-397z" horiz-adv-x="727" unicode="Ι"/><glyph d="M33 0l309 1462h391l-135 -624l38 59q88 143 130 195l297 370h459l-551 -674l270 -788h-438l-174 578l-97 -56l-108 -522h-391z" horiz-adv-x="1370" unicode="Κ"/><glyph d="M-117 0l723 1462h436l107 -1462h-383l-27 711l-2 80v61q0 157 17 256h-9q-15 -66 -43 -151t-57 -152l-348 -805h-414z" horiz-adv-x="1264" unicode="Λ"/><glyph d="M33 0l309 1462h518v-1038h8l478 1038h526l-313 -1462h-351l117 549q50 228 108 436l15 64h-8l-482 -1049h-370v1049h-8q-67 -417 -86 -512l-113 -537h-348z" horiz-adv-x="1862" unicode="Μ"/><glyph d="M33 0l309 1462h455l286 -983h9q29 236 57 371l131 612h348l-309 -1462h-455l-289 1028h-8q-29 -291 -57 -418l-129 -610h-348z" horiz-adv-x="1618" unicode="Ν"/><glyph d="M-41 0l64 322h970l-65 -322h-969zM162 598l74 317h786l-72 -317h-788zM219 1145l68 317h911l-68 -317h-911z" horiz-adv-x="1139" unicode="Ξ"/><glyph d="M104 543q0 265 103 487t280.5 338.5t409.5 116.5q260 0 404.5 -148.5t144.5 -414.5t-99.5 -486.5t-274.5 -338t-406 -117.5q-269 0 -415.5 149t-146.5 414zM500 545q0 -242 200 -242q95 0 176.5 83t128 224t46.5 308q0 114 -48 178.5t-139 64.5q-99 0 -182 -84 t-132.5 -231t-49.5 -301z" horiz-adv-x="1509" unicode="Ο"/><glyph d="M33 0l309 1462h1131l-310 -1462h-391l238 1139h-346l-240 -1139h-391z" horiz-adv-x="1462" unicode="Π"/><glyph d="M33 0l309 1462h373q259 0 397.5 -113.5t138.5 -324.5q0 -252 -171.5 -395.5t-469.5 -143.5h-86l-100 -485h-391zM594 805h63q91 0 147 58.5t56 148.5q0 59 -36 95t-99 36h-59z" horiz-adv-x="1276" unicode="Ρ"/><glyph d="M-61 0l57 281l510 481l-307 424l59 276h944l-67 -319h-488l291 -406l-438 -418h516l-66 -319h-1011z" horiz-adv-x="1130" unicode="Σ"/><glyph d="M156 1139l69 323h1028l-71 -323h-318l-237 -1139h-391l237 1139h-317z" horiz-adv-x="1130" unicode="Τ"/><glyph d="M164 1462h403l90 -542l312 542h436l-612 -895l-121 -567h-391l120 567z" horiz-adv-x="1237" unicode="Υ"/><glyph d="M92 678q0 286 187.5 448t537.5 177l37 180h369l-37 -180q230 -23 361.5 -149t131.5 -325q0 -296 -185 -453.5t-542 -170.5l-49 -225h-368l49 225q-231 23 -361.5 148t-130.5 325zM477 698q0 -100 43.5 -145t128.5 -51l105 502q-133 -6 -205 -84.5t-72 -221.5zM1018 504 q133 2 204.5 80.5t71.5 222.5q0 175 -172 197z" horiz-adv-x="1733" unicode="Φ"/><glyph d="M-125 0l563 776l-223 686h416l123 -469l309 469h448l-538 -725l262 -737h-432l-146 498l-338 -498h-444z" horiz-adv-x="1358" unicode="Χ"/><glyph d="M160 805q0 76 16 151l109 506h379l-107 -510q-16 -75 -16 -112q0 -46 15.5 -72.5t50 -38.5t116.5 -12h12l158 745h369l-156 -745h24q85 0 129.5 21.5t74.5 71.5t48 138l109 514h379l-123 -563q-43 -195 -126.5 -297.5t-227.5 -151t-355 -53.5l-86 -397h-368l84 397 q-242 4 -375 109.5t-133 298.5z" horiz-adv-x="1806" unicode="Ψ"/><glyph d="M-84 0l68 324h387q-109 67 -173.5 183.5t-64.5 248.5q0 220 94.5 386t268 254.5t397.5 88.5q289 0 458 -141t169 -381q0 -246 -107.5 -402t-314.5 -237h387l-70 -324h-657l82 371q128 70 206 214.5t78 325.5q0 114 -68 182t-184 68q-93 0 -169 -56t-125.5 -166.5 t-49.5 -221.5q0 -128 27.5 -205t99.5 -141l-82 -371h-657z" horiz-adv-x="1583" unicode="Ω"/><glyph d="M31 0l309 1462h397l-309 -1462h-397zM159 1722q0 187 201 187q170 0 170 -125q0 -189 -201 -189q-88 0 -129 31t-41 96zM646 1722q0 187 201 187q168 0 168 -125q0 -97 -49.5 -143t-149.5 -46q-88 0 -129 31t-41 96z" horiz-adv-x="727" unicode="Ϊ"/><glyph d="M164 1462h403l90 -542l312 542h436l-612 -895l-121 -567h-391l120 567zM377 1722q0 187 201 187q170 0 170 -125q0 -189 -201 -189q-88 0 -129 31t-41 96zM864 1722q0 187 201 187q168 0 168 -125q0 -97 -49.5 -143t-149.5 -46q-88 0 -129 31t-41 96z" horiz-adv-x="1237" unicode="Ϋ"/><glyph d="M84 412q0 184 72 367t184 278.5t252 95.5q56 0 97.5 -16t75.5 -46.5t85 -103.5h8q44 94 96 146h336q-52 -81 -100.5 -204t-75.5 -245l-53 -238q-14 -56 -14 -96q0 -61 63 -61q26 0 66 12v-289q-81 -32 -207 -32q-106 0 -172.5 35t-100.5 108h-14q-47 -60 -83.5 -87 t-81 -41.5t-107.5 -14.5q-155 0 -240.5 112t-85.5 320zM479 434q0 -71 23 -107t61 -36q47 0 91.5 55.5t71 149.5t26.5 202q0 67 -15 105.5t-59 38.5q-49 0 -95.5 -59.5t-75 -156.5t-28.5 -192zM618 1241v25q26 53 68 161.5t70 202.5h348v-24q-29 -45 -57 -89t-58 -88.5 t-64.5 -90.5t-74.5 -97h-232z" horiz-adv-x="1290" unicode="ά"/><glyph d="M41 307q0 124 82 195.5t258 97.5v8q-180 64 -180 228q0 150 138 233.5t380 83.5q126 0 235 -22t215 -70l-114 -275q-76 41 -162 62.5t-148 21.5q-86 0 -131 -18t-45 -61q0 -39 45 -57.5t142 -18.5h143l-53 -254h-172q-112 0 -172 -24t-60 -70q0 -47 52 -72t139 -25 q81 0 155.5 16.5t180.5 67.5v-297q-158 -77 -437 -77q-224 0 -357.5 88t-133.5 239zM579 1241v25q26 53 68 161.5t70 202.5h348v-24q-29 -45 -57 -89t-58 -88.5t-64.5 -90.5t-74.5 -97h-232z" horiz-adv-x="1141" unicode="έ"/><glyph d="M23 0l239 1133h309l-12 -158h8q55 95 129.5 136.5t182.5 41.5q141 0 220 -85.5t79 -236.5q0 -106 -25 -229l-227 -1094h-387l229 1110q18 78 18 142q0 43 -22 64.5t-53 21.5q-71 0 -109 -57t-76 -236l-116 -553h-387zM628 1241v25q26 53 68 161.5t70 202.5h348v-24 q-29 -45 -57 -89t-58 -88.5t-64.5 -90.5t-74.5 -97h-232z" horiz-adv-x="1274" unicode="ή"/><glyph d="M86 242q0 55 20 145l154 746h387l-143 -707q-12 -58 -12 -84q0 -23 14 -37t39 -14q88 0 170 33v-285q-124 -59 -312 -59q-172 0 -244.5 62.5t-72.5 199.5zM312 1241v25q26 53 68 161.5t70 202.5h348v-24q-29 -45 -57 -89t-58 -88.5t-64.5 -90.5t-74.5 -97h-232z" horiz-adv-x="817" unicode="ί"/><glyph d="M96 371q0 37 15 139l133 623h385l-135 -641q-11 -49 -11 -97q0 -57 23.5 -80.5t68.5 -23.5q126 0 186 198t60 603v41h385q6 -78 6 -144q0 -526 -163.5 -767.5t-513.5 -241.5q-216 0 -327.5 99.5t-111.5 291.5zM268 1384q0 187 176 187q148 0 148 -125q0 -189 -176 -189 q-76 0 -112 31t-36 96zM629 1389v20q28 62 55.5 149.5t42.5 157.5h299v-20q-39 -70 -85 -139t-124 -168h-188zM934 1384q0 187 176 187q147 0 147 -125q0 -189 -176 -189q-73 0 -110 30t-37 97z" horiz-adv-x="1278" unicode="ΰ"/><glyph d="M84 412q0 184 72 367t184 278.5t252 95.5q56 0 97.5 -16t75.5 -46.5t85 -103.5h8q44 94 96 146h336q-52 -81 -100.5 -204t-75.5 -245l-53 -238q-14 -56 -14 -96q0 -61 63 -61q26 0 66 12v-289q-81 -32 -207 -32q-106 0 -172.5 35t-100.5 108h-14q-47 -60 -83.5 -87 t-81 -41.5t-107.5 -14.5q-155 0 -240.5 112t-85.5 320zM479 434q0 -71 23 -107t61 -36q47 0 91.5 55.5t71 149.5t26.5 202q0 67 -15 105.5t-59 38.5q-49 0 -95.5 -59.5t-75 -156.5t-28.5 -192z" horiz-adv-x="1290" unicode="α"/><glyph d="M-78 -492l320 1530q56 273 194.5 401t376.5 128q230 0 349.5 -94.5t119.5 -274.5q0 -163 -97.5 -269t-260.5 -120q123 -18 200.5 -112t77.5 -232q0 -231 -135 -358t-387 -127q-168 0 -258 63l-113 -535h-387zM487 340q26 -22 66.5 -35.5t83.5 -13.5q77 0 126.5 53.5 t49.5 136.5q0 90 -43.5 135.5t-118.5 45.5h-14l61 290h31q74 0 122 55.5t48 139.5q0 57 -26 87t-70 30q-66 0 -103 -50t-61 -161z" horiz-adv-x="1323" unicode="β"/><glyph d="M45 -492q56 272 180 508l-131 1117h377l21 -422q4 -68 4 -156l-2 -131h8q19 56 50 126.5t273 582.5h414l-528 -971q-107 -196 -169 -349.5t-93 -304.5h-404z" horiz-adv-x="1120" unicode="γ"/><glyph d="M57 381q0 191 110 328t325 213q-130 125 -130 288q0 167 133 262t363 95q137 0 239 -25.5t210 -85.5l-154 -276q-85 55 -164 79.5t-135 24.5q-51 0 -80 -20.5t-29 -59.5t31.5 -79t128.5 -124q114 -98 165.5 -203t51.5 -229q0 -178 -72 -312t-207.5 -205.5t-320.5 -71.5 q-227 0 -346 104t-119 297zM446 414q0 -68 25.5 -106t75.5 -38q76 0 131 82.5t55 200.5q0 66 -26 115t-58 75q-92 -45 -147.5 -131.5t-55.5 -197.5z" horiz-adv-x="1225" unicode="δ"/><glyph d="M41 307q0 124 82 195.5t258 97.5v8q-180 64 -180 228q0 150 138 233.5t380 83.5q126 0 235 -22t215 -70l-114 -275q-76 41 -162 62.5t-148 21.5q-86 0 -131 -18t-45 -61q0 -39 45 -57.5t142 -18.5h143l-53 -254h-172q-112 0 -172 -24t-60 -70q0 -47 52 -72t139 -25 q81 0 155.5 16.5t180.5 67.5v-297q-158 -77 -437 -77q-224 0 -357.5 88t-133.5 239z" horiz-adv-x="1141" unicode="ε"/><glyph d="M66 469q0 205 147 414.5t426 402.5q-48 -12 -168 -12h-215l63 282h861l-47 -213q-241 -178 -390 -317.5t-216.5 -253t-67.5 -244.5q0 -59 40 -104t140 -96q126 -65 195 -146.5t69 -191.5q0 -93 -44.5 -179.5t-147.5 -189.5h-412q199 180 199 275q0 29 -10.5 49.5 t-33.5 39t-58.5 38.5t-86.5 49q-124 68 -183.5 163t-59.5 234z" horiz-adv-x="979" unicode="ζ"/><glyph d="M23 0l239 1133h309l-12 -158h8q55 95 129.5 136.5t182.5 41.5q141 0 220 -85.5t79 -236.5q0 -106 -25 -229l-227 -1094h-387l229 1110q18 78 18 142q0 43 -22 64.5t-53 21.5q-71 0 -109 -57t-76 -236l-116 -553h-387z" horiz-adv-x="1274" unicode="η"/><glyph d="M96 444q0 196 55 439.5t144.5 394t215 226t296.5 75.5q195 0 302.5 -123.5t107.5 -351.5q0 -280 -88 -567.5t-236 -422t-363 -134.5q-213 0 -323.5 120.5t-110.5 343.5zM463 393q0 -60 21.5 -95.5t66.5 -35.5q61 0 120 105t101 278h-285q-24 -156 -24 -252zM547 928h284 q19 143 19 233q0 135 -84 135q-57 0 -110 -85.5t-109 -282.5z" horiz-adv-x="1253" unicode="θ"/><glyph d="M86 242q0 55 20 145l154 746h387l-143 -707q-12 -58 -12 -84q0 -23 14 -37t39 -14q88 0 170 33v-285q-124 -59 -312 -59q-172 0 -244.5 62.5t-72.5 199.5z" horiz-adv-x="817" unicode="ι"/><glyph d="M23 0l237 1133h387l-51 -240q-11 -50 -33.5 -120.5t-36.5 -102.5h9q79 119 155 200l238 263h442l-487 -512l274 -621h-438l-139 391l-101 -53l-69 -338h-387z" horiz-adv-x="1264" unicode="κ"/><glyph d="M-111 0l596 1051l-4 53q-7 85 -38 129.5t-83 44.5q-38 0 -100 -14l-47 278q104 27 236 27q182 0 279 -99.5t126 -295.5l92 -613q21 -150 51 -210t90 -60q26 0 68 10v-285q-90 -36 -233 -36q-85 0 -145 29.5t-98.5 88.5t-61 163t-31.5 203t-6 107h-9q-33 -117 -73 -198 l-191 -373h-418z" horiz-adv-x="1237" unicode="λ"/><glyph d="M-82 -492l344 1625h387l-129 -617q-18 -78 -18 -141q0 -44 22.5 -65t53.5 -21q52 0 82.5 26t53.5 87t48 180l117 551h387l-240 -1133h-289l6 123h-8q-68 -143 -190 -143q-102 0 -131 77h-8q-10 -134 -48 -303l-53 -246h-387z" horiz-adv-x="1288" unicode="μ"/><glyph d="M96 1133h379l43 -619q4 -40 4 -170h10q117 183 182.5 369t102.5 420h400q-54 -344 -204.5 -624t-398.5 -509h-376z" horiz-adv-x="1184" unicode="ν"/><glyph d="M66 432q0 140 72 237.5t214 145.5v8q-75 41 -109 93t-34 120q0 92 64.5 157.5t179.5 92.5q-100 -12 -189 -12h-74l64 282h850l-57 -270h-46q-192 0 -299.5 -54.5t-107.5 -154.5q0 -64 43.5 -94.5t150.5 -30.5h107l-64 -290h-55q-161 0 -240 -35.5t-79 -116.5 q0 -49 30.5 -83.5t149.5 -98.5q151 -82 208.5 -159.5t57.5 -182.5q0 -92 -44 -178t-146 -187h-412q197 174 197 279q0 41 -45.5 79.5t-165.5 102.5q-117 64 -169 148t-52 202z" horiz-adv-x="1006" unicode="ξ"/><glyph d="M84 416q0 210 79.5 379.5t223.5 263.5t336 94q209 0 322.5 -113t113.5 -323t-79.5 -379.5t-223.5 -263.5t-336 -94q-209 0 -322.5 113t-113.5 323zM479 403q0 -133 84 -133q81 0 141 139t60 320q0 66 -23 99.5t-63 33.5q-82 0 -140.5 -139.5t-58.5 -319.5z" unicode="ο"/><glyph d="M78 842l39 209l196 82h1311l-57 -291h-260l-86 -393q-13 -60 -13 -97q0 -61 64 -61q74 0 174 41v-287q-132 -65 -332 -65q-158 0 -229.5 66.5t-71.5 205.5q0 86 21 174l86 416h-205l-180 -842h-388l181 842h-250z" horiz-adv-x="1620" unicode="π"/><glyph d="M-76 -492l223 1082q45 216 116.5 332t187 173.5t286.5 57.5q199 0 315.5 -124t116.5 -327q0 -212 -63.5 -377.5t-181.5 -255t-273 -89.5q-86 0 -143 34t-82 88h-8q-6 -80 -20.5 -169t-86.5 -425h-387zM489 362q26 -71 97 -71q54 0 97 57t69 169.5t26 189.5q0 135 -76 135 q-64 0 -101.5 -63.5t-68.5 -207.5z" horiz-adv-x="1253" unicode="ρ"/><glyph d="M84 432q0 208 76 374t214 256.5t316 90.5q111 0 196.5 -20t170.5 -64l-123 -283q-51 23 -105 41.5t-120 18.5q-60 0 -111.5 -44t-87 -131.5t-35.5 -166.5q0 -46 24.5 -77t79.5 -58q131 -67 191.5 -117t87.5 -113.5t27 -152.5q0 -94 -45.5 -180.5t-145.5 -184.5h-411 q93 82 144.5 158t51.5 133q0 35 -15 56.5t-52.5 49t-106.5 64.5q-117 64 -169 148t-52 202z" horiz-adv-x="1020" unicode="ς"/><glyph d="M84 416q0 340 193 528.5t544 188.5h572l-66 -291h-262q88 -111 88 -260q0 -174 -79 -316t-215 -214t-312 -72q-219 0 -341 114.5t-122 321.5zM479 430q0 -76 29.5 -118t77.5 -42q86 0 133 112.5t47 303.5q0 89 -23 156q-120 0 -192 -111.5t-72 -300.5z" horiz-adv-x="1305" unicode="σ"/><glyph d="M66 842l40 209l187 82h797l-64 -291h-291l-84 -393q-14 -64 -14 -97q0 -61 63 -61q75 0 174 41v-287q-132 -65 -331 -65q-158 0 -229.5 66t-71.5 206q0 34 6 86.5t14 87.5l92 416h-288z" horiz-adv-x="1069" unicode="τ"/><glyph d="M96 371q0 37 15 139l133 623h385l-135 -641q-11 -49 -11 -97q0 -57 23.5 -80.5t68.5 -23.5q126 0 186 198t60 603v41h385q6 -78 6 -144q0 -526 -163.5 -767.5t-513.5 -241.5q-216 0 -327.5 99.5t-111.5 291.5z" horiz-adv-x="1278" unicode="υ"/><glyph d="M84 492q0 391 334 659l241 -227q-184 -173 -184 -424q0 -87 30 -147t89 -79l94 453q46 221 166.5 323.5t325.5 102.5q218 0 339 -122.5t121 -340.5q0 -204 -89.5 -362t-256.5 -247t-387 -97l-96 -476h-373l97 476q-218 33 -334.5 165.5t-116.5 342.5zM967 274 q86 18 149.5 80.5t98 158.5t34.5 204q0 70 -22.5 107.5t-63.5 37.5q-75 0 -104 -139z" horiz-adv-x="1724" unicode="φ"/><glyph d="M-303 -492l663 928l-53 283q-12 65 -35.5 94t-68.5 29q-29 0 -76 -15l-61 279q46 21 122.5 34t137.5 13q143 0 217 -69.5t104 -231.5l17 -88l223 369h438l-567 -781l73 -442q8 -49 29.5 -69.5t61.5 -20.5q49 0 116 16v-291q-118 -37 -247 -37q-142 0 -211.5 73t-96.5 245 l-28 199l-320 -517h-438z" horiz-adv-x="1186" unicode="χ"/><glyph d="M96 344q0 73 19 154l133 635h385l-135 -641q-11 -49 -11 -99q0 -45 42 -72t110 -30l266 1265h373l-266 -1265q165 28 238 193t73 495q0 42 -8 154h385q8 -93 8 -146q0 -375 -79 -581.5t-247 -308.5t-434 -117l-96 -472h-373l96 472q-235 20 -357 114t-122 250z" horiz-adv-x="1774" unicode="ψ"/><glyph d="M66 403q0 326 245 730h398q-118 -168 -188 -363.5t-70 -349.5q0 -79 21.5 -109t66.5 -30q48 0 78.5 49.5t60.5 185.5l61 289h377l-63 -289q-23 -103 -23 -156q0 -46 16.5 -62.5t55.5 -16.5q96 0 153.5 168t57.5 417q0 147 -31 267h397q19 -142 19 -256q0 -441 -149 -669 t-433 -228q-137 0 -210 50.5t-95 147.5q-66 -106 -155.5 -152t-221.5 -46q-177 0 -272.5 107.5t-95.5 315.5z" horiz-adv-x="1763" unicode="ω"/><glyph d="M86 242q0 55 20 145l154 746h387l-143 -707q-12 -58 -12 -84q0 -23 14 -37t39 -14q88 0 170 33v-285q-124 -59 -312 -59q-172 0 -244.5 62.5t-72.5 199.5zM144 1384q0 187 201 187q170 0 170 -125q0 -189 -201 -189q-88 0 -129 31t-41 96zM631 1384q0 187 201 187 q168 0 168 -125q0 -97 -49.5 -143t-149.5 -46q-88 0 -129 31t-41 96z" horiz-adv-x="817" unicode="ϊ"/><glyph d="M96 371q0 37 15 139l133 623h385l-135 -641q-11 -49 -11 -97q0 -57 23.5 -80.5t68.5 -23.5q126 0 186 198t60 603v41h385q6 -78 6 -144q0 -526 -163.5 -767.5t-513.5 -241.5q-216 0 -327.5 99.5t-111.5 291.5zM336 1384q0 187 201 187q170 0 170 -125q0 -189 -201 -189 q-88 0 -129 31t-41 96zM823 1384q0 187 201 187q168 0 168 -125q0 -97 -49.5 -143t-149.5 -46q-88 0 -129 31t-41 96z" horiz-adv-x="1278" unicode="ϋ"/><glyph d="M84 416q0 210 79.5 379.5t223.5 263.5t336 94q209 0 322.5 -113t113.5 -323t-79.5 -379.5t-223.5 -263.5t-336 -94q-209 0 -322.5 113t-113.5 323zM479 403q0 -133 84 -133q81 0 141 139t60 320q0 66 -23 99.5t-63 33.5q-82 0 -140.5 -139.5t-58.5 -319.5zM575 1241v25 q26 53 68 161.5t70 202.5h348v-24q-29 -45 -57 -89t-58 -88.5t-64.5 -90.5t-74.5 -97h-232z" unicode="ό"/><glyph d="M96 371q0 37 15 139l133 623h385l-135 -641q-11 -49 -11 -97q0 -57 23.5 -80.5t68.5 -23.5q126 0 186 198t60 603v41h385q6 -78 6 -144q0 -526 -163.5 -767.5t-513.5 -241.5q-216 0 -327.5 99.5t-111.5 291.5zM606 1241v25q26 53 68 161.5t70 202.5h348v-24 q-29 -45 -57 -89t-58 -88.5t-64.5 -90.5t-74.5 -97h-232z" horiz-adv-x="1278" unicode="ύ"/><glyph d="M66 403q0 326 245 730h398q-118 -168 -188 -363.5t-70 -349.5q0 -79 21.5 -109t66.5 -30q48 0 78.5 49.5t60.5 185.5l61 289h377l-63 -289q-23 -103 -23 -156q0 -46 16.5 -62.5t55.5 -16.5q96 0 153.5 168t57.5 417q0 147 -31 267h397q19 -142 19 -256q0 -441 -149 -669 t-433 -228q-137 0 -210 50.5t-95 147.5q-66 -106 -155.5 -152t-221.5 -46q-177 0 -272.5 107.5t-95.5 315.5zM852 1241v25q26 53 68 161.5t70 202.5h348v-24q-29 -45 -57 -89t-58 -88.5t-64.5 -90.5t-74.5 -97h-232z" horiz-adv-x="1763" unicode="ώ"/><glyph d="M8 670q224 116 385 116q94 0 152.5 -54.5t58.5 -147.5q0 -43 -14 -122q-15 -79 -15 -108q0 -34 24 -59t81 -25t110 49t97.5 145t70.5 234q-159 15 -277.5 76t-182.5 159t-64 212q0 202 135 316t365 114q223 0 343 -133t120 -391l-2 -56h151l-63 -290h-133 q-56 -275 -144.5 -426t-228 -225t-342.5 -74q-133 0 -228.5 36.5t-145.5 103t-50 152.5q0 42 9 80.5t9 81.5q0 41 -41 41q-15 0 -38.5 -9t-40.5 -20zM815 1157q0 -68 51 -111.5t138 -50.5q6 60 6 107q0 93 -26 137.5t-71 44.5q-98 0 -98 -127z" horiz-adv-x="1542" unicode="ϑ"/><glyph d="M164 1462h403l88 -532q105 198 198.5 323t172 173.5t180.5 48.5q60 0 102.5 -7.5t100.5 -27.5l-70 -297q-6 5 -28 12.5t-51 7.5q-62 0 -113 -59q-170 -208 -354 -537l-121 -567h-391l120 567z" horiz-adv-x="1278" unicode="ϒ"/><glyph d="M78 842l39 209l196 82h1770l-58 -291h-217q-3 -435 -151.5 -648.5t-429.5 -213.5q-138 0 -213 46t-92 152q-66 -106 -155.5 -152t-221.5 -46q-178 0 -273.5 107.5t-95.5 315.5q0 207 109 439h-207zM561 420q0 -79 21.5 -109t66.5 -30q36 0 61 25.5t44 80t57 238.5h377 l-25 -109q-22 -110 -22 -156t17 -62.5t54 -16.5q95 0 151.5 154.5t59.5 406.5h-751q-111 -228 -111 -422z" horiz-adv-x="2079" unicode="ϖ"/><glyph d="M33 0l309 1462h868l-65 -317h-477l-47 -230h444l-72 -317h-444l-57 -276h477l-68 -322h-868zM443 1886v21h396q29 -157 94 -303v-25h-236q-82 75 -152 159t-102 148z" horiz-adv-x="1151" unicode="Ѐ"/><glyph d="M33 0l309 1462h868l-65 -317h-477l-47 -230h444l-72 -317h-444l-57 -276h477l-68 -322h-868zM361 1722q0 187 201 187q170 0 170 -125q0 -189 -201 -189q-88 0 -129 31t-41 96zM848 1722q0 187 201 187q168 0 168 -125q0 -97 -49.5 -143t-149.5 -46q-88 0 -129 31t-41 96 z" horiz-adv-x="1151" unicode="Ё"/><glyph d="M156 1139l69 323h1028l-71 -323h-318l-39 -181h252q180 0 283.5 -84t103.5 -225q0 -178 -45.5 -350.5t-135 -245.5t-267.5 -73q-61 0 -128 14t-106 37v293q66 -33 144 -33q62 0 90 28.5t39 90.5l10 53q10 44 10 80q0 50 -26 71t-74 21h-217l-131 -635h-391l237 1139h-317 z" horiz-adv-x="1595" unicode="Ђ"/><glyph d="M33 0l309 1462h862l-67 -319h-471l-242 -1143h-391zM578 1579v23q123 102 282 305h439v-15q-45 -54 -191.5 -157t-245.5 -156h-284z" horiz-adv-x="1079" unicode="Ѓ"/><glyph d="M104 549q0 266 101.5 488t276 335t399.5 113q146 0 263 -29.5t220 -91.5l-150 -315q-93 55 -171 82.5t-162 27.5q-100 0 -182.5 -67t-135.5 -195h473l-67 -311h-469v-33q0 -119 50.5 -184.5t143.5 -65.5q83 0 161.5 18t229.5 72v-323q-203 -90 -440 -90 q-260 0 -400.5 148.5t-140.5 420.5z" horiz-adv-x="1290" unicode="Є"/><glyph d="M43 76v350q84 -53 192.5 -89t196.5 -36q74 0 112 31t38 88q0 27 -12 50.5t-34 47t-118 103.5q-117 94 -170 192t-53 215q0 131 65.5 235.5t185 162t267.5 57.5q239 0 430 -107l-135 -297q-171 88 -291 88q-64 0 -98.5 -28t-34.5 -82q0 -49 33.5 -91.5t127.5 -113.5 q118 -87 175 -183t57 -220q0 -222 -147 -345.5t-410 -123.5q-110 0 -208 24.5t-169 71.5z" horiz-adv-x="1122" unicode="Ѕ"/><glyph d="M31 0l309 1462h397l-309 -1462h-397z" horiz-adv-x="727" unicode="І"/><glyph d="M31 0l309 1462h397l-309 -1462h-397zM159 1722q0 187 201 187q170 0 170 -125q0 -189 -201 -189q-88 0 -129 31t-41 96zM646 1722q0 187 201 187q168 0 168 -125q0 -97 -49.5 -143t-149.5 -46q-88 0 -129 31t-41 96z" horiz-adv-x="727" unicode="Ї"/><glyph d="M-328 -113q99 -24 174 -24q107 0 162 59t84 195l289 1345h391l-299 -1394q-43 -200 -113 -312.5t-182.5 -164.5t-292.5 -52q-106 0 -213 29v319z" horiz-adv-x="764" unicode="Ј"/><glyph d="M-92 6v305q45 -15 64 -17.5t38 -2.5q53 0 84 22t63 71.5t66 135.5q102 257 279 942h954l-113 -542h29q236 0 367 -111.5t131 -304.5q0 -236 -155.5 -370t-440.5 -134h-516l243 1151h-194q-162 -596 -215 -721q-72 -178 -141.5 -272t-159 -136t-228.5 -42q-81 0 -155 26z M1217 305h77q88 0 135.5 47.5t47.5 130.5q0 59 -36.5 95t-94.5 36h-68z" horiz-adv-x="1972" unicode="Љ"/><glyph d="M33 0l309 1462h391l-112 -542h331l115 542h389l-113 -542h29q236 0 367 -111.5t131 -304.5q0 -236 -155.5 -370t-440.5 -134h-516l125 596h-332l-127 -596h-391zM1217 305h77q88 0 135.5 47.5t47.5 130.5q0 59 -36.5 95t-94.5 36h-68z" horiz-adv-x="1972" unicode="Њ"/><glyph d="M156 1139l69 323h1028l-71 -323h-318l-39 -181h211q186 0 286.5 -93t100.5 -267q0 -65 -24 -195l-78 -403h-391l94 463q10 44 10 80q0 50 -26 71t-74 21h-176l-131 -635h-391l237 1139h-317z" horiz-adv-x="1571" unicode="Ћ"/><glyph d="M33 0l309 1462h391l-145 -684l459 684h436l-520 -725l223 -737h-430l-181 719l-151 -719h-391zM691 1579v23q123 102 282 305h439v-15q-45 -54 -191.5 -157t-245.5 -156h-284z" horiz-adv-x="1321" unicode="Ќ"/><glyph d="M33 0l309 1462h356l-131 -612q-26 -129 -90 -356h8l664 968h489l-309 -1462h-356l127 606q32 164 92 383h-8l-662 -989h-489zM665 1886v21h396q29 -157 94 -303v-25h-236q-82 75 -152 159t-102 148z" horiz-adv-x="1628" unicode="Ѝ"/><glyph d="M68 8v307q99 -24 172 -24q83 0 124.5 24t81.5 105l-280 1042h399l109 -536q10 -48 24 -170h9q22 61 67 164l254 542h432l-637 -1132q-110 -196 -231 -273t-311 -77q-101 0 -213 28zM375 1919l4 41h319l-4 -51q0 -72 43.5 -103.5t112.5 -31.5q83 0 131.5 45t66.5 141h332 q-36 -190 -179 -285.5t-386 -95.5q-440 0 -440 340z" horiz-adv-x="1280" unicode="Ў"/><glyph d="M33 0l309 1462h391l-237 -1138h346l239 1138h392l-310 -1462h-377l-96 -457h-381l101 457h-377z" horiz-adv-x="1462" unicode="Џ"/><glyph d="M-121 0l744 1462h503l123 -1462h-381l-10 274h-448l-125 -274h-406zM553 586h293l-17 424l-2 86q0 75 4 131q-24 -86 -61 -166z" horiz-adv-x="1384" unicode="А"/><glyph d="M33 0l307 1462h864l-67 -319h-473l-46 -223h29q236 0 367 -111.5t131 -304.5q0 -236 -155.5 -370t-440.5 -134h-516zM492 305h77q88 0 135.5 47.5t47.5 130.5q0 59 -36.5 95t-94.5 36h-68z" horiz-adv-x="1247" unicode="Б"/><glyph d="M33 0l309 1462h487q217 0 329 -82.5t112 -236.5q0 -288 -297 -377v-8q88 -29 140 -101.5t52 -177.5q0 -229 -152.5 -354t-432.5 -125h-547zM489 305h82q86 0 143.5 48.5t57.5 121.5q0 69 -33 103t-116 34h-68zM614 901h72q88 0 133 38t45 122q0 102 -127 102h-63z" horiz-adv-x="1298" unicode="В"/><glyph d="M33 0l309 1462h862l-67 -319h-471l-242 -1143h-391z" horiz-adv-x="1079" unicode="Г"/><glyph d="M-215 -457l162 781h178q151 233 286.5 537t219.5 601h899l-242 -1138h246l-166 -781h-381l98 457h-821l-98 -457h-381zM555 324h342l176 815h-170q-135 -434 -348 -815z" horiz-adv-x="1626" unicode="Д"/><glyph d="M33 0l309 1462h868l-65 -317h-477l-47 -230h444l-72 -317h-444l-57 -276h477l-68 -322h-868z" horiz-adv-x="1151" unicode="Е"/><glyph d="M-131 0l528 760l-200 702h409l178 -684l144 684h385l-146 -684l459 684h436l-520 -725l223 -737h-430l-180 719l-151 -719h-386l154 719l-457 -719h-446z" horiz-adv-x="1911" unicode="Ж"/><glyph d="M25 59v326q75 -42 185 -68t226 -26q156 0 219.5 43.5t63.5 134.5q0 72 -60 105.5t-190 33.5h-121l68 312h131q141 0 208.5 34t67.5 107q0 46 -36.5 78t-118.5 32q-155 0 -332 -124l-141 276q140 86 277.5 123t293.5 37q210 0 337.5 -95.5t127.5 -254.5 q0 -154 -101.5 -250.5t-275.5 -110.5v-8q124 -28 192 -110t68 -205q0 -231 -160 -350t-467 -119q-154 0 -276.5 21t-185.5 58z" horiz-adv-x="1260" unicode="З"/><glyph d="M33 0l309 1462h356l-131 -612q-26 -129 -90 -356h8l664 968h489l-309 -1462h-356l127 606q32 164 92 383h-8l-662 -989h-489z" horiz-adv-x="1628" unicode="И"/><glyph d="M33 0l309 1462h356l-131 -612q-26 -129 -90 -356h8l664 968h489l-309 -1462h-356l127 606q32 164 92 383h-8l-662 -989h-489zM533 1919l4 41h319l-4 -51q0 -72 43.5 -103.5t112.5 -31.5q83 0 131.5 45t66.5 141h332q-36 -190 -179 -285.5t-386 -95.5q-440 0 -440 340z" horiz-adv-x="1628" unicode="Й"/><glyph d="M33 0l309 1462h391l-145 -684l459 684h436l-520 -725l223 -737h-430l-181 719l-151 -719h-391z" horiz-adv-x="1321" unicode="К"/><glyph d="M-92 6v305q45 -15 64 -17.5t38 -2.5q53 0 84 22t63 71.5t66 135.5q102 257 279 942h960l-305 -1462h-391l240 1151h-199q-162 -596 -215 -721q-72 -178 -141.5 -272t-159 -136t-228.5 -42q-81 0 -155 26z" horiz-adv-x="1452" unicode="Л"/><glyph d="M33 0l309 1462h518v-1038h8l478 1038h526l-313 -1462h-351l117 549q50 228 108 436l15 64h-8l-482 -1049h-370v1049h-8q-67 -417 -86 -512l-113 -537h-348z" horiz-adv-x="1862" unicode="М"/><glyph d="M33 0l309 1462h391l-112 -542h348l112 542h392l-310 -1462h-391l125 596h-346l-127 -596h-391z" horiz-adv-x="1462" unicode="Н"/><glyph d="M104 543q0 265 103 487t280.5 338.5t409.5 116.5q260 0 404.5 -148.5t144.5 -414.5t-99.5 -486.5t-274.5 -338t-406 -117.5q-269 0 -415.5 149t-146.5 414zM500 545q0 -242 200 -242q95 0 176.5 83t128 224t46.5 308q0 114 -48 178.5t-139 64.5q-99 0 -182 -84 t-132.5 -231t-49.5 -301z" horiz-adv-x="1509" unicode="О"/><glyph d="M33 0l309 1462h1131l-310 -1462h-391l238 1139h-346l-240 -1139h-391z" horiz-adv-x="1462" unicode="П"/><glyph d="M33 0l309 1462h373q259 0 397.5 -113.5t138.5 -324.5q0 -252 -171.5 -395.5t-469.5 -143.5h-86l-100 -485h-391zM594 805h63q91 0 147 58.5t56 148.5q0 59 -36 95t-99 36h-59z" horiz-adv-x="1276" unicode="Р"/><glyph d="M104 549q0 266 101.5 488t276 335t399.5 113q265 0 481 -131l-148 -305q-93 55 -171 82.5t-162 27.5q-108 0 -195 -78t-136.5 -215t-49.5 -297q0 -134 56 -200t161 -66q83 0 168 20.5t200 69.5v-323q-203 -90 -440 -90q-260 0 -400.5 148.5t-140.5 420.5z" horiz-adv-x="1290" unicode="С"/><glyph d="M156 1139l69 323h1028l-71 -323h-318l-237 -1139h-391l237 1139h-317z" horiz-adv-x="1130" unicode="Т"/><glyph d="M68 8v307q99 -24 172 -24q83 0 124.5 24t81.5 105l-280 1042h399l109 -536q10 -48 24 -170h9q22 61 67 164l254 542h432l-637 -1132q-110 -196 -231 -273t-311 -77q-101 0 -213 28z" horiz-adv-x="1280" unicode="У"/><glyph d="M92 678q0 286 187.5 448t537.5 177l37 180h369l-37 -180q230 -23 361.5 -149t131.5 -325q0 -296 -185 -453.5t-542 -170.5l-49 -225h-368l49 225q-231 23 -361.5 148t-130.5 325zM477 698q0 -100 43.5 -145t128.5 -51l105 502q-133 -6 -205 -84.5t-72 -221.5zM1018 504 q133 2 204.5 80.5t71.5 222.5q0 175 -172 197z" horiz-adv-x="1733" unicode="Ф"/><glyph d="M-125 0l563 776l-223 686h416l123 -469l309 469h448l-538 -725l262 -737h-432l-146 498l-338 -498h-444z" horiz-adv-x="1358" unicode="Х"/><glyph d="M33 0l309 1462h391l-241 -1138h348l241 1138h392l-246 -1157h246l-164 -762h-381l100 457h-995z" horiz-adv-x="1565" unicode="Ц"/><glyph d="M147 799q0 49 13 123l104 540h393l-98 -489q-10 -46 -10 -78q0 -59 37.5 -90t97.5 -31q54 0 115.5 19t115.5 51l129 618h392l-306 -1462h-391l115 535q-152 -84 -346 -84q-173 0 -267 90.5t-94 257.5z" horiz-adv-x="1425" unicode="Ч"/><glyph d="M33 0l303 1462h391l-235 -1138h282l236 1138h385l-236 -1138h283l235 1138h391l-303 -1462h-1732z" horiz-adv-x="2058" unicode="Ш"/><glyph d="M33 0l303 1462h391l-235 -1138h282l236 1138h385l-236 -1138h283l235 1138h391l-239 -1157h246l-164 -762h-381l100 457h-1597z" horiz-adv-x="2167" unicode="Щ"/><glyph d="M156 1139l69 323h705l-113 -542h29q236 0 366.5 -111t130.5 -305q0 -238 -156 -371t-439 -133h-517l242 1139h-317zM690 305h78q88 0 135 47.5t47 130.5q0 59 -36.5 95t-94.5 36h-67z" horiz-adv-x="1446" unicode="Ъ"/><glyph d="M33 0l307 1462h391l-113 -542h29q236 0 367 -111.5t131 -304.5q0 -236 -155.5 -370t-440.5 -134h-516zM492 305h77q88 0 135.5 47.5t47.5 130.5q0 59 -36.5 95t-94.5 36h-68zM1241 0l309 1462h392l-310 -1462h-391z" horiz-adv-x="1931" unicode="Ы"/><glyph d="M33 0l309 1462h389l-113 -542h29q236 0 367 -111.5t131 -304.5q0 -236 -155.5 -370t-440.5 -134h-516zM492 305h77q88 0 135.5 47.5t47.5 130.5q0 59 -36.5 95t-94.5 36h-68z" horiz-adv-x="1247" unicode="Ь"/><glyph d="M31 66v327q76 -42 175 -66t185 -24q138 0 238 74t151 209h-485l67 311h476v16q0 132 -52 189t-170 57q-153 0 -307 -88l-104 313q90 44 223 72.5t258 28.5q262 0 401.5 -147t139.5 -420q0 -184 -62.5 -366t-166.5 -308.5t-250.5 -195t-323.5 -68.5q-245 0 -393 86z" horiz-adv-x="1290" unicode="Э"/><glyph d="M33 0l309 1462h391l-112 -542h239q90 270 282 417.5t451 147.5q262 0 405.5 -149t143.5 -414q0 -266 -99.5 -486.5t-275 -338t-405.5 -117.5q-268 0 -414.5 148t-146.5 415v53h-250l-127 -596h-391zM1196 545q0 -242 201 -242q94 0 175.5 83t128 224.5t46.5 307.5 q0 114 -47.5 178.5t-138.5 64.5q-100 0 -183.5 -84t-132.5 -232t-49 -300z" horiz-adv-x="2206" unicode="Ю"/><glyph d="M-139 0l504 655q-73 61 -105.5 136.5t-32.5 177.5q0 226 154.5 359.5t427.5 133.5h532l-311 -1462h-391l115 532h-70l-356 -532h-467zM618 975q0 -77 38.5 -111.5t97.5 -34.5h61l72 334h-92q-77 0 -127 -52.5t-50 -135.5z" horiz-adv-x="1331" unicode="Я"/><glyph d="M84 412q0 179 73 365t184.5 281t246.5 95q84 0 148 -37.5t114 -122.5h8l53 140h310l-240 -1133h-309l10 123h-8q-56 -78 -121 -110.5t-147 -32.5q-158 0 -240 111.5t-82 320.5zM479 434q0 -143 86 -143q50 0 95.5 58.5t72.5 156.5t27 192q0 65 -20 104.5t-62 39.5 q-76 0 -137.5 -126.5t-61.5 -281.5z" unicode="а"/><glyph d="M86 498q0 215 87.5 462t255 385.5t415.5 176.5q152 23 418 47l38 -328l-102 -10q-297 -30 -405.5 -62.5t-168.5 -95t-87 -170.5h8q51 71 125 112.5t164 41.5q153 0 232 -103.5t79 -294.5q0 -188 -80.5 -348.5t-218.5 -245.5t-316 -85q-212 0 -328 134t-116 384zM477 477 q0 -186 80 -186q47 0 93 52t75 140t29 181q0 52 -15.5 81t-58.5 29q-34 0 -83 -37t-97 -100q-7 -25 -15 -72.5t-8 -87.5z" horiz-adv-x="1231" unicode="б"/><glyph d="M84 432q0 208 83.5 376t230.5 256.5t335 88.5q198 0 315 -85.5t117 -229.5q0 -99 -58.5 -165.5t-191.5 -101.5v-8q88 -18 137.5 -79t49.5 -144q0 -172 -131.5 -266t-403.5 -94q-227 0 -355 118.5t-128 333.5zM469 408q0 -166 123 -166q51 0 84 26.5t33 83.5 q0 123 -123 123h-113q-4 -36 -4 -67zM528 725h115q137 0 137 94q0 34 -19.5 53t-51.5 19q-57 0 -101.5 -37t-79.5 -129z" horiz-adv-x="1239" unicode="в"/><glyph d="M25 324q0 144 96.5 236.5t310.5 154.5q66 18 103 35t52 34t15 50q0 55 -88 55q-110 0 -254 -78l-92 248q81 45 190.5 69.5t216.5 24.5q196 0 306 -83.5t110 -233.5q0 -118 -40.5 -193.5t-134 -132.5t-277.5 -115q-84 -26 -101.5 -41t-17.5 -41q0 -23 21.5 -36t80.5 -13 q58 0 151 25t183 67v-284q-92 -47 -193.5 -69.5t-230.5 -22.5q-197 0 -302 89.5t-105 254.5z" horiz-adv-x="1036" unicode="г"/><glyph d="M84 422q0 182 58.5 326t164 223.5t238.5 79.5q86 0 160 -49t116 -134h8l2 36v30q0 180 -57 256t-196 76q-89 0 -197 -43l-76 295q105 33 187.5 46t179.5 13q270 0 410.5 -164.5t140.5 -488.5q0 -298 -82.5 -514.5t-231.5 -323t-360 -106.5q-224 0 -344.5 115.5 t-120.5 326.5zM473 420q0 -59 31 -94t84 -35q72 0 125 93t82 271q-50 105 -140 105q-77 0 -129.5 -95.5t-52.5 -244.5z" horiz-adv-x="1288" unicode="д"/><glyph d="M84 428q0 211 83.5 380.5t229 257t336.5 87.5q190 0 299 -86t109 -229q0 -201 -156.5 -308.5t-452.5 -107.5h-59v-16q0 -148 164 -148q79 0 155 23.5t173 74.5v-274q-112 -57 -209 -79.5t-224 -22.5q-212 0 -330 118.5t-118 329.5zM512 664h29q109 0 171 41.5t62 109.5 q0 32 -20 54t-64 22q-61 0 -114 -69.5t-64 -157.5z" horiz-adv-x="1186" unicode="е"/><glyph d="M-25 -6l70 301q51 -8 76 -8q102 0 168.5 116t66.5 291q0 148 -98 148q-50 0 -125 -31v307q75 35 191 35q201 0 305.5 -115.5t107.5 -335.5h168l94 431h373l-94 -431h149q57 209 207 330t357 121q77 0 163 -14l-69 -301q-51 8 -76 8q-103 0 -169 -117.5t-66 -290.5 q0 -147 98 -147q50 0 125 31v-308q-76 -34 -191 -34q-205 0 -309 117.5t-104 342.5h-172l-95 -440h-372l94 440h-143q-58 -214 -207.5 -337t-358.5 -123q-75 0 -164 14z" horiz-adv-x="2130" unicode="ж"/><glyph d="M33 66v294q197 -90 399 -90q227 0 227 95q0 55 -52.5 77.5t-155.5 22.5h-140l54 246h153q116 0 165.5 21t49.5 63q0 41 -28 58t-95 17q-73 0 -170.5 -22t-179.5 -60l-84 279q251 86 490 86q224 0 338 -73.5t114 -215.5q0 -102 -60.5 -168t-191.5 -106v-8 q94 -25 140.5 -84t46.5 -140q0 -182 -155 -280t-439 -98q-141 0 -249.5 24t-176.5 62z" horiz-adv-x="1192" unicode="з"/><glyph d="M96 301q0 106 25 229l127 603h387l-129 -617q-19 -82 -19 -141q0 -44 22.5 -65t53.5 -21q59 0 107.5 78.5t77.5 214.5l116 551h387l-239 -1133h-310l13 158h-8q-54 -93 -128.5 -135.5t-183.5 -42.5q-141 0 -220 85.5t-79 235.5z" horiz-adv-x="1274" unicode="и"/><glyph d="M96 301q0 106 25 229l127 603h387l-129 -617q-19 -82 -19 -141q0 -44 22.5 -65t53.5 -21q59 0 107.5 78.5t77.5 214.5l116 551h387l-239 -1133h-310l13 158h-8q-54 -93 -128.5 -135.5t-183.5 -42.5q-141 0 -220 85.5t-79 235.5zM306 1581l4 41h319l-4 -51 q0 -72 43.5 -103.5t112.5 -31.5q83 0 131.5 45t66.5 141h332q-36 -190 -179 -285.5t-386 -95.5q-440 0 -440 340z" horiz-adv-x="1274" unicode="й"/><glyph d="M23 0l235 1133h387l-108 -521l391 521h440l-444 -570l227 -563h-424l-205 543l-112 -543h-387z" horiz-adv-x="1278" unicode="к"/><glyph d="M-37 10v301q37 -20 80 -20q46 0 77.5 51.5t94.5 253.5q61 193 117 290t128 154t170 85t232 28q130 0 255.5 -22t211.5 -58l-221 -1073h-387l178 856q-27 6 -55 6q-73 0 -116 -37.5t-82.5 -124t-88.5 -254.5q-60 -206 -113 -297t-126 -130t-193 -39q-86 0 -162 30z" horiz-adv-x="1366" unicode="л"/><glyph d="M33 0l239 1133h512l47 -740h9l364 740h541l-242 -1133h-364l71 332q28 130 62 264q23 94 28 123h-8l-346 -719h-362l-47 719h-9q-34 -278 -61 -395l-72 -324h-362z" horiz-adv-x="1767" unicode="м"/><glyph d="M23 0l241 1133h387l-86 -410h221l88 410h388l-240 -1133h-387l92 440h-223l-94 -440h-387z" horiz-adv-x="1284" unicode="н"/><glyph d="M84 416q0 210 79.5 379.5t223.5 263.5t336 94q209 0 322.5 -113t113.5 -323t-79.5 -379.5t-223.5 -263.5t-336 -94q-209 0 -322.5 113t-113.5 323zM479 403q0 -133 84 -133q81 0 141 139t60 320q0 66 -23 99.5t-63 33.5q-82 0 -140.5 -139.5t-58.5 -319.5z" unicode="о"/><glyph d="M23 0l239 1133h309l-12 -158h8q55 95 129.5 136.5t182.5 41.5q141 0 220 -85.5t79 -236.5q0 -106 -25 -229l-127 -602h-387l129 618q18 78 18 142q0 43 -22 64.5t-53 21.5q-57 0 -105.5 -71t-79.5 -222l-116 -553h-387z" horiz-adv-x="1274" unicode="п"/><glyph d="M-82 -492l344 1625h309l-12 -127h8q96 147 258 147q156 0 245 -111.5t89 -306.5q0 -203 -70 -382.5t-185.5 -276t-252.5 -96.5q-143 0 -231 145h-8q-12 -166 -56 -371l-51 -246h-387zM485 434q0 -65 23 -104t65 -39q48 0 92 57t71.5 153t27.5 197q0 144 -86 144 q-50 0 -95 -57t-71.5 -154t-26.5 -197z" unicode="р"/><glyph d="M84 442q0 201 76.5 364.5t215 255t314.5 91.5q195 0 367 -80l-123 -287q-133 60 -225 60q-62 0 -115 -48t-87 -143.5t-34 -187.5q0 -91 30 -133.5t95 -42.5q72 0 139.5 23t143.5 63v-307q-80 -44 -168.5 -67t-206.5 -23q-199 0 -310.5 120.5t-111.5 341.5z" horiz-adv-x="1032" unicode="с"/><glyph d="M23 0l239 1133h309l-16 -187h8q61 114 137 160.5t191 46.5q117 0 180.5 -53.5t89.5 -153.5h8q65 106 149 156.5t195 50.5q141 0 214 -84.5t73 -249.5q0 -97 -22 -205l-125 -614h-387l129 631q14 56 14 133q0 40 -19 61t-51 21q-74 0 -119.5 -76t-76.5 -227l-111 -543 h-387l131 631q15 90 15 121q0 94 -72 94q-68 0 -113.5 -74.5t-77.5 -220.5l-118 -551h-387z" horiz-adv-x="1896" unicode="т"/><glyph d="M-129 -168q46 -12 109 -12q87 0 142.5 36.5t98.5 114.5l23 41l-162 1121h389l43 -562l2 -62v-87h8q37 132 50 165.5t239 545.5h416l-670 -1276q-96 -185 -223 -267t-311 -82q-92 0 -154 17v307z" horiz-adv-x="1114" unicode="у"/><glyph d="M84 485q0 603 719 666l84 405h373l-84 -405q232 -35 351.5 -164.5t119.5 -337.5q0 -601 -719 -665l-99 -476h-372l98 476q-232 35 -351.5 164.5t-119.5 336.5zM473 500q0 -90 39 -150.5t106 -75.5l121 586q-119 -13 -192.5 -113t-73.5 -247zM991 274q115 13 190.5 116 t75.5 245q0 87 -38 148.5t-107 76.5z" horiz-adv-x="1731" unicode="ф"/><glyph d="M-119 0l473 578l-207 555h422l76 -314l186 314h459l-465 -576l228 -557h-428l-80 328l-211 -328h-453z" horiz-adv-x="1159" unicode="х"/><glyph d="M96 301q0 106 25 229l127 603h387l-129 -617q-19 -82 -19 -141q0 -44 22.5 -65t53.5 -21q59 0 107.5 78.5t77.5 214.5l116 551h387l-145 -687q-14 -67 -14 -96q0 -61 71 -61q30 0 74 12l-147 -717h-369l119 447q-89 40 -105 159h-8q-62 -106 -142.5 -158t-189.5 -52 q-141 0 -220 85.5t-79 235.5z" horiz-adv-x="1325" unicode="ц"/><glyph d="M139 608q0 135 25 258l55 267h387l-57 -281q-19 -82 -19 -141q0 -44 22.5 -65t53.5 -21q121 0 185 293l45 215h387l-240 -1133h-387l86 412h-10q-111 -97 -273 -97q-77 0 -136.5 39t-91.5 107t-32 147z" horiz-adv-x="1245" unicode="ч"/><glyph d="M96 313q0 95 23 205l125 615h387l-129 -631q-15 -60 -15 -133q0 -41 19 -61.5t51 -20.5q74 0 120 75.5t77 227.5l110 543h387l-131 -631q-14 -84 -14 -121q0 -94 72 -94q67 0 112 71.5t78 223.5l119 551h387l-240 -1133h-309l16 186h-8q-59 -109 -133.5 -157.5 t-193.5 -48.5q-117 0 -181 53t-90 153h-8q-65 -106 -149 -156t-195 -50q-140 0 -213.5 84t-73.5 249z" horiz-adv-x="1896" unicode="ш"/><glyph d="M96 313q0 95 23 205l125 615h387l-129 -631q-15 -60 -15 -133q0 -41 19 -61.5t51 -20.5q74 0 120 75.5t77 227.5l110 543h387l-131 -631q-14 -84 -14 -121q0 -94 72 -94q67 0 112 71.5t78 223.5l119 551h387l-145 -687q-15 -72 -15 -96q0 -61 72 -61q30 0 74 12 l-148 -717h-369l119 447q-46 21 -79.5 62.5t-41.5 92.5h-8q-59 -109 -133.5 -157.5t-193.5 -48.5q-117 0 -181 53t-90 153h-8q-65 -106 -149 -156t-195 -50q-140 0 -213.5 84t-73.5 249z" horiz-adv-x="1948" unicode="щ"/><glyph d="M78 850l61 283h703l-97 -433q73 21 166 21q119 0 208.5 -40t138.5 -112.5t49 -165.5q0 -207 -141 -315t-427 -108q-213 0 -330.5 82t-117.5 237q0 84 26 201l76 350h-315zM668 315q0 -35 32.5 -54t87.5 -19q56 0 91.5 28t35.5 82q0 50 -29 78.5t-75 28.5q-72 0 -121 -17 q-22 -93 -22 -127z" horiz-adv-x="1405" unicode="ъ"/><glyph d="M84 299q0 89 27 201l137 633h387l-96 -433q67 21 155 21q170 0 271.5 -88t101.5 -230q0 -207 -136 -315t-413 -108q-206 0 -320 81t-114 238zM461 315q0 -35 27.5 -54t76.5 -19q48 0 79.5 28t31.5 82q0 48 -24.5 77.5t-65.5 29.5q-60 0 -103 -17q-22 -93 -22 -127z M1171 0l240 1133h389l-241 -1133h-388z" horiz-adv-x="1823" unicode="ы"/><glyph d="M84 299q0 89 27 201l137 633h387l-96 -433q71 21 166 21q180 0 287.5 -88t107.5 -230q0 -207 -141 -315t-427 -108q-213 0 -330.5 82t-117.5 237zM461 315q0 -35 32.5 -54t88.5 -19q55 0 91 28t36 82q0 48 -28 77.5t-77 29.5q-72 0 -121 -17q-22 -93 -22 -127z" horiz-adv-x="1198" unicode="ь"/><glyph d="M45 37v297q89 -64 231 -64q77 0 138 42.5t98 127.5h-291l51 246h285q-4 184 -125 184q-51 0 -93.5 -15.5t-90.5 -43.5l-98 252q173 90 370 90q206 0 317 -118.5t111 -332.5t-77.5 -378t-224.5 -254t-347 -90q-68 0 -136 14.5t-118 42.5z" horiz-adv-x="1032" unicode="э"/><glyph d="M23 0l241 1133h387l-86 -410h154q69 202 224 316t366 114q209 0 322.5 -113t113.5 -323t-79.5 -379.5t-223.5 -263.5t-336 -94q-209 0 -322.5 113t-113.5 323v24h-166l-94 -440h-387zM1065 403q0 -133 84 -133q81 0 141 139t60 320q0 66 -23 99.5t-63 33.5 q-82 0 -140.5 -139.5t-58.5 -319.5z" horiz-adv-x="1829" unicode="ю"/><glyph d="M-6 6v299q31 -14 57 -14q40 0 65 20.5t58 67.5q36 54 79 84t109 41q-74 35 -117.5 94t-43.5 131q0 197 142 300.5t409 103.5h495l-239 -1133h-387l88 403h-21q-58 0 -97 -36.5t-106 -163.5q-50 -94 -93.5 -137.5t-102.5 -64.5t-148 -21q-72 0 -147 26zM592 739 q0 -90 110 -90h58l47 225h-49q-166 0 -166 -135z" horiz-adv-x="1270" unicode="я"/><glyph d="M84 428q0 211 83.5 380.5t229 257t336.5 87.5q190 0 299 -86t109 -229q0 -201 -156.5 -308.5t-452.5 -107.5h-59v-16q0 -148 164 -148q79 0 155 23.5t173 74.5v-274q-112 -57 -209 -79.5t-224 -22.5q-212 0 -330 118.5t-118 329.5zM512 664h29q109 0 171 41.5t62 109.5 q0 32 -20 54t-64 22q-61 0 -114 -69.5t-64 -157.5zM392 1548v21h396q29 -157 94 -303v-25h-236q-82 75 -152 159t-102 148z" horiz-adv-x="1186" unicode="ѐ"/><glyph d="M84 428q0 211 83.5 380.5t229 257t336.5 87.5q190 0 299 -86t109 -229q0 -201 -156.5 -308.5t-452.5 -107.5h-59v-16q0 -148 164 -148q79 0 155 23.5t173 74.5v-274q-112 -57 -209 -79.5t-224 -22.5q-212 0 -330 118.5t-118 329.5zM512 664h29q109 0 171 41.5t62 109.5 q0 32 -20 54t-64 22q-61 0 -114 -69.5t-64 -157.5zM336 1384q0 187 201 187q170 0 170 -125q0 -189 -201 -189q-88 0 -129 31t-41 96zM823 1384q0 187 201 187q168 0 168 -125q0 -97 -49.5 -143t-149.5 -46q-88 0 -129 31t-41 96z" horiz-adv-x="1186" unicode="ё"/><glyph d="M23 0l245 1167h-168l52 242h167l33 147h387l-30 -147h268l-51 -242h-269q-31 -127 -79 -245h8q99 129 272 129q140 0 219.5 -85.5t79.5 -236.5q0 -111 -24 -229l-123 -586q-42 -204 -158 -305t-299 -101q-110 0 -207 27v303q56 -18 111 -18q69 0 114.5 39t61.5 110 l115 547q18 78 18 141q0 44 -22.5 65t-53.5 21q-68 0 -111.5 -75t-72.5 -217l-96 -451h-387z" horiz-adv-x="1274" unicode="ђ"/><glyph d="M25 324q0 144 96.5 236.5t310.5 154.5q66 18 103 35t52 34t15 50q0 55 -88 55q-110 0 -254 -78l-92 248q81 45 190.5 69.5t216.5 24.5q196 0 306 -83.5t110 -233.5q0 -118 -40.5 -193.5t-134 -132.5t-277.5 -115q-84 -26 -101.5 -41t-17.5 -41q0 -23 21.5 -36t80.5 -13 q58 0 151 25t183 67v-284q-92 -47 -193.5 -69.5t-230.5 -22.5q-197 0 -302 89.5t-105 254.5zM405 1241v23q123 102 282 305h439v-15q-45 -54 -191.5 -157t-245.5 -156h-284z" horiz-adv-x="1036" unicode="ѓ"/><glyph d="M84 432q0 206 77 372.5t216 257.5t313 91q111 0 196.5 -20t170.5 -64l-109 -258q-50 23 -104.5 41t-120.5 18q-145 0 -205 -184h293l-51 -246h-287q0 -78 33 -127t92 -49q72 0 139.5 26t143.5 66v-286q-80 -44 -168.5 -67t-206.5 -23q-198 0 -310 118t-112 334z" horiz-adv-x="1032" unicode="є"/><glyph d="M31 43v311q92 -50 171 -70t160 -20q68 0 102 18.5t34 51.5q0 35 -26 60.5t-130 84.5q-106 58 -154.5 133t-48.5 183q0 172 121 265t344 93q112 0 204 -26t179 -80l-121 -252q-66 43 -136.5 68.5t-121.5 25.5q-76 0 -76 -68q0 -29 31.5 -51t102.5 -57q225 -112 225 -320 q0 -199 -130 -306t-374 -107q-222 0 -356 63z" horiz-adv-x="1028" unicode="ѕ"/><glyph d="M23 0l239 1133h389l-241 -1133h-387zM309 1382q0 103 59.5 156t166.5 53q91 0 140.5 -36.5t49.5 -104.5q0 -100 -58 -154.5t-167 -54.5q-191 0 -191 141z" horiz-adv-x="666" unicode="і"/><glyph d="M23 0l239 1133h389l-241 -1133h-387zM91 1384q0 187 201 187q170 0 170 -125q0 -189 -201 -189q-88 0 -129 31t-41 96zM578 1384q0 187 201 187q168 0 168 -125q0 -97 -49.5 -143t-149.5 -46q-88 0 -129 31t-41 96z" horiz-adv-x="666" unicode="ї"/><glyph d="M-264 -162q56 -18 112 -18q142 0 175 147l247 1166h387l-260 -1227q-40 -193 -157 -295.5t-297 -102.5q-110 0 -207 27v303zM317 1382q0 103 59.5 156t166.5 53q91 0 140.5 -36.5t49.5 -104.5q0 -94 -55 -151.5t-170 -57.5q-191 0 -191 141z" horiz-adv-x="666" unicode="ј"/><glyph d="M-37 10v301q37 -20 80 -20q46 0 77.5 51.5t94.5 253.5q61 193 117 290t128 154t170 85t232 28q145 0 262.5 -24t194.5 -56l-82 -373q71 21 166 21q180 0 287.5 -88t107.5 -230q0 -207 -140.5 -315t-426.5 -108q-214 0 -331.5 81.5t-117.5 237.5q0 80 27 201l78 358l-43 4 q-73 0 -116 -37.5t-82.5 -124t-88.5 -254.5q-60 -206 -113 -297t-126 -130t-193 -39q-86 0 -162 30zM1159 315q0 -35 32.5 -54t88.5 -19t91.5 28t35.5 82q0 48 -28 77.5t-76 29.5q-72 0 -121 -17q-23 -87 -23 -127z" horiz-adv-x="1896" unicode="љ"/><glyph d="M23 0l241 1133h387l-86 -410h217l90 410h388l-97 -433q71 21 166 21q180 0 287.5 -88t107.5 -230q0 -207 -140.5 -315t-426.5 -108q-213 0 -330.5 82t-117.5 237q0 75 14 141h-219l-94 -440h-387zM1085 315q0 -35 32.5 -54t88.5 -19t91.5 28t35.5 82q0 48 -28 77.5 t-76 29.5q-72 0 -121 -17q-23 -97 -23 -127z" horiz-adv-x="1823" unicode="њ"/><glyph d="M23 0l245 1167h-168l52 242h167l33 147h387l-30 -147h268l-51 -242h-269q-31 -127 -79 -245h8q99 129 272 129q140 0 219.5 -85.5t79.5 -236.5q0 -111 -24 -229l-107 -500h-387l109 516q18 78 18 141q0 44 -22.5 65t-53.5 21q-68 0 -111.5 -75t-72.5 -217l-96 -451h-387z" horiz-adv-x="1274" unicode="ћ"/><glyph d="M23 0l235 1133h387l-108 -521l391 521h440l-444 -570l227 -563h-424l-205 543l-112 -543h-387zM648 1241v23q123 102 282 305h439v-15q-45 -54 -191.5 -157t-245.5 -156h-284z" horiz-adv-x="1278" unicode="ќ"/><glyph d="M96 301q0 106 25 229l127 603h387l-129 -617q-19 -82 -19 -141q0 -44 22.5 -65t53.5 -21q59 0 107.5 78.5t77.5 214.5l116 551h387l-239 -1133h-310l13 158h-8q-54 -93 -128.5 -135.5t-183.5 -42.5q-141 0 -220 85.5t-79 235.5zM412 1548v21h396q29 -157 94 -303v-25 h-236q-82 75 -152 159t-102 148z" horiz-adv-x="1274" unicode="ѝ"/><glyph d="M-129 -168q46 -12 109 -12q87 0 142.5 36.5t98.5 114.5l23 41l-162 1121h389l43 -562l2 -62v-87h8q37 132 50 165.5t239 545.5h416l-670 -1276q-96 -185 -223 -267t-311 -82q-92 0 -154 17v307zM192 1581l4 41h319l-4 -51q0 -72 43.5 -103.5t112.5 -31.5q83 0 131.5 45 t66.5 141h332q-36 -190 -179 -285.5t-386 -95.5q-440 0 -440 340z" horiz-adv-x="1114" unicode="ў"/><glyph d="M96 301q0 106 25 229l127 603h387l-129 -617q-19 -82 -19 -141q0 -44 22.5 -65t53.5 -21q59 0 107.5 78.5t77.5 214.5l116 551h387l-239 -1133h-310l13 158h-8q-54 -93 -128.5 -135.5t-183.5 -42.5q-141 0 -220 85.5t-79 235.5zM240 -492l100 351l264 84h55l-67 -435 h-352z" horiz-adv-x="1274" unicode="џ"/><glyph d="M104 549q0 270 90 489t251 332t376 113q191 0 328 -109l-176 -287q-70 72 -144 72q-97 0 -171.5 -76.5t-116 -216.5t-41.5 -313q0 -250 147 -250q91 0 142 58.5t77 177.5l58 266h385l-58 -254q-9 -44 -15.5 -74t-6.5 -61q0 -113 117 -113q97 0 178 79.5t126.5 219.5 t45.5 307q0 250 -160 250q-86 0 -180 -67l-133 282q184 109 393 109q230 0 352.5 -147.5t122.5 -422.5q0 -274 -91.5 -489t-254.5 -329.5t-371 -114.5q-302 0 -375 198q-57 -92 -167.5 -145t-258.5 -53q-223 0 -346 152t-123 417z" horiz-adv-x="2154" unicode="Ѡ"/><glyph d="M88 1133h381l39 -562l6 -120l2 -99l236 414l-35 367h358q24 -458 26.5 -572.5t2.5 -208.5q97 113 169.5 318.5t106.5 462.5h398q-56 -358 -207 -629.5t-412 -503.5h-315l-41 346l-187 -346h-383z" horiz-adv-x="1753" unicode="ѡ"/><glyph d="M33 0l239 1133h-139l62 282h137l30 141h390l-31 -141h264l-61 -282h-262l-44 -213h29q236 0 367 -111.5t131 -304.5q0 -236 -155.5 -370t-440.5 -134h-516zM492 305h77q88 0 135.5 47.5t47.5 130.5q0 59 -36.5 95t-94.5 36h-68z" horiz-adv-x="1247" unicode="Ѣ"/><glyph d="M49 850l60 283h239l41 186h387l-43 -186h283l-58 -283h-286l-33 -150q71 21 166 21q180 0 287.5 -88t107.5 -230q0 -207 -140.5 -315t-426.5 -108q-214 0 -331.5 81.5t-117.5 237.5q0 80 27 201l76 350h-238zM561 315q0 -35 32.5 -54t88.5 -19t91.5 28t35.5 82 q0 48 -28 77.5t-76 29.5q-72 0 -121 -17q-23 -87 -23 -127z" horiz-adv-x="1298" unicode="ѣ"/><glyph d="M33 0l309 1462h391l-112 -542h206q87 269 273.5 417t447.5 148q147 0 263.5 -29.5t220.5 -91.5l-150 -315q-114 65 -188 87.5t-146 22.5q-109 0 -189 -62t-128 -177h473l-70 -324h-467v-43q0 -119 50.5 -184.5t144.5 -65.5q83 0 161.5 18t229.5 72v-323 q-202 -90 -440 -90q-261 0 -401 149.5t-140 419.5v47h-221l-127 -596h-391z" horiz-adv-x="1958" unicode="Ѥ"/><glyph d="M23 0l241 1133h387l-86 -410h152q69 205 216 317.5t341 112.5q113 0 199 -21t167 -63l-108 -258q-51 23 -105 41t-120 18q-73 0 -125.5 -39t-75.5 -108h289l-52 -283h-286q0 -78 33 -127t92 -49q72 0 139.5 26t142.5 66v-286q-164 -90 -374 -90q-125 0 -220.5 53.5 t-148.5 155.5t-53 245v6h-164l-94 -440h-387z" horiz-adv-x="1616" unicode="ѥ"/><glyph d="M-147 0l892 1462h515l282 -1462h-377l-90 555h-78l-120 -555h-349l119 555h-76l-317 -555h-401zM733 838h299l-67 409z" horiz-adv-x="1640" unicode="Ѧ"/><glyph d="M-172 0l766 1133h467l338 -1133h-375l-92 373h-62l-75 -373h-344l75 373h-63l-227 -373h-408zM614 627h256l-73 278h-9z" horiz-adv-x="1452" unicode="ѧ"/><glyph d="M33 0l309 1462h391l-123 -583h434l357 583h514l283 -1462h-377l-90 555h-78l-121 -555h-348l119 555h-76l-318 -555h-401l362 596h-319l-127 -596h-391zM1389 838h299l-68 409z" horiz-adv-x="2296" unicode="Ѩ"/><glyph d="M23 0l241 1133h387l-98 -469h358l318 469h467l338 -1133h-375l-92 373h-62l-75 -373h-345l76 373h-63l-228 -373h-407l276 410h-241l-88 -410h-387zM1249 627h256l-73 278h-9z" horiz-adv-x="2087" unicode="ѩ"/><glyph d="M-135 0l332 510q200 305 446 360l-199 424l35 168h1247l-34 -168l-377 -434q167 -61 260 -362l149 -498h-405l-107 426q-39 155 -112 168l-123 -594h-352l123 598q-52 -4 -96 -43.5t-105 -138.5l-256 -416h-426zM838 1180l125 -301h8l239 301h-372z" horiz-adv-x="1825" unicode="Ѫ"/><glyph d="M-168 0l219 350q83 132 174.5 205t218.5 92l-151 340l29 146h1058l-28 -146l-285 -340q162 -42 236 -305l94 -342h-361l-53 268q-13 68 -38.5 116.5t-51.5 55.5l-94 -440h-344l92 449q-46 -12 -81.5 -51.5t-94.5 -139.5l-152 -258h-387zM666 887l86 -223h8l172 223h-266z" horiz-adv-x="1454" unicode="ѫ"/><glyph d="M33 0l309 1462h391l-123 -583h684l-194 415l35 168h1247l-35 -168l-377 -434q167 -61 260 -362l150 -498h-406l-106 426q-41 156 -113 168l-123 -594h-352l123 598q-52 -4 -96 -43.5t-105 -138.5l-256 -416h-426l332 510l59 86h-360l-127 -596h-391zM1493 1180l125 -301 h8l240 301h-373z" horiz-adv-x="2480" unicode="Ѭ"/><glyph d="M23 0l241 1133h387l-98 -469h534l-143 323l29 146h1059l-29 -146l-285 -340q164 -42 236 -305l94 -342h-360l-54 268q-13 68 -38.5 116.5t-51.5 55.5l-94 -440h-344l92 449q-47 -13 -83.5 -55t-92.5 -136l-152 -258h-387l205 330q31 49 74 80h-264l-88 -410h-387z M1317 887l86 -223h8l172 223h-266z" horiz-adv-x="2105" unicode="ѭ"/><glyph d="M-86 -127q0 197 144.5 308.5t422.5 129.5q133 10 206 50t73 108q0 70 -64.5 104.5t-212.5 34.5h-135l68 312h143q156 0 230.5 34t74.5 107q0 46 -40 78t-132 32q-161 0 -356 -124l-133 258q125 78 209 111.5t182 49.5q-38 80 -62 122.5t-88 142.5v22h195 q118 -118 156 -168q119 125 204.5 169t178.5 44q77 0 116 -18v-172q-36 10 -77 10q-63 0 -124.5 -38.5t-127.5 -113.5q144 -34 225.5 -125t81.5 -208q0 -154 -101.5 -250.5t-275.5 -110.5v-8q124 -28 192 -110t68 -205q0 -214 -145.5 -320t-479.5 -129q-123 -8 -177 -35.5 t-54 -81.5q0 -28 25.5 -47.5t85.5 -19.5q66 0 210 14l58 2q35 0 57.5 -4.5t36.5 -12t29 -30.5v-274q-5 17 -33.5 27.5t-67.5 10.5q-57 0 -202 -8l-179 -8q-191 0 -298 90t-107 250z" horiz-adv-x="1300" unicode="Ѯ"/><glyph d="M-80 -139q0 136 54 216t169.5 127t288.5 66q126 14 176.5 35t50.5 60q0 55 -52.5 77.5t-155.5 22.5h-140l54 246h153q116 0 165.5 21t49.5 63q0 41 -28 58t-95 17q-73 0 -170.5 -22t-179.5 -60l-84 279q144 46 262 68q-34 70 -114 190v23h194q118 -118 156 -168 q91 93 146 132t112 60t125 21q74 0 117 -19v-172q-38 10 -78 10q-44 0 -89 -18.5t-102 -71.5q213 -62 213 -258q0 -102 -60.5 -168t-191.5 -106v-8q94 -25 140.5 -84t46.5 -140q0 -178 -145 -269.5t-449 -108.5q-86 -5 -128 -23.5t-42 -62.5q0 -37 28 -53.5t115 -16.5 l250 10q100 0 125 -45v-281q-6 17 -38 30t-79 13q-88 0 -177.5 -5t-180.5 -5q-189 0 -300.5 86t-111.5 234z" horiz-adv-x="1192" unicode="ѯ"/><glyph d="M160 805q0 76 16 151l109 506h379l-107 -510q-16 -75 -16 -112q0 -46 15.5 -72.5t50 -38.5t116.5 -12h12l158 745h369l-156 -745h24q85 0 129.5 21.5t74.5 71.5t48 138l109 514h379l-123 -563q-43 -195 -126.5 -297.5t-227.5 -151t-355 -53.5l-86 -397h-368l84 397 q-242 4 -375 109.5t-133 298.5z" horiz-adv-x="1806" unicode="Ѱ"/><glyph d="M96 344q0 73 19 154l133 635h385l-135 -641q-11 -49 -11 -99q0 -45 42 -72t110 -30l266 1265h373l-266 -1265q165 28 238 193t73 495q0 42 -8 154h385q8 -93 8 -146q0 -375 -79 -581.5t-247 -308.5t-434 -117l-96 -472h-373l96 472q-235 20 -357 114t-122 250z" horiz-adv-x="1774" unicode="ѱ"/><glyph d="M104 543q0 265 103 487t280.5 338.5t409.5 116.5q260 0 404.5 -148.5t144.5 -414.5t-99.5 -486.5t-274.5 -338t-406 -117.5q-269 0 -415.5 149t-146.5 414zM479 545q0 -262 221 -262q100 0 186 84.5t136 234.5h-541l-2 -29v-28zM549 905h522q0 133 -53.5 205t-153.5 72 q-96 0 -177.5 -70.5t-137.5 -206.5z" horiz-adv-x="1509" unicode="Ѳ"/><glyph d="M84 416q0 210 79.5 379.5t223.5 263.5t336 94q209 0 322.5 -113t113.5 -323t-79.5 -379.5t-223.5 -263.5t-336 -94q-209 0 -322.5 113t-113.5 323zM451 403q0 -153 112 -153q55 0 106 53.5t79 140.5h-297v-41zM492 682h301v47q0 77 -30.5 115.5t-84.5 38.5 q-57 0 -108 -55.5t-78 -145.5z" unicode="ѳ"/><glyph d="M150 1462h382l27 -801v-51q0 -144 -16 -256h8q15 66 43 151t57 152l178 392q76 167 142.5 257t141.5 129.5t183 39.5q52 0 106.5 -12t84.5 -29v-314q-43 31 -109 31q-56 0 -97.5 -33.5t-76.5 -101.5l-514 -1016h-436z" horiz-adv-x="1384" unicode="Ѵ"/><glyph d="M88 1133h385l27 -603q0 -73 -8 -118h8q1 14 19 65.5t36 89.5l109 236q92 202 181.5 276t237.5 74q99 0 166 -39v-297q-41 25 -94 25q-45 0 -78 -27.5t-65 -89.5l-391 -725h-388z" horiz-adv-x="1208" unicode="ѵ"/><glyph d="M150 1462h382l27 -801v-51q0 -144 -16 -256h8q15 66 43 151t57 152l178 392q76 167 142.5 257t141.5 129.5t183 39.5q52 0 106.5 -12t84.5 -29v-314q-43 31 -109 31q-56 0 -97.5 -33.5t-76.5 -101.5l-514 -1016h-436zM285 1886v21h346q30 -165 92 -303v-25h-184 q-83 78 -154 163.5t-100 143.5zM688 1886v21h346q33 -168 92 -303v-25h-184q-84 76 -155.5 162.5t-98.5 144.5z" horiz-adv-x="1384" unicode="Ѷ"/><glyph d="M88 1133h385l27 -603q0 -73 -8 -118h8q1 14 19 65.5t36 89.5l109 236q92 202 181.5 276t237.5 74q99 0 166 -39v-297q-41 25 -94 25q-45 0 -78 -27.5t-65 -89.5l-391 -725h-388zM127 1548v21h346q30 -165 92 -303v-25h-184q-83 78 -154 163.5t-100 143.5zM530 1548v21 h346q33 -168 92 -303v-25h-184q-84 76 -155.5 162.5t-98.5 144.5z" horiz-adv-x="1208" unicode="ѷ"/><glyph d="M104 543q0 265 103 487t280.5 338.5t409.5 116.5q260 0 404.5 -148.5t144.5 -414.5t-99.5 -486.5t-274.5 -338t-406 -117.5q-269 0 -415.5 149t-146.5 414zM500 545q0 -242 200 -242q95 0 176.5 83t128 224t46.5 308q0 114 -48 178.5t-139 64.5q-99 0 -182 -84 t-132.5 -231t-49.5 -301zM1380 -168q46 -12 109 -12q87 0 142.5 36.5t98.5 114.5l23 41l-162 1121h389l43 -562l2 -62v-87h8q37 132 50 165.5t239 545.5h416l-670 -1276q-96 -185 -223 -267t-311 -82q-92 0 -154 17v307z" horiz-adv-x="2623" unicode="Ѹ"/><glyph d="M84 416q0 210 79.5 379.5t223.5 263.5t336 94q209 0 322.5 -113t113.5 -323t-79.5 -379.5t-223.5 -263.5t-336 -94q-209 0 -322.5 113t-113.5 323zM479 403q0 -133 84 -133q81 0 141 139t60 320q0 66 -23 99.5t-63 33.5q-82 0 -140.5 -139.5t-58.5 -319.5zM1100 -168 q46 -12 109 -12q87 0 142.5 36.5t98.5 114.5l23 41l-162 1121h389l43 -562l2 -62v-87h8q37 132 50 165.5t239 545.5h416l-670 -1276q-96 -185 -223 -267t-311 -82q-92 0 -154 17v307z" horiz-adv-x="2343" unicode="ѹ"/><glyph d="M104 578q0 223 88.5 421.5t242 320t349.5 153.5q28 112 148 112q42 0 78 -29t49 -81q220 -34 336 -184t116 -400q0 -222 -84.5 -419t-234 -320.5t-342.5 -157.5q-12 -60 -53.5 -89.5t-100.5 -29.5q-43 0 -78 30t-45 83q-227 29 -348 181t-121 409zM500 578 q0 -202 114 -254q31 104 138 104q38 0 71.5 -20.5t50.5 -57.5q108 69 175 218.5t67 318.5q0 183 -98 246q-34 -101 -150 -101q-37 0 -69 22t-47 62q-111 -70 -181.5 -223.5t-70.5 -314.5z" horiz-adv-x="1575" unicode="Ѻ"/><glyph d="M84 455q0 172 70.5 322.5t199 247t295.5 120.5q33 96 125 96q101 0 121 -98q191 -31 293 -155t102 -331q0 -168 -73 -314.5t-200 -237.5t-292 -115q-17 -59 -48.5 -87t-92.5 -28q-54 0 -80 28.5t-35 88.5q-188 31 -286.5 151.5t-98.5 311.5zM449 438q0 -113 61 -157 q9 61 43.5 94t93.5 33q39 0 71 -32.5t34 -82.5q76 53 125 161.5t49 223.5q0 117 -58 168q-11 -69 -50 -103t-99 -34q-42 0 -75 38.5t-34 83.5q-72 -57 -116.5 -167t-44.5 -226z" horiz-adv-x="1374" unicode="ѻ"/><glyph d="M104 549q0 270 90 489t251 332t376 113q95 0 173 -25.5t155 -83.5l-176 -287q-45 42 -77.5 57t-66.5 15q-96 0 -171 -76.5t-116.5 -213.5t-41.5 -296q0 -144 41.5 -207t142.5 -63q105 0 216.5 83.5t178.5 213.5q32 -157 97.5 -227t169.5 -70q97 0 178 79.5t126.5 219.5 t45.5 307q0 250 -160 250q-86 0 -180 -67l-133 282q184 109 393 109q230 0 352.5 -147.5t122.5 -422.5q0 -274 -91.5 -489t-254.5 -329.5t-371 -114.5q-148 0 -234 46.5t-126 151.5q-54 -87 -167 -142.5t-245 -55.5q-240 0 -369 149.5t-129 419.5zM834 1935q15 163 105 265 t220 102q64 0 125 -19t122 -41.5t123 -41.5t128 -19h35l-54 -237h-51q-71 0 -131.5 16t-112 35t-94 35t-78.5 16q-49 0 -75.5 -26t-40.5 -85h-221zM1040 1536v104q166 16 166 82q0 31 -51 47q-35 11 -52.5 29.5t-17.5 56.5q0 45 49 77t132 32q75 0 121.5 -42.5t46.5 -111.5 q0 -123 -110.5 -198.5t-283.5 -75.5z" horiz-adv-x="2154" unicode="Ѽ"/><glyph d="M84 438q0 200 74.5 365t208 257.5t297.5 92.5q68 0 137.5 -17t111.5 -44l-114 -281q-49 31 -97 31q-65 0 -118.5 -47t-84 -130.5t-30.5 -195.5q0 -101 34 -144.5t111 -43.5q75 0 148.5 47.5t118.5 126.5q31 -91 76.5 -132.5t111.5 -41.5q75 0 134 48.5t95.5 145.5 t36.5 193q0 84 -29 129t-83 45q-57 0 -111 -31l-86 281q126 61 281 61q123 0 216 -52t145 -152.5t52 -246.5q0 -209 -75 -374t-210 -256.5t-300 -91.5q-222 0 -299 129q-75 -68 -155.5 -98.5t-182.5 -30.5q-199 0 -306.5 119t-107.5 339zM616 1618q14 161 104 264t222 103 q64 0 125 -19t122 -41.5t123 -41.5t128 -19h35l-54 -238h-51q-71 0 -131.5 16t-112 35.5t-94 35.5t-78.5 16q-49 0 -75.5 -26t-40.5 -85h-222zM823 1219v104q166 16 166 82q0 31 -51 47q-35 11 -52.5 29.5t-17.5 56.5q0 47 51.5 78t129.5 31q75 0 121.5 -43t46.5 -111 q0 -123 -110.5 -198.5t-283.5 -75.5z" horiz-adv-x="1804" unicode="ѽ"/><glyph d="M104 549q0 270 90 489t251 332t376 113q95 0 173 -25.5t155 -83.5l-176 -287q-32 28 -65 50t-79 22q-97 0 -171.5 -76.5t-116 -216.5t-41.5 -313q0 -250 147 -250q91 0 142 58.5t77 177.5l58 266h385l-58 -254q-9 -44 -15.5 -74t-6.5 -61q0 -113 117 -113q97 0 178 79.5 t126.5 219.5t45.5 307q0 250 -160 250q-86 0 -180 -67l-133 282q184 109 393 109q230 0 352.5 -147.5t122.5 -422.5q0 -274 -91.5 -489t-254.5 -329.5t-371 -114.5q-302 0 -375 198q-57 -92 -167.5 -145t-258.5 -53q-223 0 -346 152t-123 417zM844 1726l28 134h805l-30 -134 l-111 -172h-96l-27 103h-90l-66 -103h-96l-26 103h-91l-65 -103h-94z" horiz-adv-x="2154" unicode="Ѿ"/><glyph d="M88 1133h381l39 -562l6 -120l2 -99l236 414l-35 367h358q24 -458 26.5 -572.5t2.5 -208.5q97 113 169.5 318.5t106.5 462.5h398q-56 -358 -207 -629.5t-412 -503.5h-315l-41 346l-187 -346h-383zM563 1397l29 133h805l-31 -133l-111 -172h-96l-26 102h-91l-65 -102h-96 l-27 102h-90l-66 -102h-94z" horiz-adv-x="1753" unicode="ѿ"/><glyph d="M104 549q0 266 101.5 488t276 335t399.5 113q146 0 263 -29.5t220 -91.5l-150 -315q-93 55 -171 82.5t-162 27.5q-109 0 -196 -79.5t-136 -220.5t-49 -306q0 -130 61 -190t191 -60q60 0 159.5 16.5t165.5 38.5l-184 -850h-391l104 474q-242 11 -372 159t-130 408z" horiz-adv-x="1290" unicode="Ҁ"/><glyph d="M84 426q0 209 76 376.5t214.5 259t315.5 91.5q198 0 367 -80l-123 -287q-133 60 -225 60q-64 0 -116.5 -48t-86 -144.5t-33.5 -200.5q0 -162 133 -162q111 0 223 51l-182 -834h-387l107 488q-130 33 -206.5 149.5t-76.5 280.5z" horiz-adv-x="1032" unicode="ҁ"/><glyph d="M51 504l127 219l244 -139l141 247l-241 142l129 221l239 -139l137 235l230 -133l-135 -235l227 -131l-131 -220l-221 129l-146 -247l226 -134l-129 -219l-224 129l-139 -235l-231 133l137 235z" horiz-adv-x="1200" unicode="҂"/><glyph d="M254 1264q0 69 45 115t125 46h383q18 48 52.5 71.5t105.5 23.5q62 0 94.5 -31t32.5 -86q0 -71 -46 -116.5t-124 -45.5h-383q-19 -50 -55.5 -72t-102.5 -22q-61 0 -94 30.5t-33 86.5z" horiz-adv-x="1063" unicode="҃"/><glyph d="M283 1233l51 237h33q74 0 137.5 19.5t173.5 67.5q90 38 166 38q119 0 183.5 -69t64.5 -195q0 -56 -11 -100h-221l2 20v13q-3 71 -67 71q-17 0 -28 -3t-28 -15q-99 -49 -181.5 -66.5t-211.5 -17.5h-63z" horiz-adv-x="1104" unicode="҄"/><glyph d="M571 1417q0 102 69 166t183 64q60 0 97.5 -30t37.5 -67q0 -48 -21.5 -68.5t-66.5 -31.5q-49 -12 -70.5 -26t-21.5 -48q0 -25 31 -44.5t96 -22.5l-16 -105q-151 0 -234.5 56t-83.5 157z" horiz-adv-x="1100" unicode="҅"/><glyph d="M512 1204v105q104 10 148.5 33t44.5 61q0 37 -52 53q-35 11 -52 29.5t-17 56.5q0 48 51 78.5t129 30.5q75 0 121.5 -43t46.5 -111q0 -89 -54 -155t-152 -102t-214 -36z" horiz-adv-x="1100" unicode="҆"/><glyph d="M20 453q6 93 75.5 149.5t166.5 56.5q106 0 171.5 -56.5t68.5 -149.5h-115q-3 34 -28.5 49.5t-96.5 15.5q-60 0 -91 -16.5t-32 -48.5h-119zM168 -41q4 89 72 148t170 59q104 0 169.5 -57t69.5 -150h-114q-3 34 -30 50t-95 16q-59 0 -90.5 -18t-32.5 -48h-119zM168 934 q4 89 72 148t170 59q104 0 169.5 -57t69.5 -150h-114q-3 34 -28.5 49.5t-96.5 15.5q-60 0 -91 -16.5t-32 -48.5h-119zM743 -319q6 93 75.5 149.5t166.5 56.5q103 0 169 -56t71 -150h-115q-3 34 -28.5 49.5t-96.5 15.5q-60 0 -91 -16.5t-32 -48.5h-119zM743 1219 q6 93 75.5 149.5t166.5 56.5q103 0 169 -56t71 -150h-115q-3 34 -28.5 49.5t-96.5 15.5q-120 0 -123 -65h-119zM1335 -41q4 90 73.5 148.5t168.5 58.5q104 0 169 -56t71 -151h-115q-3 33 -28.5 49.5t-96.5 16.5q-57 0 -89 -17.5t-34 -48.5h-119zM1335 934q4 90 73.5 148.5 t168.5 58.5q104 0 169 -56t71 -151h-115q-3 34 -28.5 49.5t-96.5 15.5q-60 0 -91 -16.5t-32 -48.5h-119zM1483 453q4 89 72.5 147.5t168.5 58.5q107 0 171.5 -57t68.5 -149h-115q-3 34 -28.5 49.5t-96.5 15.5q-60 0 -90.5 -16.5t-31.5 -48.5h-119z" horiz-adv-x="2017" unicode="҈"/><glyph d="M25 524v178q211 -50 350 -69v-221l-15 -11q-70 18 -168 54.5t-167 68.5zM195 -25q43 26 133.5 86t160.5 113l158 -158l-4 -16q-143 -84 -324 -152zM279 1176l127 124q91 -153 198 -294l-158 -158l-16 4q-81 138 -151 324zM813 -385q42 174 70 350h221l10 -14 q-17 -66 -52 -161.5t-71 -174.5h-178zM813 1155q19 71 55.5 171t67.5 165h178q-42 -174 -70 -350h-221zM1280 1047l2 18q134 79 326 149l125 -124q-168 -105 -297 -199zM1321 59l156 156l18 -2q85 -149 150 -326l-125 -125q-105 168 -199 297zM1550 471v221l15 10 q167 -44 336 -122v-179q-219 52 -351 70z" horiz-adv-x="1950" unicode="҉"/><glyph d="M33 0l309 1462h356l-131 -612q-26 -129 -90 -356h8l664 968h489l-243 -1138h338l-340 -781h-449l279 457h-250l127 606q32 164 92 383h-8l-662 -989h-489zM532 1960h326q0 -93 38 -139.5t126 -46.5q75 0 123.5 48t60.5 138h332q-35 -188 -172.5 -284.5t-364.5 -96.5 q-453 0 -469 381z" horiz-adv-x="1802" unicode="Ҋ"/><glyph d="M96 301q0 106 25 229l127 603h387l-129 -617q-19 -82 -19 -141q0 -44 22.5 -65t53.5 -21q59 0 107.5 78.5t77.5 214.5l116 551h387l-176 -822h318l-324 -727h-389l223 416h-188l20 190h-8q-62 -106 -142.5 -158t-189.5 -52q-141 0 -220 85.5t-79 235.5zM305 1622h326 q0 -96 38.5 -141t125.5 -45q75 0 123.5 48t60.5 138h332q-34 -186 -172.5 -283.5t-364.5 -97.5q-229 0 -345 94t-124 287z" horiz-adv-x="1462" unicode="ҋ"/><glyph d="M33 0l221 1038h-139l61 283h137l31 141h389l-31 -141h234l-62 -283h-231l-25 -118h29q236 0 367 -111.5t131 -304.5q0 -236 -155.5 -370t-440.5 -134h-516zM492 305h77q88 0 135.5 47.5t47.5 130.5q0 59 -36.5 95t-94.5 36h-68z" horiz-adv-x="1247" unicode="Ҍ"/><glyph d="M-2 1087l59 283h240l41 186h387l-43 -186h283l-58 -283h-286l-82 -387q71 21 166 21q180 0 287.5 -88t107.5 -230q0 -207 -141 -315t-427 -108q-213 0 -330.5 82t-117.5 237q0 89 27 201l125 587h-238zM461 315q0 -35 32.5 -54t88.5 -19q55 0 91 28t36 82q0 48 -28 77.5 t-77 29.5q-72 0 -121 -17q-22 -93 -22 -127z" horiz-adv-x="1198" unicode="ҍ"/><glyph d="M33 0l309 1462h453q275 0 417 -110.5t142 -327.5q0 -161 -77.5 -281t-217.5 -184l53 -115l-192 -94l-70 148q-74 -13 -170 -13h-156l-100 -485h-391zM594 805h113l-43 94l192 94l55 -123q52 58 52 142q0 58 -42 94.5t-116 36.5h-139z" horiz-adv-x="1378" unicode="Ҏ"/><glyph d="M-82 -492l344 1625h309l-12 -127h8q55 72 130.5 109.5t183.5 37.5q184 0 286.5 -116.5t102.5 -321.5q0 -196 -85 -380.5t-224 -279.5l49 -102l-199 -92l-57 121l-31 -2q-99 0 -173 33t-130 112h-8q-12 -166 -56 -371l-51 -246h-387zM485 434q0 -60 30 -98.5t93 -44.5 l-73 160l198 92l64 -137q77 119 77 266q0 78 -36.5 124t-104.5 46q-87 0 -145 -67t-92 -216q-11 -49 -11 -125z" horiz-adv-x="1354" unicode="ҏ"/><glyph d="M33 0l309 1462h508l68 316h348l-129 -635h-471l-242 -1143h-391z" horiz-adv-x="1083" unicode="Ґ"/><glyph d="M23 0l239 1133h479l60 290h352l-129 -602h-440l-174 -821h-387z" horiz-adv-x="1034" unicode="ґ"/><glyph d="M10 563l70 320h139l123 579h862l-67 -319h-471l-56 -260h291l-70 -320h-288l-119 -563h-391l119 563h-142z" horiz-adv-x="1079" unicode="Ғ"/><glyph d="M-14 389l59 291h121l96 453h778l-67 -312h-389l-31 -141h238l-62 -291h-237l-82 -389h-387l81 389h-118z" horiz-adv-x="979" unicode="ғ"/><glyph d="M33 0l309 1462h862l-67 -319h-471l-80 -379q108 18 164 18q250 0 386 -139.5t136 -400.5q0 -241 -82.5 -413.5t-231.5 -256.5t-360 -84q-155 0 -287 51v322q133 -49 262 -49q143 0 223.5 105.5t80.5 295.5q0 115 -60 180.5t-170 65.5q-77 0 -129 -13l-94 -446h-391z" horiz-adv-x="1380" unicode="Ҕ"/><glyph d="M23 0l239 1133h778l-67 -312h-389l-43 -198q40 8 88 8q234 0 359.5 -115.5t125.5 -333.5q0 -203 -82.5 -356t-238 -235.5t-359.5 -82.5q-162 0 -280 48v297q120 -54 260 -54q146 0 227.5 89.5t81.5 258.5q0 89 -51.5 141t-141.5 52q-29 0 -49 -4l-71 -336h-387z" horiz-adv-x="1217" unicode="ҕ"/><glyph d="M-131 0l528 760l-200 702h409l178 -684l144 684h385l-146 -684l459 684h436l-520 -725l131 -432h256l-164 -762h-381l101 457h-150l-180 719l-151 -719h-386l154 719l-457 -719h-446z" horiz-adv-x="2001" unicode="Җ"/><glyph d="M-25 -6l70 301q51 -8 76 -8q102 0 168.5 116t66.5 291q0 148 -98 148q-50 0 -125 -31v307q75 35 191 35q201 0 305.5 -115.5t107.5 -335.5h168l94 431h373l-94 -431h149q57 209 207 330t357 121q77 0 163 -14l-69 -301q-51 8 -76 8q-101 0 -168 -113t-67 -270 q0 -93 35 -132.5t106 -39.5q59 0 123 31l-154 -738h-368l112 424q-235 92 -235 432h-172l-95 -440h-372l94 440h-143q-58 -214 -207.5 -337t-358.5 -123q-75 0 -164 14z" horiz-adv-x="2130" unicode="җ"/><glyph d="M25 59v326q75 -42 185 -68t226 -26q156 0 219.5 43.5t63.5 134.5q0 72 -60 105.5t-190 33.5h-121l68 312h131q141 0 208.5 34t67.5 107q0 46 -36.5 78t-118.5 32q-155 0 -332 -124l-141 276q140 86 277.5 123t293.5 37q210 0 337.5 -95.5t127.5 -254.5 q0 -154 -101.5 -250.5t-275.5 -110.5v-8q124 -28 192 -110t68 -205q0 -231 -160 -350t-467 -119q-154 0 -276.5 21t-185.5 58zM193 -266q72 -31 135 -31q56 0 85.5 21.5t29.5 72.5q0 40 -17.5 80t-83.5 123h217q144 -115 144 -268q0 -122 -80 -189t-242 -67q-119 0 -188 30 v228z" horiz-adv-x="1260" unicode="Ҙ"/><glyph d="M33 66v294q197 -90 399 -90q227 0 227 95q0 55 -52.5 77.5t-155.5 22.5h-140l54 246h153q116 0 165.5 21t49.5 63q0 41 -28 58t-95 17q-73 0 -170.5 -22t-179.5 -60l-84 279q251 86 490 86q224 0 338 -73.5t114 -215.5q0 -102 -60.5 -168t-191.5 -106v-8 q94 -25 140.5 -84t46.5 -140q0 -182 -155 -280t-439 -98q-141 0 -249.5 24t-176.5 62zM207 -266q72 -31 135 -31q56 0 85.5 21.5t29.5 72.5q0 40 -17.5 80t-83.5 123h217q144 -115 144 -268q0 -122 -80 -189t-242 -67q-119 0 -188 30v228z" horiz-adv-x="1192" unicode="ҙ"/><glyph d="M33 0l309 1462h391l-145 -684l459 684h436l-520 -725l131 -432h256l-164 -762h-381l100 457h-149l-181 719l-151 -719h-391z" horiz-adv-x="1421" unicode="Қ"/><glyph d="M23 0l235 1133h387l-108 -521l391 521h440l-444 -570l100 -252h260l-149 -727h-369l111 416h-150l-205 543l-112 -543h-387z" horiz-adv-x="1370" unicode="қ"/><glyph d="M33 0l309 1462h391l-135 -633h74l33 48l110 520h148l-50 -228l211 293h459l-557 -704l277 -758h-439l-121 367l-51 -250h-149l94 450l-100 -35l-113 -532h-391z" horiz-adv-x="1432" unicode="Ҝ"/><glyph d="M23 0l235 1133h387l-115 -547l113 119l66 309h131l-25 -117l213 236h451l-535 -570l320 -563h-435l-145 268l-37 -178h-135l78 363l-64 110l-116 -563h-387z" horiz-adv-x="1389" unicode="ҝ"/><glyph d="M33 0l219 1038h-141l69 320h139l23 104h391l-22 -104h96l-70 -320h-96l-61 -280l507 704h459l-577 -733l272 -729h-438l-176 518l-103 -41l-100 -477h-391z" horiz-adv-x="1370" unicode="Ҟ"/><glyph d="M23 0l243 1167h-166l52 242h165l31 147h387l-30 -147h241l-51 -242h-242q-36 -174 -56 -269.5t-69 -227.5h9q84 127 153 200l242 263h442l-491 -512l274 -621h-438l-139 391l-101 -53l-69 -338h-387z" horiz-adv-x="1264" unicode="ҟ"/><glyph d="M156 1139l69 323h707l-146 -684l459 684h436l-520 -725l223 -737h-430l-180 719l-151 -719h-392l242 1139h-317z" horiz-adv-x="1520" unicode="Ҡ"/><glyph d="M66 842l61 291h633l-109 -521l391 521h441l-445 -570l228 -563h-424l-205 543l-113 -543h-387l174 842h-245z" horiz-adv-x="1393" unicode="ҡ"/><glyph d="M33 0l309 1462h391l-112 -542h348l112 542h392l-246 -1157h246l-164 -762h-381l100 457h-256l125 596h-346l-127 -596h-391z" horiz-adv-x="1565" unicode="Ң"/><glyph d="M23 0l241 1133h387l-86 -410h221l88 410h388l-175 -822h281l-149 -727h-369l102 416h-317l92 440h-223l-94 -440h-387z" horiz-adv-x="1454" unicode="ң"/><glyph d="M33 0l309 1462h391l-112 -542h348l112 542h713l-72 -323h-317l-242 -1139h-391l125 596h-346l-127 -596h-391z" horiz-adv-x="1671" unicode="Ҥ"/><glyph d="M23 0l241 1133h387l-86 -410h221l88 410h674l-61 -291h-287l-178 -842h-387l92 440h-223l-94 -440h-387z" horiz-adv-x="1487" unicode="ҥ"/><glyph d="M33 0l309 1462h1131l-148 -698q104 18 162 18q250 0 386 -139.5t136 -400.5q0 -242 -81.5 -413.5t-232.5 -256t-360 -84.5q-156 0 -286 51v322q133 -49 262 -49q142 0 222.5 106t80.5 295q0 115 -60 180.5t-170 65.5q-75 0 -127 -13l-94 -446h-391l238 1139h-346 l-240 -1139h-391z" horiz-adv-x="2120" unicode="Ҧ"/><glyph d="M23 0l241 1133h998l-109 -510q40 8 88 8q236 0 360.5 -116t124.5 -333q0 -203 -82.5 -356t-238 -235.5t-358.5 -82.5q-163 0 -281 48v297q120 -54 260 -54q146 0 227.5 89.5t81.5 258.5q0 90 -51 141.5t-141 51.5q-31 0 -49 -4l-72 -336h-387l178 850h-223l-180 -850 h-387z" horiz-adv-x="1829" unicode="ҧ"/><glyph d="M104 549q0 266 104.5 488t281.5 335t407 113q142 0 258 -33l-96 -315q-69 24 -162 24q-115 0 -206 -79.5t-141 -221t-50 -307.5q0 -125 48 -193.5t134 -68.5q50 0 86 12q-30 45 -49 122.5t-19 154.5q0 240 126 378t341 138q178 0 282.5 -104.5t104.5 -284.5 q0 -138 -77.5 -267.5t-208.5 -226.5q22 -6 73 -6q65 0 152 26v-290q-22 -9 -80 -18t-117 -9q-102 0 -191 27.5t-151 76.5q-45 -16 -123 -28t-141 -12q-284 0 -435 146.5t-151 422.5zM1026 569q0 -92 37 -161q75 52 120.5 133.5t45.5 154.5q0 117 -84 117q-56 0 -87.5 -64 t-31.5 -180z" horiz-adv-x="1638" unicode="Ҩ"/><glyph d="M84 442q0 205 79.5 368t227 253t338.5 90q97 0 170 -23l-82 -274q-56 18 -119 18q-61 0 -111.5 -55t-82 -158t-31.5 -212q0 -191 113 -191q43 0 67 8q-35 80 -35 176q0 189 103 296.5t289 107.5q150 0 238.5 -84t88.5 -225q0 -112 -51.5 -206.5t-138.5 -140.5 q18 -6 39 -6q43 0 82.5 6.5t56.5 14.5v-258q-89 -27 -201 -27q-88 0 -175 25t-138 69q-102 -34 -270 -34q-221 0 -339 118.5t-118 343.5zM891 459q0 -20 10 -56.5t33 -68.5q62 25 96.5 73.5t34.5 102.5q0 46 -21.5 68t-56.5 22q-42 0 -69 -34.5t-27 -106.5z" horiz-adv-x="1411" unicode="ҩ"/><glyph d="M104 549q0 266 101.5 488t276 335t399.5 113q265 0 481 -131l-148 -305q-93 55 -171 82.5t-162 27.5q-108 0 -195 -78t-136.5 -215t-49.5 -297q0 -134 56 -200t161 -66q83 0 168 20.5t200 69.5v-323q-203 -90 -440 -90q-260 0 -400.5 148.5t-140.5 420.5zM320 -266 q72 -31 135 -31q56 0 85.5 21.5t29.5 72.5q0 40 -17.5 80t-83.5 123h217q144 -115 144 -268q0 -122 -80 -189t-242 -67q-119 0 -188 30v228z" horiz-adv-x="1290" unicode="Ҫ"/><glyph d="M84 442q0 201 76.5 364.5t215 255t314.5 91.5q195 0 367 -80l-123 -287q-133 60 -225 60q-62 0 -115 -48t-87 -143.5t-34 -187.5q0 -91 30 -133.5t95 -42.5q72 0 139.5 23t143.5 63v-307q-80 -44 -168.5 -67t-206.5 -23q-199 0 -310.5 120.5t-111.5 341.5zM213 -266 q72 -31 135 -31q56 0 85.5 21.5t29.5 72.5q0 40 -17.5 80t-83.5 123h217q144 -115 144 -268q0 -122 -80 -189t-242 -67q-119 0 -188 30v228z" horiz-adv-x="1032" unicode="ҫ"/><glyph d="M156 1139l69 323h1028l-71 -323h-318l-174 -834h246l-164 -762h-381l101 457h-256l237 1139h-317z" horiz-adv-x="1130" unicode="Ҭ"/><glyph d="M23 0l239 1133h309l-16 -187h8q61 114 137 160.5t191 46.5q117 0 180.5 -53.5t89.5 -153.5h8q65 106 149 156.5t195 50.5q141 0 214 -84.5t73 -249.5q0 -100 -22 -205l-37 -168q-15 -72 -15 -96q0 -61 72 -61q30 0 74 12l-148 -717h-368l110 418q-141 44 -141 231 q0 55 18 138l52 260q14 56 14 133q0 40 -19 61t-51 21q-74 0 -119.5 -76t-76.5 -227l-111 -543h-387l131 631q15 90 15 121q0 94 -72 94q-68 0 -113.5 -74.5t-77.5 -220.5l-118 -551h-387z" horiz-adv-x="1960" unicode="ҭ"/><glyph d="M164 1462h403l90 -542l312 542h436l-612 -895l-121 -567h-391l120 567z" horiz-adv-x="1237" unicode="Ү"/><glyph d="M88 1133h385l27 -603q0 -73 -8 -118h8q1 14 18 63t36 90t265 568h414l-612 -1133l-103 -492h-387l102 492z" horiz-adv-x="1114" unicode="ү"/><glyph d="M39 215l67 320h287l8 32l-237 895h403l90 -542l312 542h436l-612 -895l-9 -32h289l-69 -320h-287l-45 -215h-391l45 215h-287z" horiz-adv-x="1237" unicode="Ұ"/><glyph d="M-86 -291l61 291h258l-145 1133h385l27 -603q0 -73 -8 -118h8q1 14 18 63t36 90t265 568h414l-612 -1133h258l-62 -291h-258l-41 -201h-387l41 201h-258z" horiz-adv-x="1114" unicode="ұ"/><glyph d="M-125 0l563 776l-223 686h416l123 -469l309 469h448l-538 -725l153 -432h318l-164 -762h-381l100 457h-196l-146 498l-338 -498h-444z" horiz-adv-x="1536" unicode="Ҳ"/><glyph d="M-119 0l473 578l-207 555h422l76 -314l186 314h459l-465 -576l101 -246h307l-150 -727h-368l110 416h-200l-80 328l-211 -328h-453z" horiz-adv-x="1319" unicode="ҳ"/><glyph d="M156 1139l69 323h971l-72 -323h-260l-172 -815h389l242 1138h391l-246 -1157h246l-164 -762h-381l101 457h-1037l240 1139h-317z" horiz-adv-x="1806" unicode="Ҵ"/><glyph d="M66 842l61 291h827l-61 -291h-195l-65 -326q-19 -82 -19 -141q0 -44 25.5 -65t62.5 -21q72 0 133 79t89 214l116 551h387l-145 -687q-14 -67 -14 -96q0 -61 71 -61q30 0 74 12l-147 -717h-369l119 447q-89 40 -105 159h-8q-68 -106 -155.5 -158t-202.5 -52 q-153 0 -237.5 85.5t-84.5 235.5q0 111 25 229l63 312h-245z" horiz-adv-x="1501" unicode="ҵ"/><glyph d="M147 799q0 49 13 123l104 540h393l-98 -489q-10 -46 -10 -78q0 -59 37.5 -90t97.5 -31q54 0 115.5 19t115.5 51l129 618h392l-242 -1157h246l-164 -762h-381l100 457h-256l115 535q-152 -84 -346 -84q-173 0 -267 90.5t-94 257.5z" horiz-adv-x="1532" unicode="Ҷ"/><glyph d="M133 600q0 31 4 75t10 86.5t72 371.5h387l-57 -281q-19 -82 -19 -141q0 -44 22.5 -65t53.5 -21q72 0 114 76.5t71 216.5l45 215h387l-174 -822h235l-149 -727h-369l100 416h-270l86 412h-10q-61 -53 -121 -75t-131 -22q-131 0 -209 78t-78 207z" horiz-adv-x="1370" unicode="ҷ"/><glyph d="M147 799q0 49 13 123l104 540h393l-98 -489q-10 -46 -10 -78q0 -85 76 -113l67 312h152l-66 -308q81 23 137 58l129 618h392l-306 -1462h-391l115 535q-55 -32 -143 -58l-72 -336h-152l66 310h-45q-173 0 -267 90.5t-94 257.5z" horiz-adv-x="1425" unicode="Ҹ"/><glyph d="M137 614q0 119 27 252l55 267h387l-57 -281q-19 -82 -19 -141q0 -54 39 -74l54 240h145l-53 -238q39 19 65.5 71t46.5 148l62 275h387l-240 -1133h-387l86 412h-10q-28 -27 -70 -50l-51 -235h-145l41 192q-32 -4 -70 -4q-133 0 -213 83t-80 216z" horiz-adv-x="1298" unicode="ҹ"/><glyph d="M33 0l305 1462h391l-115 -534q158 84 347 84q177 0 268.5 -91.5t91.5 -256.5q0 -56 -12 -123l-105 -541h-393l98 489q11 51 11 78q0 59 -38 90t-98 31q-54 0 -115.5 -18.5t-115.5 -51.5l-129 -618h-391z" horiz-adv-x="1425" unicode="Һ"/><glyph d="M23 0l239 1133h387l-86 -412h10q110 96 252 96q133 0 210 -78.5t77 -206.5q0 -115 -27 -237l-59 -295h-387l57 281q19 82 19 141q0 43 -22.5 64.5t-53.5 21.5q-64 0 -106.5 -65.5t-77.5 -227.5l-45 -215h-387z" horiz-adv-x="1245" unicode="һ"/><glyph d="M86 926q0 104 74 215h305q-16 -25 -30.5 -65.5t-14.5 -78.5q0 -83 110 -104q80 276 275 434t457 158q203 0 317.5 -102.5t114.5 -280.5q0 -247 -195 -379.5t-557 -132.5h-68v-37q0 -119 50.5 -184.5t144.5 -65.5q186 0 381 70v-324q-80 -36 -174.5 -52.5t-255.5 -16.5 q-261 0 -401 149.5t-140 419.5v47q-393 52 -393 330zM928 885h96q134 0 209.5 46.5t75.5 131.5q0 98 -105 98q-84 0 -164.5 -79.5t-111.5 -196.5z" horiz-adv-x="1718" unicode="Ҽ"/><glyph d="M25 709q0 54 15.5 98.5t49.5 95.5h252q-15 -25 -30 -55.5t-15 -67.5q0 -46 19.5 -73t64.5 -41q62 231 224.5 359t393.5 128q190 0 299 -86t109 -229q0 -203 -157 -309.5t-451 -106.5h-60v-16q0 -148 164 -148q79 0 155 23.5t173 74.5v-274q-112 -57 -209 -79.5 t-223 -22.5q-214 0 -331.5 120t-117.5 332q-157 15 -241 86.5t-84 190.5zM778 664h29q109 0 171 41.5t62 109.5q0 32 -20 54t-64 22q-59 0 -111 -66t-67 -161z" horiz-adv-x="1452" unicode="ҽ"/><glyph d="M86 926q0 104 74 215h305q-16 -25 -30.5 -65.5t-14.5 -78.5q0 -83 110 -104q80 276 275 434t457 158q203 0 317.5 -102.5t114.5 -280.5q0 -247 -195 -379.5t-557 -132.5h-68v-37q0 -119 50.5 -184.5t144.5 -65.5q186 0 381 70v-324q-114 -51 -279 -65l-92 -441h-381 l107 473q-159 55 -242.5 193t-83.5 340v13l1 16l1 18q-395 53 -395 330zM928 885h96q134 0 209.5 46.5t75.5 131.5q0 98 -105 98q-84 0 -164.5 -79.5t-111.5 -196.5z" horiz-adv-x="1718" unicode="Ҿ"/><glyph d="M25 709q0 54 15.5 98.5t49.5 95.5h252q-15 -25 -30 -55.5t-15 -67.5q0 -46 19.5 -73t64.5 -41q62 231 224.5 359t393.5 128q190 0 299 -86t109 -229q0 -203 -157 -309.5t-451 -106.5h-60v-16q0 -148 164 -148q79 0 155 23.5t173 74.5v-274q-132 -68 -254 -88l-78 -410 h-369l99 418q-136 42 -207.5 152.5t-71.5 277.5q-157 15 -241 86.5t-84 190.5zM778 664h29q109 0 171 41.5t62 109.5q0 32 -20 54t-64 22q-59 0 -111 -66t-67 -161z" horiz-adv-x="1452" unicode="ҿ"/><glyph d="M31 0l309 1462h397l-309 -1462h-397z" horiz-adv-x="727" unicode="Ӏ"/><glyph d="M-131 0l528 760l-200 702h409l178 -684l144 684h385l-146 -684l459 684h436l-520 -725l223 -737h-430l-180 719l-151 -719h-386l154 719l-457 -719h-446zM676 1919l4 41h319l-4 -51q0 -72 43.5 -103.5t112.5 -31.5q83 0 131.5 45t66.5 141h332q-36 -190 -179 -285.5 t-386 -95.5q-440 0 -440 340z" horiz-adv-x="1911" unicode="Ӂ"/><glyph d="M-25 -6l70 301q51 -8 76 -8q102 0 168.5 116t66.5 291q0 148 -98 148q-50 0 -125 -31v307q75 35 191 35q201 0 305.5 -115.5t107.5 -335.5h168l94 431h373l-94 -431h149q57 209 207 330t357 121q77 0 163 -14l-69 -301q-51 8 -76 8q-103 0 -169 -117.5t-66 -290.5 q0 -147 98 -147q50 0 125 31v-308q-76 -34 -191 -34q-205 0 -309 117.5t-104 342.5h-172l-95 -440h-372l94 440h-143q-58 -214 -207.5 -337t-358.5 -123q-75 0 -164 14zM744 1581l4 41h319l-4 -51q0 -72 43.5 -103.5t112.5 -31.5q83 0 131.5 45t66.5 141h332 q-36 -190 -179 -285.5t-386 -95.5q-440 0 -440 340z" horiz-adv-x="2130" unicode="ӂ"/><glyph d="M33 0l309 1462h391l-145 -684l459 684h436l-504 -702q169 -49 258.5 -182t89.5 -336q0 -242 -81.5 -413.5t-232.5 -256t-360 -84.5q-156 0 -286 51v322q133 -49 262 -49q142 0 222.5 106t80.5 295q0 122 -70.5 190t-193.5 68q-81 0 -150 -18l-94 -453h-391z" horiz-adv-x="1458" unicode="Ӄ"/><glyph d="M23 0l235 1133h387l-108 -521l391 521h440l-457 -560q132 -49 208.5 -161.5t76.5 -266.5q0 -307 -162 -472t-461 -165q-150 0 -258 48v297q105 -54 224 -54q131 0 198.5 82t67.5 238q0 91 -46.5 142.5t-127.5 51.5q-89 0 -160 -30l-61 -283h-387z" horiz-adv-x="1327" unicode="ӄ"/><glyph d="M-92 6v305q45 -15 64 -17.5t38 -2.5q53 0 84 22t63 71.5t66 135.5q102 257 279 942h960l-235 -1138h338l-340 -781h-449l279 457h-289l240 1151h-199q-162 -596 -215 -721q-72 -178 -141.5 -272t-159 -136t-228.5 -42q-81 0 -155 26z" horiz-adv-x="1634" unicode="Ӆ"/><glyph d="M-37 10v301q37 -20 80 -20q46 0 77.5 51.5t94.5 253.5q61 193 117 290t128 154t170 85t232 28q130 0 255.5 -22t211.5 -58l-158 -762h318l-324 -727h-389l223 416h-278l178 856q-27 6 -55 6q-73 0 -116 -37.5t-82.5 -124t-88.5 -254.5q-60 -206 -113 -297t-126 -130 t-193 -39q-86 0 -162 30z" horiz-adv-x="1559" unicode="ӆ"/><glyph d="M33 0l309 1462h391l-112 -542h348l112 542h392l-310 -1446q-43 -200 -113 -312t-182.5 -164t-292.5 -52q-57 0 -132.5 13t-131.5 36v320q104 -45 226 -45q108 0 162.5 60t82.5 194l115 530h-346l-127 -596h-391z" horiz-adv-x="1462" unicode="Ӈ"/><glyph d="M23 0l241 1133h387l-86 -410h221l88 410h388l-242 -1153q-50 -243 -180.5 -357.5t-352.5 -114.5q-54 0 -123 13t-126 35v303q88 -39 180 -39q99 0 148.5 47t72.5 153l88 420h-223l-94 -440h-387z" horiz-adv-x="1284" unicode="ӈ"/><glyph d="M33 0l309 1462h391l-112 -542h348l112 542h392l-242 -1138h338l-340 -781h-449l279 457h-287l125 596h-346l-127 -596h-391z" horiz-adv-x="1638" unicode="Ӊ"/><glyph d="M23 0l241 1133h387l-86 -410h221l88 410h388l-177 -822h318l-324 -727h-389l223 416h-278l92 440h-223l-94 -440h-387z" horiz-adv-x="1473" unicode="ӊ"/><glyph d="M147 799q0 49 13 123l104 540h393l-98 -489q-10 -46 -10 -78q0 -59 37.5 -90t97.5 -31q54 0 115.5 19t115.5 51l129 618h392l-306 -1462h-288l-99 -457h-381l164 762h279l49 230q-152 -84 -346 -84q-173 0 -267 90.5t-94 257.5z" horiz-adv-x="1425" unicode="Ӌ"/><glyph d="M162 711q0 140 24 258l33 164h387q-48 -246 -50.5 -273.5t-2.5 -46.5q0 -43 22.5 -64.5t53.5 -21.5q119 0 184 293l23 113h387l-240 -1133h-317l-84 -416h-369l178 727h271l43 203h-11q-46 -40 -115.5 -68t-156.5 -28q-117 0 -188.5 83.5t-71.5 209.5z" horiz-adv-x="1245" unicode="ӌ"/><glyph d="M33 0l309 1462h518v-1038h8l478 1038h526l-246 -1138h338l-340 -781h-448l278 457h-246l117 549q50 228 108 436l15 64h-8l-482 -1049h-370v1049h-8q-67 -417 -86 -512l-113 -537h-348z" horiz-adv-x="2034" unicode="Ӎ"/><glyph d="M33 0l239 1133h512l47 -740h9l364 740h541l-176 -822h317l-323 -727h-389l223 416h-258l71 332q28 130 62 264q23 94 28 123h-8l-346 -719h-362l-47 719h-9q-34 -278 -61 -395l-72 -324h-362z" horiz-adv-x="1956" unicode="ӎ"/><glyph d="M31 0l309 1462h397l-309 -1462h-397z" horiz-adv-x="727" unicode="ӏ"/><glyph d="M-121 0l744 1462h503l123 -1462h-381l-10 274h-448l-125 -274h-406zM553 586h293l-17 424l-2 86q0 75 4 131q-24 -86 -61 -166zM437 1919l4 41h319l-4 -51q0 -72 43.5 -103.5t112.5 -31.5q83 0 131.5 45t66.5 141h332q-36 -190 -179 -285.5t-386 -95.5q-440 0 -440 340z" horiz-adv-x="1384" unicode="Ӑ"/><glyph d="M84 412q0 179 73 365t184.5 281t246.5 95q84 0 148 -37.5t114 -122.5h8l53 140h310l-240 -1133h-309l10 123h-8q-56 -78 -121 -110.5t-147 -32.5q-158 0 -240 111.5t-82 320.5zM479 434q0 -143 86 -143q50 0 95.5 58.5t72.5 156.5t27 192q0 65 -20 104.5t-62 39.5 q-76 0 -137.5 -126.5t-61.5 -281.5zM270 1581l4 41h319l-4 -51q0 -72 43.5 -103.5t112.5 -31.5q83 0 131.5 45t66.5 141h332q-36 -190 -179 -285.5t-386 -95.5q-440 0 -440 340z" unicode="ӑ"/><glyph d="M-121 0l744 1462h503l123 -1462h-381l-10 274h-448l-125 -274h-406zM553 586h293l-17 424l-2 86q0 75 4 131q-24 -86 -61 -166zM471 1722q0 187 201 187q170 0 170 -125q0 -189 -201 -189q-88 0 -129 31t-41 96zM958 1722q0 187 201 187q168 0 168 -125q0 -97 -49.5 -143 t-149.5 -46q-88 0 -129 31t-41 96z" horiz-adv-x="1384" unicode="Ӓ"/><glyph d="M84 412q0 179 73 365t184.5 281t246.5 95q84 0 148 -37.5t114 -122.5h8l53 140h310l-240 -1133h-309l10 123h-8q-56 -78 -121 -110.5t-147 -32.5q-158 0 -240 111.5t-82 320.5zM479 434q0 -143 86 -143q50 0 95.5 58.5t72.5 156.5t27 192q0 65 -20 104.5t-62 39.5 q-76 0 -137.5 -126.5t-61.5 -281.5zM310 1384q0 187 201 187q170 0 170 -125q0 -189 -201 -189q-88 0 -129 31t-41 96zM797 1384q0 187 201 187q168 0 168 -125q0 -97 -49.5 -143t-149.5 -46q-88 0 -129 31t-41 96z" unicode="ӓ"/><glyph d="M-125 0l909 1462h1213l-66 -317h-477l-47 -230h444l-71 -317h-445l-57 -276h477l-67 -322h-869l58 274h-418l-170 -274h-414zM662 602h286l113 543h-68z" horiz-adv-x="1937" unicode="Ӕ"/><glyph d="M84 412q0 179 73 365t184.5 281t246.5 95q92 0 152 -38t110 -122h8l53 140h207v-95q58 56 132.5 85.5t146.5 29.5q157 0 251.5 -86.5t94.5 -228.5q0 -201 -157 -308.5t-451 -107.5h-60v-16q0 -148 164 -148q79 0 155 23.5t173 74.5v-274q-99 -58 -182.5 -80t-192.5 -22 q-179 0 -262 112l-31 -92h-227l10 123h-8q-56 -78 -121 -110.5t-147 -32.5q-158 0 -240 111.5t-82 320.5zM479 434q0 -143 86 -143q76 0 134.5 123t58.5 284q0 65 -23 104.5t-65 39.5q-49 0 -93 -57.5t-71 -155t-27 -195.5zM1114 664h29q109 0 171 41.5t62 109.5 q0 32 -20 54t-64 22q-61 0 -114 -69.5t-64 -157.5z" horiz-adv-x="1788" unicode="ӕ"/><glyph d="M33 0l309 1462h868l-65 -317h-477l-47 -230h444l-72 -317h-444l-57 -276h477l-68 -322h-868zM319 1919l4 41h319l-4 -51q0 -72 43.5 -103.5t112.5 -31.5q83 0 131.5 45t66.5 141h332q-36 -190 -179 -285.5t-386 -95.5q-440 0 -440 340z" horiz-adv-x="1151" unicode="Ӗ"/><glyph d="M84 428q0 211 83.5 380.5t229 257t336.5 87.5q190 0 299 -86t109 -229q0 -201 -156.5 -308.5t-452.5 -107.5h-59v-16q0 -148 164 -148q79 0 155 23.5t173 74.5v-274q-112 -57 -209 -79.5t-224 -22.5q-212 0 -330 118.5t-118 329.5zM512 664h29q109 0 171 41.5t62 109.5 q0 32 -20 54t-64 22q-61 0 -114 -69.5t-64 -157.5zM319 1581l4 41h319l-4 -51q0 -72 43.5 -103.5t112.5 -31.5q83 0 131.5 45t66.5 141h332q-36 -190 -179 -285.5t-386 -95.5q-440 0 -440 340z" horiz-adv-x="1186" unicode="ӗ"/><glyph d="M33 362q0 249 195.5 380.5t555.5 131.5h68v37q0 123 -57 186.5t-160 63.5q-77 0 -159.5 -14t-199.5 -55v323q192 70 431 70q257 0 398.5 -148.5t141.5 -421.5q0 -256 -101.5 -476.5t-277.5 -339.5t-403 -119q-202 0 -317 101t-115 281zM418 401q0 -98 104 -98 q85 0 166 80.5t111 196.5h-97q-135 0 -209.5 -48t-74.5 -131z" horiz-adv-x="1311" unicode="Ә"/><glyph d="M45 295q0 203 157 309.5t451 106.5h60v16q0 147 -164 147q-75 0 -147.5 -20.5t-180.5 -77.5v275q106 54 205.5 78t226.5 24q213 0 331 -119t118 -329q0 -211 -83.5 -380.5t-229 -257t-336.5 -87.5q-188 0 -298 85t-110 230zM412 317q0 -32 20 -53.5t64 -21.5q59 0 111 66 t67 161h-29q-107 0 -170 -42t-63 -110z" horiz-adv-x="1186" unicode="ә"/><glyph d="M33 362q0 249 195.5 380.5t555.5 131.5h68v37q0 123 -57 186.5t-160 63.5q-77 0 -159.5 -14t-199.5 -55v323q192 70 431 70q257 0 398.5 -148.5t141.5 -421.5q0 -256 -101.5 -476.5t-277.5 -339.5t-403 -119q-202 0 -317 101t-115 281zM418 401q0 -98 104 -98 q85 0 166 80.5t111 196.5h-97q-135 0 -209.5 -48t-74.5 -131zM361 1722q0 187 201 187q170 0 170 -125q0 -189 -201 -189q-88 0 -129 31t-41 96zM848 1722q0 187 201 187q168 0 168 -125q0 -97 -49.5 -143t-149.5 -46q-88 0 -129 31t-41 96z" horiz-adv-x="1311" unicode="Ӛ"/><glyph d="M45 295q0 203 157 309.5t451 106.5h60v16q0 147 -164 147q-75 0 -147.5 -20.5t-180.5 -77.5v275q106 54 205.5 78t226.5 24q213 0 331 -119t118 -329q0 -211 -83.5 -380.5t-229 -257t-336.5 -87.5q-188 0 -298 85t-110 230zM412 317q0 -32 20 -53.5t64 -21.5q59 0 111 66 t67 161h-29q-107 0 -170 -42t-63 -110zM267 1384q0 187 201 187q170 0 170 -125q0 -189 -201 -189q-88 0 -129 31t-41 96zM754 1384q0 187 201 187q168 0 168 -125q0 -97 -49.5 -143t-149.5 -46q-88 0 -129 31t-41 96z" horiz-adv-x="1186" unicode="ӛ"/><glyph d="M-131 0l528 760l-200 702h409l178 -684l144 684h385l-146 -684l459 684h436l-520 -725l223 -737h-430l-180 719l-151 -719h-386l154 719l-457 -719h-446zM756 1722q0 187 201 187q170 0 170 -125q0 -189 -201 -189q-88 0 -129 31t-41 96zM1243 1722q0 187 201 187 q168 0 168 -125q0 -97 -49.5 -143t-149.5 -46q-88 0 -129 31t-41 96z" horiz-adv-x="1911" unicode="Ӝ"/><glyph d="M-25 -6l70 301q51 -8 76 -8q102 0 168.5 116t66.5 291q0 148 -98 148q-50 0 -125 -31v307q75 35 191 35q201 0 305.5 -115.5t107.5 -335.5h168l94 431h373l-94 -431h149q57 209 207 330t357 121q77 0 163 -14l-69 -301q-51 8 -76 8q-103 0 -169 -117.5t-66 -290.5 q0 -147 98 -147q50 0 125 31v-308q-76 -34 -191 -34q-205 0 -309 117.5t-104 342.5h-172l-95 -440h-372l94 440h-143q-58 -214 -207.5 -337t-358.5 -123q-75 0 -164 14zM817 1384q0 187 201 187q170 0 170 -125q0 -189 -201 -189q-88 0 -129 31t-41 96zM1304 1384 q0 187 201 187q168 0 168 -125q0 -97 -49.5 -143t-149.5 -46q-88 0 -129 31t-41 96z" horiz-adv-x="2130" unicode="ӝ"/><glyph d="M25 59v326q75 -42 185 -68t226 -26q156 0 219.5 43.5t63.5 134.5q0 72 -60 105.5t-190 33.5h-121l68 312h131q141 0 208.5 34t67.5 107q0 46 -36.5 78t-118.5 32q-155 0 -332 -124l-141 276q140 86 277.5 123t293.5 37q210 0 337.5 -95.5t127.5 -254.5 q0 -154 -101.5 -250.5t-275.5 -110.5v-8q124 -28 192 -110t68 -205q0 -231 -160 -350t-467 -119q-154 0 -276.5 21t-185.5 58zM391 1722q0 187 201 187q170 0 170 -125q0 -189 -201 -189q-88 0 -129 31t-41 96zM878 1722q0 187 201 187q168 0 168 -125q0 -97 -49.5 -143 t-149.5 -46q-88 0 -129 31t-41 96z" horiz-adv-x="1260" unicode="Ӟ"/><glyph d="M33 66v294q197 -90 399 -90q227 0 227 95q0 55 -52.5 77.5t-155.5 22.5h-140l54 246h153q116 0 165.5 21t49.5 63q0 41 -28 58t-95 17q-73 0 -170.5 -22t-179.5 -60l-84 279q251 86 490 86q224 0 338 -73.5t114 -215.5q0 -102 -60.5 -168t-191.5 -106v-8 q94 -25 140.5 -84t46.5 -140q0 -182 -155 -280t-439 -98q-141 0 -249.5 24t-176.5 62zM280 1384q0 187 201 187q170 0 170 -125q0 -189 -201 -189q-88 0 -129 31t-41 96zM767 1384q0 187 201 187q168 0 168 -125q0 -97 -49.5 -143t-149.5 -46q-88 0 -129 31t-41 96z" horiz-adv-x="1192" unicode="ӟ"/><glyph d="M0 59v326q70 -43 169.5 -68.5t199.5 -25.5q164 0 231.5 43.5t67.5 134.5q0 75 -62 107t-215 32h-135l53 232l342 303h-420l68 319h903l-51 -245l-387 -349v-8q151 -34 225 -135.5t74 -255.5q0 -234 -167.5 -361.5t-483.5 -127.5q-137 0 -246.5 21t-165.5 58z" horiz-adv-x="1176" unicode="Ӡ"/><glyph d="M-80 -70q82 -51 198 -80.5t218 -29.5q132 0 202 63t70 178q0 96 -77 144.5t-216 48.5h-104l57 283l350 305h-440l64 291h921l-49 -242l-440 -371q170 -50 250 -158t80 -294q0 -266 -178 -413t-490 -147q-246 0 -416 91v331z" horiz-adv-x="1200" unicode="ӡ"/><glyph d="M33 0l309 1462h356l-131 -612q-26 -129 -90 -356h8l664 968h489l-309 -1462h-356l127 606q32 164 92 383h-8l-662 -989h-489zM658 1579l51 236h665l-49 -236h-667z" horiz-adv-x="1628" unicode="Ӣ"/><glyph d="M96 301q0 106 25 229l127 603h387l-129 -617q-19 -82 -19 -141q0 -44 22.5 -65t53.5 -21q59 0 107.5 78.5t77.5 214.5l116 551h387l-239 -1133h-310l13 158h-8q-54 -93 -128.5 -135.5t-183.5 -42.5q-141 0 -220 85.5t-79 235.5zM412 1241l51 236h665l-49 -236h-667z" horiz-adv-x="1274" unicode="ӣ"/><glyph d="M33 0l309 1462h356l-131 -612q-26 -129 -90 -356h8l664 968h489l-309 -1462h-356l127 606q32 164 92 383h-8l-662 -989h-489zM600 1722q0 187 201 187q170 0 170 -125q0 -189 -201 -189q-88 0 -129 31t-41 96zM1087 1722q0 187 201 187q168 0 168 -125q0 -97 -49.5 -143 t-149.5 -46q-88 0 -129 31t-41 96z" horiz-adv-x="1628" unicode="Ӥ"/><glyph d="M96 301q0 106 25 229l127 603h387l-129 -617q-19 -82 -19 -141q0 -44 22.5 -65t53.5 -21q59 0 107.5 78.5t77.5 214.5l116 551h387l-239 -1133h-310l13 158h-8q-54 -93 -128.5 -135.5t-183.5 -42.5q-141 0 -220 85.5t-79 235.5zM359 1384q0 187 201 187q170 0 170 -125 q0 -189 -201 -189q-88 0 -129 31t-41 96zM846 1384q0 187 201 187q168 0 168 -125q0 -97 -49.5 -143t-149.5 -46q-88 0 -129 31t-41 96z" horiz-adv-x="1274" unicode="ӥ"/><glyph d="M104 543q0 265 103 487t280.5 338.5t409.5 116.5q260 0 404.5 -148.5t144.5 -414.5t-99.5 -486.5t-274.5 -338t-406 -117.5q-269 0 -415.5 149t-146.5 414zM500 545q0 -242 200 -242q95 0 176.5 83t128 224t46.5 308q0 114 -48 178.5t-139 64.5q-99 0 -182 -84 t-132.5 -231t-49.5 -301zM512 1722q0 187 201 187q170 0 170 -125q0 -189 -201 -189q-88 0 -129 31t-41 96zM999 1722q0 187 201 187q168 0 168 -125q0 -97 -49.5 -143t-149.5 -46q-88 0 -129 31t-41 96z" horiz-adv-x="1509" unicode="Ӧ"/><glyph d="M84 416q0 210 79.5 379.5t223.5 263.5t336 94q209 0 322.5 -113t113.5 -323t-79.5 -379.5t-223.5 -263.5t-336 -94q-209 0 -322.5 113t-113.5 323zM479 403q0 -133 84 -133q81 0 141 139t60 320q0 66 -23 99.5t-63 33.5q-82 0 -140.5 -139.5t-58.5 -319.5zM317 1384 q0 187 201 187q170 0 170 -125q0 -189 -201 -189q-88 0 -129 31t-41 96zM804 1384q0 187 201 187q168 0 168 -125q0 -97 -49.5 -143t-149.5 -46q-88 0 -129 31t-41 96z" unicode="ӧ"/><glyph d="M104 543q0 265 103 487t280.5 338.5t409.5 116.5q260 0 404.5 -148.5t144.5 -414.5t-99.5 -486.5t-274.5 -338t-406 -117.5q-269 0 -415.5 149t-146.5 414zM479 545q0 -262 221 -262q100 0 186 84.5t136 234.5h-541l-2 -29v-28zM549 905h522q0 133 -53.5 205t-153.5 72 q-96 0 -177.5 -70.5t-137.5 -206.5z" horiz-adv-x="1509" unicode="Ө"/><glyph d="M84 416q0 210 79.5 379.5t223.5 263.5t336 94q209 0 322.5 -113t113.5 -323t-79.5 -379.5t-223.5 -263.5t-336 -94q-209 0 -322.5 113t-113.5 323zM451 403q0 -153 112 -153q55 0 106 53.5t79 140.5h-297v-41zM492 682h301v47q0 77 -30.5 115.5t-84.5 38.5 q-57 0 -108 -55.5t-78 -145.5z" unicode="ө"/><glyph d="M104 543q0 265 103 487t280.5 338.5t409.5 116.5q260 0 404.5 -148.5t144.5 -414.5t-99.5 -486.5t-274.5 -338t-406 -117.5q-269 0 -415.5 149t-146.5 414zM479 545q0 -262 221 -262q100 0 186 84.5t136 234.5h-541l-2 -29v-28zM549 905h522q0 133 -53.5 205t-153.5 72 q-96 0 -177.5 -70.5t-137.5 -206.5zM512 1722q0 187 201 187q170 0 170 -125q0 -189 -201 -189q-88 0 -129 31t-41 96zM999 1722q0 187 201 187q168 0 168 -125q0 -97 -49.5 -143t-149.5 -46q-88 0 -129 31t-41 96z" horiz-adv-x="1509" unicode="Ӫ"/><glyph d="M84 416q0 210 79.5 379.5t223.5 263.5t336 94q209 0 322.5 -113t113.5 -323t-79.5 -379.5t-223.5 -263.5t-336 -94q-209 0 -322.5 113t-113.5 323zM451 403q0 -153 112 -153q55 0 106 53.5t79 140.5h-297v-41zM492 682h301v47q0 77 -30.5 115.5t-84.5 38.5 q-57 0 -108 -55.5t-78 -145.5zM317 1384q0 187 201 187q170 0 170 -125q0 -189 -201 -189q-88 0 -129 31t-41 96zM804 1384q0 187 201 187q168 0 168 -125q0 -97 -49.5 -143t-149.5 -46q-88 0 -129 31t-41 96z" unicode="ӫ"/><glyph d="M31 66v327q76 -42 175 -66t185 -24q138 0 238 74t151 209h-485l67 311h476v16q0 132 -52 189t-170 57q-153 0 -307 -88l-104 313q90 44 223 72.5t258 28.5q262 0 401.5 -147t139.5 -420q0 -184 -62.5 -366t-166.5 -308.5t-250.5 -195t-323.5 -68.5q-245 0 -393 86z M344 1722q0 187 201 187q170 0 170 -125q0 -189 -201 -189q-88 0 -129 31t-41 96zM831 1722q0 187 201 187q168 0 168 -125q0 -97 -49.5 -143t-149.5 -46q-88 0 -129 31t-41 96z" horiz-adv-x="1290" unicode="Ӭ"/><glyph d="M45 37v297q89 -64 231 -64q77 0 138 42.5t98 127.5h-291l51 246h285q-4 184 -125 184q-51 0 -93.5 -15.5t-90.5 -43.5l-98 252q173 90 370 90q206 0 317 -118.5t111 -332.5t-77.5 -378t-224.5 -254t-347 -90q-68 0 -136 14.5t-118 42.5zM163 1384q0 187 201 187 q170 0 170 -125q0 -189 -201 -189q-88 0 -129 31t-41 96zM650 1384q0 187 201 187q168 0 168 -125q0 -97 -49.5 -143t-149.5 -46q-88 0 -129 31t-41 96z" horiz-adv-x="1032" unicode="ӭ"/><glyph d="M68 8v307q99 -24 172 -24q83 0 124.5 24t81.5 105l-280 1042h399l109 -536q10 -48 24 -170h9q22 61 67 164l254 542h432l-637 -1132q-110 -196 -231 -273t-311 -77q-101 0 -213 28zM471 1579l51 236h665l-49 -236h-667z" horiz-adv-x="1280" unicode="Ӯ"/><glyph d="M-129 -168q46 -12 109 -12q87 0 142.5 36.5t98.5 114.5l23 41l-162 1121h389l43 -562l2 -62v-87h8q37 132 50 165.5t239 545.5h416l-670 -1276q-96 -185 -223 -267t-311 -82q-92 0 -154 17v307zM323 1241l51 236h665l-49 -236h-667z" horiz-adv-x="1114" unicode="ӯ"/><glyph d="M68 8v307q99 -24 172 -24q83 0 124.5 24t81.5 105l-280 1042h399l109 -536q10 -48 24 -170h9q22 61 67 164l254 542h432l-637 -1132q-110 -196 -231 -273t-311 -77q-101 0 -213 28zM410 1722q0 187 201 187q170 0 170 -125q0 -189 -201 -189q-88 0 -129 31t-41 96z M897 1722q0 187 201 187q168 0 168 -125q0 -97 -49.5 -143t-149.5 -46q-88 0 -129 31t-41 96z" horiz-adv-x="1280" unicode="Ӱ"/><glyph d="M-129 -168q46 -12 109 -12q87 0 142.5 36.5t98.5 114.5l23 41l-162 1121h389l43 -562l2 -62v-87h8q37 132 50 165.5t239 545.5h416l-670 -1276q-96 -185 -223 -267t-311 -82q-92 0 -154 17v307zM245 1384q0 187 201 187q170 0 170 -125q0 -189 -201 -189q-88 0 -129 31 t-41 96zM732 1384q0 187 201 187q168 0 168 -125q0 -97 -49.5 -143t-149.5 -46q-88 0 -129 31t-41 96z" horiz-adv-x="1114" unicode="ӱ"/><glyph d="M68 8v307q99 -24 172 -24q83 0 124.5 24t81.5 105l-280 1042h399l109 -536q10 -48 24 -170h9q22 61 67 164l254 542h432l-637 -1132q-110 -196 -231 -273t-311 -77q-101 0 -213 28zM440 1579v29q44 53 113.5 146t103.5 153h371v-21q-43 -70 -385 -307h-203zM903 1579v29 l49 67q116 155 158 232h372v-21q-49 -81 -376 -307h-203z" horiz-adv-x="1280" unicode="Ӳ"/><glyph d="M-129 -168q46 -12 109 -12q87 0 142.5 36.5t98.5 114.5l23 41l-162 1121h389l43 -562l2 -62v-87h8q37 132 50 165.5t239 545.5h416l-670 -1276q-96 -185 -223 -267t-311 -82q-92 0 -154 17v307zM258 1241v29q44 53 113.5 146t103.5 153h371v-21q-43 -70 -385 -307h-203z M721 1241v29l49 67q116 155 158 232h372v-21q-49 -81 -376 -307h-203z" horiz-adv-x="1114" unicode="ӳ"/></font>
</defs>
</svg>
