<svg xmlns="http://www.w3.org/2000/svg"><metadata>This is a custom SVG webfont generated by Font Squirrel. Copyright : Digitized data copyright 20102011 Google Corporation Foundry : Ascender Corporation Foundry URL : httpwwwascendercorpcom</metadata><defs><font id="OpenSansBold" horiz-adv-x="1169"><font-face ascent="1638" descent="-410" units-per-em="2048"/><glyph d="M41 889v147l168 82v82q0 191 94 279t301 88q158 0 281 -47l-78 -224q-92 29 -170 29q-65 0 -94 -38.5t-29 -98.5v-70h264v-229h-264v-889h-305v889h-168zM834 889v147l168 82v82q0 191 94 279t301 88q158 0 281 -47l-78 -224q-92 29 -170 29q-65 0 -94 -38.5t-29 -98.5 v-70h264v-229h-264v-889h-305v889h-168z" horiz-adv-x="1585" unicode="ﬀ"/><glyph d="M41 889v147l168 82v82q0 191 94 279t301 88q158 0 281 -47l-78 -224q-92 29 -170 29q-65 0 -94 -38.5t-29 -98.5v-70h264v-229h-264v-889h-305v889h-168zM940 1407q0 149 166 149t166 -149q0 -71 -41.5 -110.5t-124.5 -39.5q-166 0 -166 150zM953 0v1118h305v-1118h-305z" horiz-adv-x="1417" unicode="ﬁ"/><glyph d="M41 889v147l168 82v82q0 191 94 279t301 88q158 0 281 -47l-78 -224q-92 29 -170 29q-65 0 -94 -38.5t-29 -98.5v-70h264v-229h-264v-889h-305v889h-168zM953 0v1556h305v-1556h-305z" horiz-adv-x="1417" unicode="ﬂ"/><glyph d="M41 889v147l168 82v82q0 191 94 279t301 88q158 0 281 -47l-78 -224q-92 29 -170 29q-65 0 -94 -38.5t-29 -98.5v-70h264v-229h-264v-889h-305v889h-168zM834 889v147l168 82v82q0 191 94 279t301 88q158 0 281 -47l-78 -224q-92 29 -170 29q-65 0 -94 -38.5t-29 -98.5 v-70h264v-229h-264v-889h-305v889h-168zM1730 1407q0 149 166 149t166 -149q0 -71 -41.5 -110.5t-124.5 -39.5q-166 0 -166 150zM1743 0v1118h305v-1118h-305z" horiz-adv-x="2208" unicode="ﬃ"/><glyph d="M41 889v147l168 82v82q0 191 94 279t301 88q158 0 281 -47l-78 -224q-92 29 -170 29q-65 0 -94 -38.5t-29 -98.5v-70h264v-229h-264v-889h-305v889h-168zM834 889v147l168 82v82q0 191 94 279t301 88q158 0 281 -47l-78 -224q-92 29 -170 29q-65 0 -94 -38.5t-29 -98.5 v-70h264v-229h-264v-889h-305v889h-168zM1743 0v1556h305v-1556h-305z" horiz-adv-x="2208" unicode="ﬄ"/><glyph horiz-adv-x="532"/><glyph horiz-adv-x="532"/><glyph horiz-adv-x="532"/><glyph d="M117 143q0 84 45 127t131 43q83 0 128.5 -44t45.5 -126q0 -79 -46 -124.5t-128 -45.5q-84 0 -130 44.5t-46 125.5zM121 1462h346l-51 -977h-244z" horiz-adv-x="586" unicode="!"/><glyph d="M133 1462h279l-41 -528h-197zM555 1462h279l-41 -528h-197z" horiz-adv-x="967" unicode="&quot;"/><glyph d="M45 406v206h277l47 232h-252v209h289l77 407h219l-77 -407h198l78 407h215l-78 -407h240v-209h-279l-47 -232h258v-206h-297l-77 -406h-220l78 406h-194l-76 -406h-215l74 406h-238zM539 612h196l47 232h-196z" horiz-adv-x="1323" unicode="#"/><glyph d="M88 1049q0 145 113.5 238.5t316.5 113.5v153h137v-149q229 -10 414 -92l-94 -234q-156 64 -320 78v-295q195 -75 277.5 -130t121 -121t38.5 -154q0 -159 -115 -255.5t-322 -115.5v-205h-137v201q-244 5 -428 86v264q87 -43 209.5 -76t218.5 -39v310l-67 26 q-198 78 -280.5 169.5t-82.5 226.5zM389 1049q0 -44 30.5 -72.5t98.5 -58.5v235q-129 -19 -129 -104zM655 324q136 23 136 118q0 42 -34 71t-102 60v-249z" unicode="$"/><glyph d="M63 1026q0 457 345 457q169 0 259.5 -118.5t90.5 -338.5q0 -230 -89 -345.5t-261 -115.5q-165 0 -255 118.5t-90 342.5zM315 1024q0 -127 22.5 -189.5t72.5 -62.5q96 0 96 252q0 250 -96 250q-50 0 -72.5 -61.5t-22.5 -188.5zM395 0l811 1462h240l-811 -1462h-240z M1087 442q0 457 345 457q169 0 259.5 -118.5t90.5 -338.5q0 -229 -89 -344.5t-261 -115.5q-165 0 -255 118.5t-90 341.5zM1339 440q0 -127 22.5 -189.5t72.5 -62.5q96 0 96 252q0 250 -96 250q-50 0 -72.5 -61.5t-22.5 -188.5z" horiz-adv-x="1845" unicode="%"/><glyph d="M82 395q0 137 60.5 233.5t207.5 180.5q-75 86 -109 164.5t-34 171.5q0 152 116.5 245t311.5 93q186 0 297.5 -86.5t111.5 -231.5q0 -119 -69 -217.5t-223 -187.5l284 -277q71 117 123 301h318q-36 -135 -99 -263.5t-143 -227.5l301 -293h-377l-115 113 q-191 -133 -432 -133q-244 0 -387 112t-143 303zM403 424q0 -86 64.5 -137t165.5 -51q126 0 227 61l-332 330q-58 -44 -91.5 -92t-33.5 -111zM489 1124q0 -88 95 -194q86 48 132 94.5t46 108.5q0 53 -36 83.5t-93 30.5q-67 0 -105.5 -32t-38.5 -91z" horiz-adv-x="1536" unicode="&amp;"/><glyph d="M133 1462h279l-41 -528h-197z" horiz-adv-x="545" unicode="'"/><glyph d="M82 561q0 265 77.5 496t223.5 405h250q-141 -193 -213 -424t-72 -475q0 -245 73.5 -473.5t209.5 -413.5h-248q-147 170 -224 397t-77 488z" horiz-adv-x="694" unicode="("/><glyph d="M61 1462h250q147 -175 224 -406.5t77 -494.5t-77.5 -490t-223.5 -395h-248q135 184 209 412.5t74 474.5q0 244 -72 475t-213 424z" horiz-adv-x="694" unicode=")"/><glyph d="M63 1042l39 250l365 -104l-41 368h262l-41 -368l373 104l33 -252l-340 -24l223 -297l-227 -121l-156 313l-137 -311l-236 119l221 297z" horiz-adv-x="1116" unicode="*"/><glyph d="M88 612v219h387v390h219v-390h387v-219h-387v-385h-219v385h-387z" unicode="+"/><glyph d="M63 -264q65 266 101 502h280l15 -23q-52 -202 -176 -479h-220z" horiz-adv-x="594" unicode=","/><glyph d="M61 424v250h537v-250h-537z" horiz-adv-x="659" unicode="-"/><glyph d="M117 143q0 84 45 127t131 43q83 0 128.5 -44t45.5 -126q0 -79 -46 -124.5t-128 -45.5q-84 0 -130 44.5t-46 125.5z" horiz-adv-x="584" unicode="."/><glyph d="M14 0l545 1462h277l-545 -1462h-277z" horiz-adv-x="846" unicode="/"/><glyph d="M74 731q0 387 125 570.5t385 183.5q253 0 382.5 -192t129.5 -562q0 -383 -125.5 -567t-386.5 -184q-253 0 -381.5 190t-128.5 561zM381 731q0 -269 46.5 -385.5t156.5 -116.5q108 0 156 118t48 384q0 269 -48.5 386.5t-155.5 117.5q-109 0 -156 -117.5t-47 -386.5z" unicode="0"/><glyph d="M121 1087l471 375h254v-1462h-309v846l3 139l5 152q-77 -77 -107 -101l-168 -135z" unicode="1"/><glyph d="M78 1274q108 92 179 130t155 58.5t188 20.5q137 0 242 -50t163 -140t58 -206q0 -101 -35.5 -189.5t-110 -181.5t-262.5 -265l-188 -177v-14h637v-260h-1022v215l367 371q163 167 213 231.5t72 119.5t22 114q0 88 -48.5 131t-129.5 43q-85 0 -165 -39t-167 -111z" unicode="2"/><glyph d="M78 59v263q85 -43 187 -70t202 -27q153 0 226 52t73 167q0 103 -84 146t-268 43h-111v237h113q170 0 248.5 44.5t78.5 152.5q0 166 -208 166q-72 0 -146.5 -24t-165.5 -83l-143 213q200 144 477 144q227 0 358.5 -92t131.5 -256q0 -137 -83 -233t-233 -132v-6 q177 -22 268 -107.5t91 -230.5q0 -211 -153 -328.5t-437 -117.5q-238 0 -422 79z" unicode="3"/><glyph d="M35 303v215l641 944h285v-919h176v-240h-176v-303h-302v303h-624zM307 543h352v248q0 62 5 180t8 137h-8q-37 -82 -89 -160z" unicode="4"/><glyph d="M100 59v267q79 -42 184 -68.5t199 -26.5q283 0 283 232q0 221 -293 221q-53 0 -117 -10.5t-104 -22.5l-123 66l55 745h793v-262h-522l-27 -287l35 7q61 14 151 14q212 0 337.5 -119t125.5 -326q0 -245 -151 -377t-432 -132q-244 0 -394 79z" unicode="5"/><glyph d="M72 621q0 434 183.5 646t549.5 212q125 0 196 -15v-247q-89 20 -176 20q-159 0 -259.5 -48t-150.5 -142t-59 -267h13q99 170 317 170q196 0 307 -123t111 -340q0 -234 -132 -370.5t-366 -136.5q-162 0 -282.5 75t-186 219t-65.5 347zM379 510q0 -119 62.5 -201t158.5 -82 q99 0 152 66.5t53 189.5q0 107 -49.5 168.5t-149.5 61.5q-94 0 -160.5 -61t-66.5 -142z" unicode="6"/><glyph d="M55 1200v260h1049v-194l-553 -1266h-324l549 1200h-721z" unicode="7"/><glyph d="M72 371q0 125 66.5 222t213.5 171q-125 79 -180 169t-55 197q0 157 130 254t339 97q210 0 338.5 -95.5t128.5 -257.5q0 -112 -62 -199.5t-200 -156.5q164 -88 235.5 -183.5t71.5 -209.5q0 -180 -141 -289.5t-371 -109.5q-240 0 -377 102t-137 289zM358 389q0 -86 60 -134 t164 -48q115 0 172 49.5t57 130.5q0 67 -56.5 125.5t-183.5 124.5q-213 -98 -213 -248zM408 1106q0 -60 38.5 -107.5t139.5 -97.5q98 46 137 94t39 111q0 69 -50 109t-128 40q-79 0 -127.5 -40.5t-48.5 -108.5z" unicode="8"/><glyph d="M66 971q0 235 133.5 371.5t363.5 136.5q162 0 283.5 -76t186.5 -220.5t65 -344.5q0 -432 -182 -645t-551 -213q-130 0 -197 14v248q84 -21 176 -21q155 0 255 45.5t153 143t61 268.5h-12q-58 -94 -134 -132t-190 -38q-191 0 -301 122.5t-110 340.5zM365 975 q0 -106 49 -168t149 -62q94 0 161 61.5t67 141.5q0 119 -62.5 201t-159.5 82q-96 0 -150 -66t-54 -190z" unicode="9"/><glyph d="M117 143q0 84 45 127t131 43q83 0 128.5 -44t45.5 -126q0 -79 -46 -124.5t-128 -45.5q-84 0 -130 44.5t-46 125.5zM117 969q0 84 45 127t131 43q83 0 128.5 -44t45.5 -126q0 -81 -46.5 -125.5t-127.5 -44.5q-84 0 -130 44t-46 126z" horiz-adv-x="584" unicode=":"/><glyph d="M63 -264q65 266 101 502h280l15 -23q-52 -202 -176 -479h-220zM117 969q0 84 45 127t131 43q83 0 128.5 -44t45.5 -126q0 -81 -46.5 -125.5t-127.5 -44.5q-84 0 -130 44t-46 126z" horiz-adv-x="594" unicode=";"/><glyph d="M88 641v143l993 496v-240l-684 -317l684 -281v-239z" unicode="&lt;"/><glyph d="M88 418v219h993v-219h-993zM88 805v219h993v-219h-993z" unicode="="/><glyph d="M88 203v239l684 281l-684 317v240l993 -496v-143z" unicode="&gt;"/><glyph d="M6 1358q223 125 473 125q206 0 327.5 -99t121.5 -264q0 -110 -50 -190t-190 -180q-96 -71 -121.5 -108t-25.5 -97v-60h-265v74q0 96 41 167t150 151q105 75 138.5 122t33.5 105q0 65 -48 99t-134 34q-150 0 -342 -98zM244 143q0 84 45 127t131 43q83 0 128.5 -44 t45.5 -126q0 -79 -46 -124.5t-128 -45.5q-84 0 -130 44.5t-46 125.5z" horiz-adv-x="977" unicode="?"/><glyph d="M102 602q0 247 108.5 448.5t309 316t461.5 114.5q220 0 393 -90t267 -256t94 -383q0 -144 -46 -263.5t-130 -187.5t-195 -68q-74 0 -131 35.5t-82 93.5h-16q-108 -129 -275 -129q-177 0 -279 106.5t-102 291.5q0 211 134 340t350 129q86 0 189.5 -16.5t170.5 -39.5 l-23 -489q0 -139 76 -139q64 0 102 93.5t38 244.5q0 161 -67 284.5t-188.5 188.5t-277.5 65q-202 0 -351 -83t-228.5 -239.5t-79.5 -361.5q0 -276 147.5 -423.5t427.5 -147.5q106 0 233 23.5t250 68.5v-192q-214 -91 -475 -91q-380 0 -592.5 200t-212.5 556zM711 627 q0 -211 172 -211q90 0 137 63.5t57 206.5l13 221q-51 11 -115 11q-125 0 -194.5 -78t-69.5 -213z" horiz-adv-x="1837" unicode="@"/><glyph d="M0 0l516 1468h379l518 -1468h-334l-106 348h-533l-106 -348h-334zM518 608h381q-147 473 -165.5 535t-26.5 98q-33 -128 -189 -633z" horiz-adv-x="1413" unicode="A"/><glyph d="M184 0v1462h455q311 0 451.5 -88.5t140.5 -281.5q0 -131 -61.5 -215t-163.5 -101v-10q139 -31 200.5 -116t61.5 -226q0 -200 -144.5 -312t-392.5 -112h-547zM494 256h202q128 0 189 49t61 150q0 182 -260 182h-192v-381zM494 883h180q126 0 182.5 39t56.5 129 q0 84 -61.5 120.5t-194.5 36.5h-163v-325z" horiz-adv-x="1376" unicode="B"/><glyph d="M119 729q0 228 83 399.5t238.5 263t364.5 91.5q213 0 428 -103l-100 -252q-82 39 -165 68t-163 29q-175 0 -271 -131.5t-96 -366.5q0 -489 367 -489q154 0 373 77v-260q-180 -75 -402 -75q-319 0 -488 193.5t-169 555.5z" horiz-adv-x="1305" unicode="C"/><glyph d="M184 0v1462h459q358 0 556 -189t198 -528q0 -361 -205.5 -553t-593.5 -192h-414zM494 256h133q448 0 448 481q0 471 -416 471h-165v-952z" horiz-adv-x="1516" unicode="D"/><glyph d="M184 0v1462h842v-254h-532v-321h495v-254h-495v-377h532v-256h-842z" horiz-adv-x="1147" unicode="E"/><glyph d="M184 0v1462h838v-254h-533v-377h496v-253h-496v-578h-305z" horiz-adv-x="1124" unicode="F"/><glyph d="M119 733q0 354 202.5 552t561.5 198q225 0 434 -90l-103 -248q-160 80 -333 80q-201 0 -322 -135t-121 -363q0 -238 97.5 -363.5t283.5 -125.5q97 0 197 20v305h-277v258h580v-758q-141 -46 -265.5 -64.5t-254.5 -18.5q-331 0 -505.5 194.5t-174.5 558.5z" horiz-adv-x="1483" unicode="G"/><glyph d="M184 0v1462h310v-573h579v573h309v-1462h-309v631h-579v-631h-310z" horiz-adv-x="1567" unicode="H"/><glyph d="M184 0v1462h310v-1462h-310z" horiz-adv-x="678" unicode="I"/><glyph d="M-152 -150q80 -20 146 -20q102 0 146 63.5t44 198.5v1370h310v-1368q0 -256 -117 -390t-346 -134q-105 0 -183 22v258z" horiz-adv-x="678" unicode="J"/><glyph d="M184 0v1462h310v-669l122 172l396 497h344l-510 -647l514 -815h-352l-383 616l-131 -94v-522h-310z" horiz-adv-x="1360" unicode="K"/><glyph d="M184 0v1462h310v-1206h593v-256h-903z" horiz-adv-x="1157" unicode="L"/><glyph d="M184 0v1462h422l346 -1118h6l367 1118h422v-1462h-289v692q0 49 1.5 113t13.5 340h-9l-377 -1145h-284l-352 1147h-9q19 -350 19 -467v-680h-277z" horiz-adv-x="1931" unicode="M"/><glyph d="M184 0v1462h391l635 -1095h7q-15 285 -15 403v692h279v-1462h-394l-636 1106h-9q19 -293 19 -418v-688h-277z" horiz-adv-x="1665" unicode="N"/><glyph d="M119 735q0 365 180.5 557.5t517.5 192.5t515.5 -194t178.5 -558q0 -363 -180 -558t-516 -195t-516 195t-180 560zM444 733q0 -245 93 -369t278 -124q371 0 371 493q0 494 -369 494q-185 0 -279 -124.5t-94 -369.5z" horiz-adv-x="1630" unicode="O"/><glyph d="M184 0v1462h467q266 0 404.5 -114.5t138.5 -341.5q0 -236 -147.5 -361t-419.5 -125h-133v-520h-310zM494 774h102q143 0 214 56.5t71 164.5q0 109 -59.5 161t-186.5 52h-141v-434z" horiz-adv-x="1286" unicode="P"/><glyph d="M119 735q0 365 180.5 557.5t517.5 192.5t515.5 -194t178.5 -558q0 -258 -91.5 -432.5t-268.5 -255.5l352 -393h-397l-268 328h-23q-336 0 -516 195t-180 560zM444 733q0 -245 93 -369t278 -124q371 0 371 493q0 494 -369 494q-185 0 -279 -124.5t-94 -369.5z" horiz-adv-x="1630" unicode="Q"/><glyph d="M184 0v1462h426q298 0 441 -108.5t143 -329.5q0 -129 -71 -229.5t-201 -157.5q330 -493 430 -637h-344l-349 561h-165v-561h-310zM494 813h100q147 0 217 49t70 154q0 104 -71.5 148t-221.5 44h-94v-395z" horiz-adv-x="1352" unicode="R"/><glyph d="M94 68v288q148 -66 250.5 -93t187.5 -27q102 0 156.5 39t54.5 116q0 43 -24 76.5t-70.5 64.5t-189.5 99q-134 63 -201 121t-107 135t-40 180q0 194 131.5 305t363.5 111q114 0 217.5 -27t216.5 -76l-100 -241q-117 48 -193.5 67t-150.5 19q-88 0 -135 -41t-47 -107 q0 -41 19 -71.5t60.5 -59t196.5 -102.5q205 -98 281 -196.5t76 -241.5q0 -198 -142.5 -312t-396.5 -114q-234 0 -414 88z" horiz-adv-x="1128" unicode="S"/><glyph d="M41 1204v258h1104v-258h-397v-1204h-310v1204h-397z" horiz-adv-x="1186" unicode="T"/><glyph d="M174 520v942h309v-895q0 -169 68 -248t225 -79q152 0 220.5 79.5t68.5 249.5v893h309v-946q0 -162 -72.5 -284t-209.5 -187t-324 -65q-282 0 -438 144.5t-156 395.5z" horiz-adv-x="1548" unicode="U"/><glyph d="M0 1462h313l275 -870q23 -77 47.5 -179.5t30.5 -142.5q11 92 75 322l277 870h313l-497 -1462h-338z" horiz-adv-x="1331" unicode="V"/><glyph d="M0 1462h305l187 -798q49 -221 71 -383q6 57 27.5 176.5t40.5 185.5l213 819h293l213 -819q14 -55 35 -168t32 -194q10 78 32 194.5t40 188.5l186 798h305l-372 -1462h-353l-198 768q-11 41 -37.5 169.5t-30.5 172.5q-6 -54 -30 -173.5t-37 -170.5l-197 -766h-352z" horiz-adv-x="1980" unicode="W"/><glyph d="M0 0l485 754l-454 708h342l315 -526l309 526h334l-459 -725l494 -737h-354l-340 553l-340 -553h-332z" horiz-adv-x="1366" unicode="X"/><glyph d="M0 1462h336l303 -602l305 602h334l-485 -893v-569h-308v559z" horiz-adv-x="1278" unicode="Y"/><glyph d="M49 0v201l701 1005h-682v256h1050v-200l-700 -1006h719v-256h-1088z" horiz-adv-x="1186" unicode="Z"/><glyph d="M143 -324v1786h484v-211h-224v-1364h224v-211h-484z" horiz-adv-x="678" unicode="["/><glyph d="M12 1462h277l545 -1462h-277z" horiz-adv-x="846" unicode="\"/><glyph d="M51 -113h223v1364h-223v211h484v-1786h-484v211z" horiz-adv-x="678" unicode="]"/><glyph d="M8 520l438 950h144l495 -950h-239l-322 643l-280 -643h-236z" horiz-adv-x="1090" unicode="^"/><glyph d="M-4 -184h850v-140h-850v140z" horiz-adv-x="842" unicode="_"/><glyph d="M332 1548v21h342q63 -101 235 -301v-27h-202q-63 44 -185 142.5t-190 164.5z" horiz-adv-x="1243" unicode="`"/><glyph d="M86 334q0 178 124.5 262.5t375.5 93.5l194 6v49q0 170 -174 170q-134 0 -315 -81l-101 206q193 101 428 101q225 0 345 -98t120 -298v-745h-213l-59 152h-8q-77 -97 -158.5 -134.5t-212.5 -37.5q-161 0 -253.5 92t-92.5 262zM399 332q0 -129 148 -129q106 0 169.5 61 t63.5 162v92l-118 -4q-133 -4 -198 -48t-65 -134z" horiz-adv-x="1237" unicode="a"/><glyph d="M160 0v1556h305v-362q0 -69 -12 -221h12q107 166 317 166q198 0 310 -154.5t112 -423.5q0 -277 -115.5 -429t-314.5 -152q-197 0 -309 143h-21l-51 -123h-233zM465 563q0 -180 53.5 -258t169.5 -78q94 0 149.5 86.5t55.5 251.5t-56 247.5t-153 82.5q-113 0 -165 -69.5 t-54 -229.5v-33z" horiz-adv-x="1296" unicode="b"/><glyph d="M92 553q0 285 142 435.5t407 150.5q194 0 348 -76l-90 -236q-72 29 -134 47.5t-124 18.5q-238 0 -238 -338q0 -328 238 -328q88 0 163 23.5t150 73.5v-261q-74 -47 -149.5 -65t-190.5 -18q-522 0 -522 573z" horiz-adv-x="1053" unicode="c"/><glyph d="M92 557q0 275 114.5 428.5t315.5 153.5q211 0 322 -164h10q-23 125 -23 223v358h306v-1556h-234l-59 145h-13q-104 -165 -317 -165q-197 0 -309.5 153t-112.5 424zM401 553q0 -165 57 -247.5t163 -82.5q117 0 171.5 68t59.5 231v33q0 180 -55.5 258t-180.5 78 q-102 0 -158.5 -86.5t-56.5 -251.5z" horiz-adv-x="1296" unicode="d"/><glyph d="M92 551q0 281 140.5 434.5t388.5 153.5q237 0 369 -135t132 -373v-148h-721q5 -130 77 -203t202 -73q101 0 191 21t188 67v-236q-80 -40 -171 -59.5t-222 -19.5q-270 0 -422 149t-152 422zM408 686h428q-2 113 -59 174.5t-154 61.5t-152 -61.5t-63 -174.5z" horiz-adv-x="1210" unicode="e"/><glyph d="M41 889v147l168 82v82q0 191 94 279t301 88q158 0 281 -47l-78 -224q-92 29 -170 29q-65 0 -94 -38.5t-29 -98.5v-70h264v-229h-264v-889h-305v889h-168z" horiz-adv-x="793" unicode="f"/><glyph d="M6 -182q0 101 63 169t185 97q-47 20 -82 65.5t-35 96.5q0 64 37 106.5t107 83.5q-88 38 -139.5 122t-51.5 198q0 183 119 283t340 100q47 0 111.5 -8.5t82.5 -12.5h390v-155l-175 -45q48 -75 48 -168q0 -180 -125.5 -280.5t-348.5 -100.5l-55 3l-45 5q-47 -36 -47 -80 q0 -66 168 -66h190q184 0 280.5 -79t96.5 -232q0 -196 -163.5 -304t-469.5 -108q-234 0 -357.5 81.5t-123.5 228.5zM270 -158q0 -63 60.5 -99t169.5 -36q164 0 257 45t93 123q0 63 -55 87t-170 24h-158q-84 0 -140.5 -39.5t-56.5 -104.5zM381 752q0 -91 41.5 -144t126.5 -53 q86 0 126 53t40 144q0 202 -166 202q-168 0 -168 -202z" horiz-adv-x="1157" unicode="g"/><glyph d="M160 0v1556h305v-317q0 -37 -7 -174l-7 -90h16q102 164 324 164q197 0 299 -106t102 -304v-729h-305v653q0 242 -180 242q-128 0 -185 -87t-57 -282v-526h-305z" horiz-adv-x="1346" unicode="h"/><glyph d="M147 1407q0 149 166 149t166 -149q0 -71 -41.5 -110.5t-124.5 -39.5q-166 0 -166 150zM160 0v1118h305v-1118h-305z" horiz-adv-x="625" unicode="i"/><glyph d="M-131 -227q70 -19 143 -19q77 0 112.5 43t35.5 127v1194h305v-1239q0 -178 -103 -274.5t-292 -96.5q-117 0 -201 25v240zM147 1407q0 149 166 149t166 -149q0 -71 -41.5 -110.5t-124.5 -39.5q-166 0 -166 150z" horiz-adv-x="625" unicode="j"/><glyph d="M160 0v1556h305v-694l-16 -254h4l133 170l313 340h344l-444 -485l471 -633h-352l-322 453l-131 -105v-348h-305z" horiz-adv-x="1270" unicode="k"/><glyph d="M160 0v1556h305v-1556h-305z" horiz-adv-x="625" unicode="l"/><glyph d="M160 0v1118h233l41 -143h17q45 77 130 120.5t195 43.5q251 0 340 -164h27q45 78 132.5 121t197.5 43q190 0 287.5 -97.5t97.5 -312.5v-729h-306v653q0 121 -40.5 181.5t-127.5 60.5q-112 0 -167.5 -80t-55.5 -254v-561h-305v653q0 121 -40.5 181.5t-127.5 60.5 q-117 0 -170 -86t-53 -283v-526h-305z" horiz-adv-x="2011" unicode="m"/><glyph d="M160 0v1118h233l41 -143h17q51 81 140.5 122.5t203.5 41.5q195 0 296 -105.5t101 -304.5v-729h-305v653q0 121 -43 181.5t-137 60.5q-128 0 -185 -85.5t-57 -283.5v-526h-305z" horiz-adv-x="1346" unicode="n"/><glyph d="M92 561q0 274 143 426t402 152q161 0 284 -70t189 -201t66 -307q0 -273 -144 -427t-401 -154q-161 0 -284 70.5t-189 202.5t-66 308zM403 561q0 -166 54.5 -251t177.5 -85q122 0 175.5 84.5t53.5 251.5q0 166 -54 249t-177 83q-122 0 -176 -82.5t-54 -249.5z" horiz-adv-x="1268" unicode="o"/><glyph d="M160 -492v1610h248l43 -145h14q107 166 317 166q198 0 310 -153t112 -425q0 -179 -52.5 -311t-149.5 -201t-228 -69q-197 0 -309 143h-16q16 -140 16 -162v-453h-305zM465 563q0 -180 53.5 -258t169.5 -78q205 0 205 338q0 165 -50.5 247.5t-158.5 82.5 q-113 0 -165 -69.5t-54 -229.5v-33z" horiz-adv-x="1296" unicode="p"/><glyph d="M92 557q0 274 114.5 428t313.5 154q106 0 185 -40t139 -124h8l27 143h258v-1610h-306v469q0 61 13 168h-13q-49 -81 -130 -123t-187 -42q-198 0 -310 152.5t-112 424.5zM403 553q0 -168 53.5 -251t166.5 -83q116 0 170 66.5t59 232.5v37q0 180 -55.5 258t-178.5 78 q-215 0 -215 -338z" horiz-adv-x="1296" unicode="q"/><glyph d="M160 0v1118h231l45 -188h15q52 94 140.5 151.5t192.5 57.5q62 0 103 -9l-23 -286q-37 10 -90 10q-146 0 -227.5 -75t-81.5 -210v-569h-305z" horiz-adv-x="930" unicode="r"/><glyph d="M92 827q0 149 115.5 230.5t327.5 81.5q202 0 393 -88l-92 -220q-84 36 -157 59t-149 23q-135 0 -135 -73q0 -41 43.5 -71t190.5 -89q131 -53 192 -99t90 -106t29 -143q0 -172 -119.5 -262t-357.5 -90q-122 0 -208 16.5t-161 48.5v252q85 -40 191.5 -67t187.5 -27 q166 0 166 96q0 36 -22 58.5t-76 51t-144 66.5q-129 54 -189.5 100t-88 105.5t-27.5 146.5z" horiz-adv-x="1018" unicode="s"/><glyph d="M47 889v129l168 102l88 236h195v-238h313v-229h-313v-539q0 -65 36.5 -96t96.5 -31q80 0 192 35v-227q-114 -51 -280 -51q-183 0 -266.5 92.5t-83.5 277.5v539h-146z" horiz-adv-x="889" unicode="t"/><glyph d="M154 389v729h305v-653q0 -121 43 -181.5t137 -60.5q128 0 185 85.5t57 283.5v526h305v-1118h-234l-41 143h-16q-49 -78 -139 -120.5t-205 -42.5q-197 0 -297 105.5t-100 303.5z" horiz-adv-x="1346" unicode="u"/><glyph d="M0 1118h319l216 -637q36 -121 45 -229h6q5 96 45 229l215 637h319l-426 -1118h-313z" horiz-adv-x="1165" unicode="v"/><glyph d="M20 1118h304l129 -495q31 -133 63 -367h6q4 76 35 241l16 85l138 536h336l131 -536q4 -22 12.5 -65t16.5 -91.5t14.5 -95t7.5 -74.5h6q9 72 32 197.5t33 169.5l134 495h299l-322 -1118h-332l-86 391l-116 494h-7l-204 -885h-328z" horiz-adv-x="1753" unicode="w"/><glyph d="M10 0l379 571l-360 547h346l217 -356l219 356h346l-364 -547l381 -571h-347l-235 383l-236 -383h-346z" horiz-adv-x="1184" unicode="x"/><glyph d="M0 1118h334l211 -629q27 -82 37 -194h6q11 103 43 194l207 629h327l-473 -1261q-65 -175 -185.5 -262t-281.5 -87q-79 0 -155 17v242q55 -13 120 -13q81 0 141.5 49.5t94.5 149.5l18 55z" horiz-adv-x="1165" unicode="y"/><glyph d="M55 0v180l518 705h-487v233h834v-198l-504 -687h522v-233h-883z" horiz-adv-x="999" unicode="z"/><glyph d="M31 449v239q126 0 191 44t65 126v8v318q0 153 97 215.5t341 62.5v-225q-99 -3 -136.5 -38t-37.5 -103v-299q-6 -188 -234 -222v-12q234 -35 234 -212v-9v-299q0 -68 37 -103t137 -38v-226q-244 0 -341 62.5t-97 216.5v315q0 87 -65.5 133t-190.5 46z" horiz-adv-x="807" unicode="{"/><glyph d="M455 -465v2015h219v-2015h-219z" horiz-adv-x="1128" unicode="|"/><glyph d="M82 -98q99 2 136.5 36t37.5 105v299v11q0 86 59 139.5t174 70.5v12q-227 34 -233 222v299q0 70 -37 104t-137 37v225q167 0 262 -26.5t135.5 -84t40.5 -167.5v-318v-10q0 -84 61.5 -126t194.5 -42v-239q-125 0 -190.5 -41t-65.5 -138v-315q0 -112 -41 -169t-135.5 -83.5 t-261.5 -26.5v226z" horiz-adv-x="807" unicode="}"/><glyph d="M88 551v231q103 109 256 109q73 0 137.5 -16t139.5 -48q129 -55 227 -55q53 0 116 32t117 89v-231q-101 -109 -256 -109q-66 0 -126 13t-150 50q-131 56 -227 56q-55 0 -117.5 -33.5t-116.5 -87.5z" unicode="~"/><glyph d="M117 -369l51 975h244l51 -975h-346zM117 948q0 81 46.5 125.5t127.5 44.5q84 0 130 -44t46 -126q0 -84 -45 -127t-131 -43q-83 0 -128.5 44t-45.5 126z" horiz-adv-x="586" unicode="¡"/><glyph d="M143 741q0 261 104.5 403t315.5 173v166h178v-158q166 -9 299 -74l-90 -235q-72 29 -134 47t-124 18q-121 0 -179 -83.5t-58 -254.5q0 -327 237 -327q82 0 148 15.5t166 60.5v-254q-127 -61 -265 -70v-188h-178v196q-420 59 -420 565z" unicode="¢"/><glyph d="M82 0v248q103 44 141.5 101t38.5 157v145h-178v219h178v195q0 201 114.5 309.5t323.5 108.5q195 0 390 -82l-93 -230q-157 64 -272 64q-78 0 -120 -44.5t-42 -127.5v-193h375v-219h-375v-143q0 -170 -151 -248h718v-260h-1048z" unicode="£"/><glyph d="M113 1047l147 147l127 -127q91 53 197 53q105 0 196 -55l127 129l150 -143l-129 -129q53 -89 53 -199q0 -107 -53 -199l125 -125l-146 -145l-127 125q-95 -51 -196 -51q-115 0 -199 51l-125 -123l-145 145l127 125q-54 93 -54 197q0 102 54 197zM395 723 q0 -77 54.5 -132.5t134.5 -55.5q81 0 136.5 55t55.5 133q0 80 -56.5 135t-135.5 55q-78 0 -133.5 -56t-55.5 -134z" unicode="¤"/><glyph d="M6 1462h316l262 -602l264 602h313l-383 -747h195v-178h-246v-138h246v-178h-246v-221h-287v221h-247v178h247v138h-247v178h190z" unicode="¥"/><glyph d="M455 350h219v-815h-219v815zM455 735v815h219v-815h-219z" horiz-adv-x="1128" unicode="¦"/><glyph d="M106 59v207q81 -41 180 -69.5t169 -28.5q194 0 194 117q0 39 -18.5 63t-63.5 49.5t-125 59.5q-183 74 -252 152.5t-69 195.5q0 79 36 144.5t97 105.5q-133 84 -133 233q0 131 111.5 210t293.5 79q170 0 363 -84l-82 -190q-68 32 -138.5 57.5t-148.5 25.5q-81 0 -118 -23 t-37 -71q0 -49 49.5 -86t163.5 -82q163 -64 240 -148.5t77 -193.5q0 -177 -125 -260q62 -40 93.5 -92.5t31.5 -126.5q0 -148 -119.5 -235.5t-320.5 -87.5q-203 0 -349 79zM344 827q0 -67 65 -119t181 -98q78 57 78 146q0 68 -50.5 115t-183.5 96q-37 -14 -63.5 -53.5 t-26.5 -86.5z" horiz-adv-x="995" unicode="§"/><glyph d="M279 1405q0 65 37.5 100t101.5 35q66 0 103.5 -37t37.5 -98q0 -60 -38 -96.5t-103 -36.5q-64 0 -101.5 35t-37.5 98zM682 1405q0 70 40.5 102.5t100.5 32.5q65 0 103.5 -36t38.5 -99q0 -61 -39 -97t-103 -36q-60 0 -100.5 32.5t-40.5 100.5z" horiz-adv-x="1243" unicode="¨"/><glyph d="M100 731q0 200 100 375t275 276t377 101q200 0 375 -100t276 -275t101 -377q0 -197 -97 -370t-272 -277t-383 -104q-207 0 -382 103.5t-272.5 276.5t-97.5 371zM242 731q0 -164 82 -305.5t224 -223t304 -81.5q164 0 305.5 82t223 224t81.5 304q0 164 -82 305.5t-224 223 t-304 81.5q-164 0 -305.5 -82t-223 -224t-81.5 -304zM461 733q0 220 110.5 342.5t309.5 122.5q149 0 305 -78l-74 -168q-113 58 -217 58q-97 0 -150 -74t-53 -205q0 -280 203 -280q57 0 123 15t123 44v-191q-120 -57 -252 -57q-204 0 -316 125t-112 346z" horiz-adv-x="1704" unicode="©"/><glyph d="M47 975q0 109 82.5 163.5t267.5 63.5l99 4q0 117 -127 117q-81 0 -217 -61l-66 135q66 32 145.5 57t178.5 25q137 0 211.5 -71t74.5 -202v-442h-135l-31 110q-43 -58 -105 -90t-136 -32q-117 0 -179.5 58.5t-62.5 164.5zM252 977q0 -38 23 -56t55 -18q77 0 121.5 41.5 t44.5 106.5v36l-99 -6q-145 -10 -145 -104z" horiz-adv-x="784" unicode="ª"/><glyph d="M82 547v26l371 455l219 -119l-279 -348l279 -348l-219 -119zM588 547v26l370 455l220 -119l-279 -348l279 -348l-220 -119z" horiz-adv-x="1260" unicode="«"/><glyph d="M88 612v219h993v-583h-219v364h-774z" unicode="¬"/><glyph d="M61 424v250h537v-250h-537z" horiz-adv-x="659" unicode="­"/><glyph d="M100 731q0 200 100 375t275 276t377 101q200 0 375 -100t276 -275t101 -377q0 -197 -97 -370t-272 -277t-383 -104q-207 0 -382 103.5t-272.5 276.5t-97.5 371zM242 731q0 -164 82 -305.5t224 -223t304 -81.5q164 0 305.5 82t223 224t81.5 304q0 164 -82 305.5t-224 223 t-304 81.5q-164 0 -305.5 -82t-223 -224t-81.5 -304zM543 272v916h264q181 0 265.5 -70t84.5 -213q0 -170 -143 -233l237 -400h-254l-178 338h-47v-338h-229zM772 778h31q66 0 94.5 28.5t28.5 94.5q0 65 -28 92t-97 27h-29v-242z" horiz-adv-x="1704" unicode="®"/><glyph d="M-6 1556v201h1036v-201h-1036z" horiz-adv-x="1024" unicode="¯"/><glyph d="M92 1137q0 92 46 172t126 127t174 47q92 0 172.5 -46t127 -127t46.5 -173q0 -93 -46.5 -173.5t-126.5 -125.5t-173 -45q-145 0 -245.5 99.5t-100.5 244.5zM283 1137q0 -64 44.5 -109t110.5 -45t111 46t45 108q0 63 -45.5 110t-110.5 47q-64 0 -109.5 -46t-45.5 -111z" horiz-adv-x="877" unicode="°"/><glyph d="M88 0v219h993v-219h-993zM88 674v219h387v389h219v-389h387v-219h-387v-385h-219v385h-387z" unicode="±"/><glyph d="M47 1354q147 129 336 129q137 0 216 -66.5t79 -183.5q0 -85 -47 -160t-176 -192l-105 -95h352v-200h-647v168l224 219q102 100 130.5 144.5t28.5 94.5q0 38 -24 58t-64 20q-81 0 -180 -88z" horiz-adv-x="776" unicode="²"/><glyph d="M59 639v190q148 -90 271 -90q143 0 143 107q0 53 -44 79.5t-122 26.5h-112v160h92q83 0 123.5 26t40.5 83q0 38 -25 63t-76 25q-47 0 -89 -19t-99 -59l-101 141q62 47 137.5 78t178.5 31q127 0 208 -64t81 -168q0 -143 -170 -198v-13q94 -20 146 -75t52 -134 q0 -121 -88 -190.5t-274 -69.5q-143 0 -273 70z" horiz-adv-x="776" unicode="³"/><glyph d="M332 1241v27q172 200 235 301h342v-21q-52 -52 -177.5 -154.5t-196.5 -152.5h-203z" horiz-adv-x="1243" unicode="´"/><glyph d="M160 -492v1610h305v-653q0 -121 44 -181.5t138 -60.5q126 0 183 86.5t57 282.5v526h305v-1118h-231l-43 150h-15q-42 -85 -102 -127.5t-148 -42.5q-62 0 -114 23t-84 67l5 -85l5 -157v-320h-305z" horiz-adv-x="1352" unicode="µ"/><glyph d="M113 1042q0 260 109 387t341 127h604v-1816h-161v1616h-166v-1616h-162v819q-62 -18 -146 -18q-216 0 -317.5 125t-101.5 376z" horiz-adv-x="1341" unicode="¶"/><glyph d="M117 723q0 84 45 127t131 43q83 0 128.5 -44t45.5 -126q0 -81 -46.5 -125.5t-127.5 -44.5q-84 0 -130 44t-46 126z" horiz-adv-x="584" unicode="·"/><glyph d="M-37 -303q27 -7 72.5 -14t70.5 -7q72 0 72 62q0 83 -166 108l78 154h193l-27 -61q74 -24 118 -74.5t44 -114.5q0 -128 -75.5 -185t-233.5 -57q-78 0 -146 21v168z" horiz-adv-x="420" unicode="¸"/><glyph d="M92 1227l301 235h191v-876h-238v446l3 112l5 95q-27 -36 -75 -78l-78 -61z" horiz-adv-x="776" unicode="¹"/><glyph d="M57 1116q0 169 89.5 266t252.5 97q152 0 245 -98.5t93 -264.5q0 -171 -91.5 -267.5t-250.5 -96.5q-153 0 -245.5 98.5t-92.5 265.5zM260 1116q0 -100 32.5 -150.5t104.5 -50.5t103.5 50.5t31.5 150.5t-31.5 149.5t-103.5 49.5t-104.5 -49.5t-32.5 -149.5z" horiz-adv-x="795" unicode="º"/><glyph d="M82 213l278 348l-278 348l219 119l371 -455v-26l-371 -453zM588 213l278 348l-278 348l219 119l371 -455v-26l-371 -453z" horiz-adv-x="1260" unicode="»"/><glyph d="M46 1227l301 235h191v-876h-238v446l3 112l5 95q-27 -36 -75 -78l-78 -61zM320 0l811 1462h239l-811 -1462h-239zM936 152v154l385 577h236v-563h125v-168h-125v-151h-238v151h-383zM1121 320h198v164q0 86 6 184q-9 -26 -35.5 -80t-41.5 -77z" horiz-adv-x="1804" unicode="¼"/><glyph d="M46 1227l301 235h191v-876h-238v446l3 112l5 95q-27 -36 -75 -78l-78 -61zM320 0l811 1462h239l-811 -1462h-239zM1061 769q147 129 336 129q137 0 216 -66.5t79 -183.5q0 -85 -47 -160t-176 -192l-105 -95h352v-200h-647v168l224 219q102 100 130.5 144.5t28.5 94.5 q0 38 -24 58t-64 20q-81 0 -180 -88z" horiz-adv-x="1804" unicode="½"/><glyph d="M90 639v190q148 -90 271 -90q143 0 143 107q0 53 -44 79.5t-122 26.5h-112v160h92q83 0 123.5 26t40.5 83q0 38 -25 63t-76 25q-47 0 -89 -19t-99 -59l-101 141q62 47 137.5 78t178.5 31q127 0 208 -64t81 -168q0 -143 -170 -198v-13q94 -20 146 -75t52 -134 q0 -121 -88 -190.5t-274 -69.5q-143 0 -273 70zM391 0l811 1462h239l-811 -1462h-239zM966 152v154l385 577h236v-563h125v-168h-125v-151h-238v151h-383zM1151 320h198v164q0 86 6 184q-9 -26 -35.5 -80t-41.5 -77z" horiz-adv-x="1804" unicode="¾"/><glyph d="M61 -29q0 108 48.5 187t191.5 184q95 70 121.5 107t26.5 98v59h264v-74q0 -98 -44.5 -169t-152.5 -148q-109 -78 -137.5 -122t-28.5 -107q0 -57 43.5 -94t132.5 -37q79 0 169 29t186 71l102 -221q-98 -56 -221.5 -90.5t-229.5 -34.5q-220 0 -345.5 96.5t-125.5 265.5z M395 948q0 81 46.5 125.5t127.5 44.5q84 0 130 -44t46 -126q0 -84 -45 -127t-131 -43q-83 0 -128.5 44t-45.5 126z" horiz-adv-x="977" unicode="¿"/><glyph d="M0 0l516 1468h379l518 -1468h-334l-106 348h-533l-106 -348h-334zM518 608h381q-147 473 -165.5 535t-26.5 98q-33 -128 -189 -633zM338 1886v21h342q63 -101 235 -301v-27h-202q-63 44 -185 142.5t-190 164.5z" horiz-adv-x="1413" unicode="À"/><glyph d="M0 0l516 1468h379l518 -1468h-334l-106 348h-533l-106 -348h-334zM518 608h381q-147 473 -165.5 535t-26.5 98q-33 -128 -189 -633zM541 1579v27q172 200 235 301h342v-21q-52 -52 -177.5 -154.5t-196.5 -152.5h-203z" horiz-adv-x="1413" unicode="Á"/><glyph d="M0 0l516 1468h379l518 -1468h-334l-106 348h-533l-106 -348h-334zM518 608h381q-147 473 -165.5 535t-26.5 98q-33 -128 -189 -633zM272 1579v27q189 189 256 301h357q31 -52 107.5 -141.5t148.5 -159.5v-27h-203q-157 93 -234 176q-78 -81 -229 -176h-203z" horiz-adv-x="1413" unicode="Â"/><glyph d="M0 0l516 1468h379l518 -1468h-334l-106 348h-533l-106 -348h-334zM518 608h381q-147 473 -165.5 535t-26.5 98q-33 -128 -189 -633zM293 1577q11 145 82.5 227t189.5 82q41 0 80.5 -16.5t78 -36t75.5 -35.5t73 -16q31 0 59.5 26t41.5 80h149q-11 -145 -83.5 -227 t-188.5 -82q-41 0 -80.5 16.5t-78 36t-75.5 36t-73 16.5q-31 0 -59.5 -26.5t-41.5 -80.5h-149z" horiz-adv-x="1413" unicode="Ã"/><glyph d="M0 0l516 1468h379l518 -1468h-334l-106 348h-533l-106 -348h-334zM518 608h381q-147 473 -165.5 535t-26.5 98q-33 -128 -189 -633zM365 1743q0 65 37.5 100t101.5 35q66 0 103.5 -37t37.5 -98q0 -60 -38 -96.5t-103 -36.5q-64 0 -101.5 35t-37.5 98zM768 1743 q0 70 40.5 102.5t100.5 32.5q65 0 103.5 -36t38.5 -99q0 -61 -39 -97t-103 -36q-60 0 -100.5 32.5t-40.5 100.5z" horiz-adv-x="1413" unicode="Ä"/><glyph d="M0 0l516 1468h379l518 -1468h-334l-106 348h-533l-106 -348h-334zM518 608h381q-147 473 -165.5 535t-26.5 98q-33 -128 -189 -633zM457 1565q0 108 67.5 172.5t180.5 64.5q110 0 182 -66t72 -169q0 -108 -71 -174t-183 -66t-180 64t-68 174zM609 1565q0 -45 24 -71 t72 -26q42 0 69 26t27 71t-27 70.5t-69 25.5t-69 -25.5t-27 -70.5z" horiz-adv-x="1413" unicode="Å"/><glyph d="M0 0l655 1462h1174v-254h-563v-321h526v-254h-526v-377h563v-256h-873v348h-491l-150 -348h-315zM578 608h378v590h-127z" horiz-adv-x="1950" unicode="Æ"/><glyph d="M119 729q0 228 83 399.5t238.5 263t364.5 91.5q213 0 428 -103l-100 -252q-82 39 -165 68t-163 29q-175 0 -271 -131.5t-96 -366.5q0 -489 367 -489q154 0 373 77v-260q-180 -75 -402 -75q-319 0 -488 193.5t-169 555.5zM504 -303q27 -7 72.5 -14t70.5 -7q72 0 72 62 q0 83 -166 108l78 154h193l-27 -61q74 -24 118 -74.5t44 -114.5q0 -128 -75.5 -185t-233.5 -57q-78 0 -146 21v168z" horiz-adv-x="1305" unicode="Ç"/><glyph d="M184 0v1462h842v-254h-532v-321h495v-254h-495v-377h532v-256h-842zM259 1886v21h342q63 -101 235 -301v-27h-202q-63 44 -185 142.5t-190 164.5z" horiz-adv-x="1147" unicode="È"/><glyph d="M184 0v1462h842v-254h-532v-321h495v-254h-495v-377h532v-256h-842zM424 1579v27q172 200 235 301h342v-21q-52 -52 -177.5 -154.5t-196.5 -152.5h-203z" horiz-adv-x="1147" unicode="É"/><glyph d="M184 0v1462h842v-254h-532v-321h495v-254h-495v-377h532v-256h-842zM175 1579v27q189 189 256 301h357q31 -52 107.5 -141.5t148.5 -159.5v-27h-203q-157 93 -234 176q-78 -81 -229 -176h-203z" horiz-adv-x="1147" unicode="Ê"/><glyph d="M184 0v1462h842v-254h-532v-321h495v-254h-495v-377h532v-256h-842zM272 1743q0 65 37.5 100t101.5 35q66 0 103.5 -37t37.5 -98q0 -60 -38 -96.5t-103 -36.5q-64 0 -101.5 35t-37.5 98zM675 1743q0 70 40.5 102.5t100.5 32.5q65 0 103.5 -36t38.5 -99q0 -61 -39 -97 t-103 -36q-60 0 -100.5 32.5t-40.5 100.5z" horiz-adv-x="1147" unicode="Ë"/><glyph d="M184 0v1462h310v-1462h-310zM-58 1886v21h342q63 -101 235 -301v-27h-202q-63 44 -185 142.5t-190 164.5z" horiz-adv-x="678" unicode="Ì"/><glyph d="M184 0v1462h310v-1462h-310zM167 1579v27q172 200 235 301h342v-21q-52 -52 -177.5 -154.5t-196.5 -152.5h-203z" horiz-adv-x="678" unicode="Í"/><glyph d="M184 0v1462h310v-1462h-310zM-96 1579v27q189 189 256 301h357q31 -52 107.5 -141.5t148.5 -159.5v-27h-203q-157 93 -234 176q-78 -81 -229 -176h-203z" horiz-adv-x="678" unicode="Î"/><glyph d="M184 0v1462h310v-1462h-310zM-3 1743q0 65 37.5 100t101.5 35q66 0 103.5 -37t37.5 -98q0 -60 -38 -96.5t-103 -36.5q-64 0 -101.5 35t-37.5 98zM400 1743q0 70 40.5 102.5t100.5 32.5q65 0 103.5 -36t38.5 -99q0 -61 -39 -97t-103 -36q-60 0 -100.5 32.5t-40.5 100.5z" horiz-adv-x="678" unicode="Ï"/><glyph d="M47 596v254h137v612h459q358 0 556 -189t198 -528q0 -361 -205.5 -553t-593.5 -192h-414v596h-137zM494 256h131q450 0 450 481q0 232 -104 351.5t-314 119.5h-163v-358h237v-254h-237v-340z" horiz-adv-x="1516" unicode="Ð"/><glyph d="M184 0v1462h391l635 -1095h7q-15 285 -15 403v692h279v-1462h-394l-636 1106h-9q19 -293 19 -418v-688h-277zM418 1577q11 145 82.5 227t189.5 82q41 0 80.5 -16.5t78 -36t75.5 -35.5t73 -16q31 0 59.5 26t41.5 80h149q-11 -145 -83.5 -227t-188.5 -82q-41 0 -80.5 16.5 t-78 36t-75.5 36t-73 16.5q-31 0 -59.5 -26.5t-41.5 -80.5h-149z" horiz-adv-x="1665" unicode="Ñ"/><glyph d="M119 735q0 365 180.5 557.5t517.5 192.5t515.5 -194t178.5 -558q0 -363 -180 -558t-516 -195t-516 195t-180 560zM444 733q0 -245 93 -369t278 -124q371 0 371 493q0 494 -369 494q-185 0 -279 -124.5t-94 -369.5zM449 1886v21h342q63 -101 235 -301v-27h-202 q-63 44 -185 142.5t-190 164.5z" horiz-adv-x="1630" unicode="Ò"/><glyph d="M119 735q0 365 180.5 557.5t517.5 192.5t515.5 -194t178.5 -558q0 -363 -180 -558t-516 -195t-516 195t-180 560zM444 733q0 -245 93 -369t278 -124q371 0 371 493q0 494 -369 494q-185 0 -279 -124.5t-94 -369.5zM658 1579v27q172 200 235 301h342v-21 q-52 -52 -177.5 -154.5t-196.5 -152.5h-203z" horiz-adv-x="1630" unicode="Ó"/><glyph d="M119 735q0 365 180.5 557.5t517.5 192.5t515.5 -194t178.5 -558q0 -363 -180 -558t-516 -195t-516 195t-180 560zM444 733q0 -245 93 -369t278 -124q371 0 371 493q0 494 -369 494q-185 0 -279 -124.5t-94 -369.5zM381 1579v27q189 189 256 301h357q31 -52 107.5 -141.5 t148.5 -159.5v-27h-203q-157 93 -234 176q-78 -81 -229 -176h-203z" horiz-adv-x="1630" unicode="Ô"/><glyph d="M119 735q0 365 180.5 557.5t517.5 192.5t515.5 -194t178.5 -558q0 -363 -180 -558t-516 -195t-516 195t-180 560zM444 733q0 -245 93 -369t278 -124q371 0 371 493q0 494 -369 494q-185 0 -279 -124.5t-94 -369.5zM402 1577q11 145 82.5 227t189.5 82q41 0 80.5 -16.5 t78 -36t75.5 -35.5t73 -16q31 0 59.5 26t41.5 80h149q-11 -145 -83.5 -227t-188.5 -82q-41 0 -80.5 16.5t-78 36t-75.5 36t-73 16.5q-31 0 -59.5 -26.5t-41.5 -80.5h-149z" horiz-adv-x="1630" unicode="Õ"/><glyph d="M119 735q0 365 180.5 557.5t517.5 192.5t515.5 -194t178.5 -558q0 -363 -180 -558t-516 -195t-516 195t-180 560zM444 733q0 -245 93 -369t278 -124q371 0 371 493q0 494 -369 494q-185 0 -279 -124.5t-94 -369.5zM474 1743q0 65 37.5 100t101.5 35q66 0 103.5 -37 t37.5 -98q0 -60 -38 -96.5t-103 -36.5q-64 0 -101.5 35t-37.5 98zM877 1743q0 70 40.5 102.5t100.5 32.5q65 0 103.5 -36t38.5 -99q0 -61 -39 -97t-103 -36q-60 0 -100.5 32.5t-40.5 100.5z" horiz-adv-x="1630" unicode="Ö"/><glyph d="M129 1024l152 154l301 -299l305 299l153 -150l-305 -305l301 -303l-149 -152l-305 301l-301 -299l-150 152l297 301z" unicode="×"/><glyph d="M119 735q0 365 180.5 557.5t517.5 192.5q198 0 344 -70l84 125l160 -104l-88 -131q194 -194 194 -572q0 -363 -180 -558t-516 -195q-197 0 -336 65l-90 -135l-162 108l90 136q-198 194 -198 581zM444 733q0 -191 56 -307l506 756q-84 45 -189 45q-185 0 -279 -124.5 t-94 -369.5zM635 279q76 -39 180 -39q371 0 371 493q0 180 -51 297z" horiz-adv-x="1630" unicode="Ø"/><glyph d="M174 520v942h309v-895q0 -169 68 -248t225 -79q152 0 220.5 79.5t68.5 249.5v893h309v-946q0 -162 -72.5 -284t-209.5 -187t-324 -65q-282 0 -438 144.5t-156 395.5zM375 1886v21h342q63 -101 235 -301v-27h-202q-63 44 -185 142.5t-190 164.5z" horiz-adv-x="1548" unicode="Ù"/><glyph d="M174 520v942h309v-895q0 -169 68 -248t225 -79q152 0 220.5 79.5t68.5 249.5v893h309v-946q0 -162 -72.5 -284t-209.5 -187t-324 -65q-282 0 -438 144.5t-156 395.5zM602 1579v27q172 200 235 301h342v-21q-52 -52 -177.5 -154.5t-196.5 -152.5h-203z" horiz-adv-x="1548" unicode="Ú"/><glyph d="M174 520v942h309v-895q0 -169 68 -248t225 -79q152 0 220.5 79.5t68.5 249.5v893h309v-946q0 -162 -72.5 -284t-209.5 -187t-324 -65q-282 0 -438 144.5t-156 395.5zM340 1579v27q189 189 256 301h357q31 -52 107.5 -141.5t148.5 -159.5v-27h-203q-157 93 -234 176 q-78 -81 -229 -176h-203z" horiz-adv-x="1548" unicode="Û"/><glyph d="M174 520v942h309v-895q0 -169 68 -248t225 -79q152 0 220.5 79.5t68.5 249.5v893h309v-946q0 -162 -72.5 -284t-209.5 -187t-324 -65q-282 0 -438 144.5t-156 395.5zM433 1743q0 65 37.5 100t101.5 35q66 0 103.5 -37t37.5 -98q0 -60 -38 -96.5t-103 -36.5 q-64 0 -101.5 35t-37.5 98zM836 1743q0 70 40.5 102.5t100.5 32.5q65 0 103.5 -36t38.5 -99q0 -61 -39 -97t-103 -36q-60 0 -100.5 32.5t-40.5 100.5z" horiz-adv-x="1548" unicode="Ü"/><glyph d="M0 1462h336l303 -602l305 602h334l-485 -893v-569h-308v559zM461 1579v27q172 200 235 301h342v-21q-52 -52 -177.5 -154.5t-196.5 -152.5h-203z" horiz-adv-x="1278" unicode="Ý"/><glyph d="M184 0v1462h310v-229h178q254 0 388 -119t134 -344q0 -229 -142.5 -353t-404.5 -124h-153v-293h-310zM494 543h100q145 0 216 52.5t71 174.5q0 107 -63.5 159t-199.5 52h-124v-438z" horiz-adv-x="1286" unicode="Þ"/><glyph d="M160 0v1139q0 201 146.5 314.5t404.5 113.5q244 0 391 -88.5t147 -237.5q0 -64 -21 -112.5t-53 -86.5t-69 -67t-69 -53t-53 -45t-21 -43q0 -27 26.5 -53t92.5 -66q146 -91 198.5 -140t78 -110t25.5 -139q0 -172 -116.5 -259t-343.5 -87q-99 0 -171 14.5t-132 48.5v242 q53 -36 135.5 -61t146.5 -25q168 0 168 123q0 41 -16 66.5t-57 55.5t-115 72q-126 72 -175 131.5t-49 140.5q0 64 35 117t105 102q77 55 108 95t31 86q0 60 -63.5 100.5t-163.5 40.5q-116 0 -181 -52.5t-65 -148.5v-1128h-305z" horiz-adv-x="1456" unicode="ß"/><glyph d="M86 334q0 178 124.5 262.5t375.5 93.5l194 6v49q0 170 -174 170q-134 0 -315 -81l-101 206q193 101 428 101q225 0 345 -98t120 -298v-745h-213l-59 152h-8q-77 -97 -158.5 -134.5t-212.5 -37.5q-161 0 -253.5 92t-92.5 262zM399 332q0 -129 148 -129q106 0 169.5 61 t63.5 162v92l-118 -4q-133 -4 -198 -48t-65 -134zM239 1548v21h342q63 -101 235 -301v-27h-202q-63 44 -185 142.5t-190 164.5z" horiz-adv-x="1237" unicode="à"/><glyph d="M86 334q0 178 124.5 262.5t375.5 93.5l194 6v49q0 170 -174 170q-134 0 -315 -81l-101 206q193 101 428 101q225 0 345 -98t120 -298v-745h-213l-59 152h-8q-77 -97 -158.5 -134.5t-212.5 -37.5q-161 0 -253.5 92t-92.5 262zM399 332q0 -129 148 -129q106 0 169.5 61 t63.5 162v92l-118 -4q-133 -4 -198 -48t-65 -134zM441 1241v27q172 200 235 301h342v-21q-52 -52 -177.5 -154.5t-196.5 -152.5h-203z" horiz-adv-x="1237" unicode="á"/><glyph d="M86 334q0 178 124.5 262.5t375.5 93.5l194 6v49q0 170 -174 170q-134 0 -315 -81l-101 206q193 101 428 101q225 0 345 -98t120 -298v-745h-213l-59 152h-8q-77 -97 -158.5 -134.5t-212.5 -37.5q-161 0 -253.5 92t-92.5 262zM399 332q0 -129 148 -129q106 0 169.5 61 t63.5 162v92l-118 -4q-133 -4 -198 -48t-65 -134zM177 1240v27q189 189 256 301h357q31 -52 107.5 -141.5t148.5 -159.5v-27h-203q-157 93 -234 176q-78 -81 -229 -176h-203z" horiz-adv-x="1237" unicode="â"/><glyph d="M86 334q0 178 124.5 262.5t375.5 93.5l194 6v49q0 170 -174 170q-134 0 -315 -81l-101 206q193 101 428 101q225 0 345 -98t120 -298v-745h-213l-59 152h-8q-77 -97 -158.5 -134.5t-212.5 -37.5q-161 0 -253.5 92t-92.5 262zM399 332q0 -129 148 -129q106 0 169.5 61 t63.5 162v92l-118 -4q-133 -4 -198 -48t-65 -134zM217 1239q11 145 82.5 227t189.5 82q41 0 80.5 -16.5t78 -36t75.5 -35.5t73 -16q31 0 59.5 26t41.5 80h149q-11 -145 -83.5 -227t-188.5 -82q-41 0 -80.5 16.5t-78 36t-75.5 36t-73 16.5q-31 0 -59.5 -26.5t-41.5 -80.5 h-149z" horiz-adv-x="1237" unicode="ã"/><glyph d="M86 334q0 178 124.5 262.5t375.5 93.5l194 6v49q0 170 -174 170q-134 0 -315 -81l-101 206q193 101 428 101q225 0 345 -98t120 -298v-745h-213l-59 152h-8q-77 -97 -158.5 -134.5t-212.5 -37.5q-161 0 -253.5 92t-92.5 262zM399 332q0 -129 148 -129q106 0 169.5 61 t63.5 162v92l-118 -4q-133 -4 -198 -48t-65 -134zM285 1405q0 65 37.5 100t101.5 35q66 0 103.5 -37t37.5 -98q0 -60 -38 -96.5t-103 -36.5q-64 0 -101.5 35t-37.5 98zM688 1405q0 70 40.5 102.5t100.5 32.5q65 0 103.5 -36t38.5 -99q0 -61 -39 -97t-103 -36 q-60 0 -100.5 32.5t-40.5 100.5z" horiz-adv-x="1237" unicode="ä"/><glyph d="M86 334q0 178 124.5 262.5t375.5 93.5l194 6v49q0 170 -174 170q-134 0 -315 -81l-101 206q193 101 428 101q225 0 345 -98t120 -298v-745h-213l-59 152h-8q-77 -97 -158.5 -134.5t-212.5 -37.5q-161 0 -253.5 92t-92.5 262zM399 332q0 -129 148 -129q106 0 169.5 61 t63.5 162v92l-118 -4q-133 -4 -198 -48t-65 -134zM381 1477q0 108 67.5 172.5t180.5 64.5q110 0 182 -66t72 -169q0 -108 -71 -174t-183 -66t-180 64t-68 174zM533 1477q0 -45 24 -71t72 -26q42 0 69 26t27 71t-27 70.5t-69 25.5t-69 -25.5t-27 -70.5z" horiz-adv-x="1237" unicode="å"/><glyph d="M86 334q0 178 121 262.5t362 93.5l191 6v84q0 69 -44.5 102t-121.5 33q-140 0 -305 -77l-99 202q189 101 422 101q227 0 342 -131q66 64 152.5 96.5t206.5 32.5q221 0 349 -137.5t128 -370.5v-148h-723q5 -130 77 -203t202 -73q196 0 380 88v-236q-79 -39 -171 -59 t-226 -20q-137 0 -249.5 50.5t-184.5 155.5q-98 -117 -196.5 -161.5t-256.5 -44.5q-161 0 -258.5 94.5t-97.5 259.5zM399 332q0 -129 140 -129q101 0 161 61t60 162v92l-113 -4q-124 -4 -186 -47.5t-62 -134.5zM1073 686h430q-2 112 -55 174t-141 62q-217 0 -234 -236z" horiz-adv-x="1878" unicode="æ"/><glyph d="M92 553q0 285 142 435.5t407 150.5q194 0 348 -76l-90 -236q-72 29 -134 47.5t-124 18.5q-238 0 -238 -338q0 -328 238 -328q88 0 163 23.5t150 73.5v-261q-74 -47 -149.5 -65t-190.5 -18q-522 0 -522 573zM350 -303q27 -7 72.5 -14t70.5 -7q72 0 72 62q0 83 -166 108 l78 154h193l-27 -61q74 -24 118 -74.5t44 -114.5q0 -128 -75.5 -185t-233.5 -57q-78 0 -146 21v168z" horiz-adv-x="1053" unicode="ç"/><glyph d="M92 551q0 281 140.5 434.5t388.5 153.5q237 0 369 -135t132 -373v-148h-721q5 -130 77 -203t202 -73q101 0 191 21t188 67v-236q-80 -40 -171 -59.5t-222 -19.5q-270 0 -422 149t-152 422zM408 686h428q-2 113 -59 174.5t-154 61.5t-152 -61.5t-63 -174.5zM245 1548v21 h342q63 -101 235 -301v-27h-202q-63 44 -185 142.5t-190 164.5z" horiz-adv-x="1210" unicode="è"/><glyph d="M92 551q0 281 140.5 434.5t388.5 153.5q237 0 369 -135t132 -373v-148h-721q5 -130 77 -203t202 -73q101 0 191 21t188 67v-236q-80 -40 -171 -59.5t-222 -19.5q-270 0 -422 149t-152 422zM408 686h428q-2 113 -59 174.5t-154 61.5t-152 -61.5t-63 -174.5zM447 1241v27 q172 200 235 301h342v-21q-52 -52 -177.5 -154.5t-196.5 -152.5h-203z" horiz-adv-x="1210" unicode="é"/><glyph d="M92 551q0 281 140.5 434.5t388.5 153.5q237 0 369 -135t132 -373v-148h-721q5 -130 77 -203t202 -73q101 0 191 21t188 67v-236q-80 -40 -171 -59.5t-222 -19.5q-270 0 -422 149t-152 422zM408 686h428q-2 113 -59 174.5t-154 61.5t-152 -61.5t-63 -174.5zM194 1241v27 q189 189 256 301h357q31 -52 107.5 -141.5t148.5 -159.5v-27h-203q-157 93 -234 176q-78 -81 -229 -176h-203z" horiz-adv-x="1210" unicode="ê"/><glyph d="M92 551q0 281 140.5 434.5t388.5 153.5q237 0 369 -135t132 -373v-148h-721q5 -130 77 -203t202 -73q101 0 191 21t188 67v-236q-80 -40 -171 -59.5t-222 -19.5q-270 0 -422 149t-152 422zM408 686h428q-2 113 -59 174.5t-154 61.5t-152 -61.5t-63 -174.5zM297 1405 q0 65 37.5 100t101.5 35q66 0 103.5 -37t37.5 -98q0 -60 -38 -96.5t-103 -36.5q-64 0 -101.5 35t-37.5 98zM700 1405q0 70 40.5 102.5t100.5 32.5q65 0 103.5 -36t38.5 -99q0 -61 -39 -97t-103 -36q-60 0 -100.5 32.5t-40.5 100.5z" horiz-adv-x="1210" unicode="ë"/><glyph d="M160 0v1118h305v-1118h-305zM-101 1548v21h342q63 -101 235 -301v-27h-202q-63 44 -185 142.5t-190 164.5z" horiz-adv-x="625" unicode="ì"/><glyph d="M160 0v1118h305v-1118h-305zM145 1241v27q172 200 235 301h342v-21q-52 -52 -177.5 -154.5t-196.5 -152.5h-203z" horiz-adv-x="625" unicode="í"/><glyph d="M160 0v1118h305v-1118h-305zM-122 1241v27q189 189 256 301h357q31 -52 107.5 -141.5t148.5 -159.5v-27h-203q-157 93 -234 176q-78 -81 -229 -176h-203z" horiz-adv-x="625" unicode="î"/><glyph d="M160 0v1118h305v-1118h-305zM-29 1405q0 65 37.5 100t101.5 35q66 0 103.5 -37t37.5 -98q0 -60 -38 -96.5t-103 -36.5q-64 0 -101.5 35t-37.5 98zM374 1405q0 70 40.5 102.5t100.5 32.5q65 0 103.5 -36t38.5 -99q0 -61 -39 -97t-103 -36q-60 0 -100.5 32.5t-40.5 100.5z" horiz-adv-x="625" unicode="ï"/><glyph d="M92 489q0 233 130 369.5t351 136.5q205 0 275 -98l8 4q-67 162 -192 281l-230 -142l-100 156l176 107q-80 53 -152 92l101 176q144 -65 258 -141l225 139l100 -154l-170 -104q156 -143 230 -324.5t74 -413.5q0 -280 -145 -436.5t-400 -156.5q-245 0 -392 137t-147 372z M403 487q0 -140 60 -211t172 -71q123 0 176 82t53 245q0 108 -61 173t-168 65q-121 0 -176.5 -68.5t-55.5 -214.5z" horiz-adv-x="1268" unicode="ð"/><glyph d="M160 0v1118h233l41 -143h17q51 81 140.5 122.5t203.5 41.5q195 0 296 -105.5t101 -304.5v-729h-305v653q0 121 -43 181.5t-137 60.5q-128 0 -185 -85.5t-57 -283.5v-526h-305zM258 1239q11 145 82.5 227t189.5 82q41 0 80.5 -16.5t78 -36t75.5 -35.5t73 -16q31 0 59.5 26 t41.5 80h149q-11 -145 -83.5 -227t-188.5 -82q-41 0 -80.5 16.5t-78 36t-75.5 36t-73 16.5q-31 0 -59.5 -26.5t-41.5 -80.5h-149z" horiz-adv-x="1346" unicode="ñ"/><glyph d="M92 561q0 274 143 426t402 152q161 0 284 -70t189 -201t66 -307q0 -273 -144 -427t-401 -154q-161 0 -284 70.5t-189 202.5t-66 308zM403 561q0 -166 54.5 -251t177.5 -85q122 0 175.5 84.5t53.5 251.5q0 166 -54 249t-177 83q-122 0 -176 -82.5t-54 -249.5zM237 1548v21 h342q63 -101 235 -301v-27h-202q-63 44 -185 142.5t-190 164.5z" horiz-adv-x="1268" unicode="ò"/><glyph d="M92 561q0 274 143 426t402 152q161 0 284 -70t189 -201t66 -307q0 -273 -144 -427t-401 -154q-161 0 -284 70.5t-189 202.5t-66 308zM403 561q0 -166 54.5 -251t177.5 -85q122 0 175.5 84.5t53.5 251.5q0 166 -54 249t-177 83q-122 0 -176 -82.5t-54 -249.5zM467 1241v27 q172 200 235 301h342v-21q-52 -52 -177.5 -154.5t-196.5 -152.5h-203z" horiz-adv-x="1268" unicode="ó"/><glyph d="M92 561q0 274 143 426t402 152q161 0 284 -70t189 -201t66 -307q0 -273 -144 -427t-401 -154q-161 0 -284 70.5t-189 202.5t-66 308zM403 561q0 -166 54.5 -251t177.5 -85q122 0 175.5 84.5t53.5 251.5q0 166 -54 249t-177 83q-122 0 -176 -82.5t-54 -249.5zM198 1241v27 q189 189 256 301h357q31 -52 107.5 -141.5t148.5 -159.5v-27h-203q-157 93 -234 176q-78 -81 -229 -176h-203z" horiz-adv-x="1268" unicode="ô"/><glyph d="M92 561q0 274 143 426t402 152q161 0 284 -70t189 -201t66 -307q0 -273 -144 -427t-401 -154q-161 0 -284 70.5t-189 202.5t-66 308zM403 561q0 -166 54.5 -251t177.5 -85q122 0 175.5 84.5t53.5 251.5q0 166 -54 249t-177 83q-122 0 -176 -82.5t-54 -249.5zM219 1239 q11 145 82.5 227t189.5 82q41 0 80.5 -16.5t78 -36t75.5 -35.5t73 -16q31 0 59.5 26t41.5 80h149q-11 -145 -83.5 -227t-188.5 -82q-41 0 -80.5 16.5t-78 36t-75.5 36t-73 16.5q-31 0 -59.5 -26.5t-41.5 -80.5h-149z" horiz-adv-x="1268" unicode="õ"/><glyph d="M92 561q0 274 143 426t402 152q161 0 284 -70t189 -201t66 -307q0 -273 -144 -427t-401 -154q-161 0 -284 70.5t-189 202.5t-66 308zM403 561q0 -166 54.5 -251t177.5 -85q122 0 175.5 84.5t53.5 251.5q0 166 -54 249t-177 83q-122 0 -176 -82.5t-54 -249.5zM291 1405 q0 65 37.5 100t101.5 35q66 0 103.5 -37t37.5 -98q0 -60 -38 -96.5t-103 -36.5q-64 0 -101.5 35t-37.5 98zM694 1405q0 70 40.5 102.5t100.5 32.5q65 0 103.5 -36t38.5 -99q0 -61 -39 -97t-103 -36q-60 0 -100.5 32.5t-40.5 100.5z" horiz-adv-x="1268" unicode="ö"/><glyph d="M88 612v219h993v-219h-993zM444 373q0 76 37 113.5t103 37.5t102.5 -39t36.5 -112q0 -70 -37 -111t-102 -41t-102.5 39t-37.5 113zM444 1071q0 75 37 113.5t103 38.5q67 0 103 -40.5t36 -111.5q0 -70 -37 -110.5t-102 -40.5t-102.5 39t-37.5 112z" unicode="÷"/><glyph d="M92 561q0 274 143 426t402 152q132 0 248 -52l55 82l152 -108l-58 -84q142 -155 142 -416q0 -273 -144 -427t-401 -154q-126 0 -234 45l-67 -101l-154 105l68 100q-152 156 -152 432zM403 561q0 -94 19 -166l317 475q-43 23 -106 23q-122 0 -176 -82.5t-54 -249.5z M543 240q38 -15 92 -15q122 0 175.5 84.5t53.5 251.5q0 81 -12 141z" horiz-adv-x="1268" unicode="ø"/><glyph d="M154 389v729h305v-653q0 -121 43 -181.5t137 -60.5q128 0 185 85.5t57 283.5v526h305v-1118h-234l-41 143h-16q-49 -78 -139 -120.5t-205 -42.5q-197 0 -297 105.5t-100 303.5zM245 1548v21h342q63 -101 235 -301v-27h-202q-63 44 -185 142.5t-190 164.5z" horiz-adv-x="1346" unicode="ù"/><glyph d="M154 389v729h305v-653q0 -121 43 -181.5t137 -60.5q128 0 185 85.5t57 283.5v526h305v-1118h-234l-41 143h-16q-49 -78 -139 -120.5t-205 -42.5q-197 0 -297 105.5t-100 303.5zM498 1241v27q172 200 235 301h342v-21q-52 -52 -177.5 -154.5t-196.5 -152.5h-203z" horiz-adv-x="1346" unicode="ú"/><glyph d="M154 389v729h305v-653q0 -121 43 -181.5t137 -60.5q128 0 185 85.5t57 283.5v526h305v-1118h-234l-41 143h-16q-49 -78 -139 -120.5t-205 -42.5q-197 0 -297 105.5t-100 303.5zM235 1241v27q189 189 256 301h357q31 -52 107.5 -141.5t148.5 -159.5v-27h-203 q-157 93 -234 176q-78 -81 -229 -176h-203z" horiz-adv-x="1346" unicode="û"/><glyph d="M154 389v729h305v-653q0 -121 43 -181.5t137 -60.5q128 0 185 85.5t57 283.5v526h305v-1118h-234l-41 143h-16q-49 -78 -139 -120.5t-205 -42.5q-197 0 -297 105.5t-100 303.5zM326 1405q0 65 37.5 100t101.5 35q66 0 103.5 -37t37.5 -98q0 -60 -38 -96.5t-103 -36.5 q-64 0 -101.5 35t-37.5 98zM729 1405q0 70 40.5 102.5t100.5 32.5q65 0 103.5 -36t38.5 -99q0 -61 -39 -97t-103 -36q-60 0 -100.5 32.5t-40.5 100.5z" horiz-adv-x="1346" unicode="ü"/><glyph d="M0 1118h334l211 -629q27 -82 37 -194h6q11 103 43 194l207 629h327l-473 -1261q-65 -175 -185.5 -262t-281.5 -87q-79 0 -155 17v242q55 -13 120 -13q81 0 141.5 49.5t94.5 149.5l18 55zM393 1241v27q172 200 235 301h342v-21q-52 -52 -177.5 -154.5t-196.5 -152.5h-203z" horiz-adv-x="1165" unicode="ý"/><glyph d="M160 -492v2048h305v-391l-7 -120l-7 -72h14q50 81 131 123.5t186 42.5q198 0 310 -154.5t112 -423.5q0 -273 -111.5 -427t-310.5 -154q-213 0 -317 137h-14l7 -62l7 -94v-453h-305zM465 563q0 -180 53.5 -258t169.5 -78q205 0 205 338q0 165 -50.5 247.5t-158.5 82.5 q-113 0 -165 -69.5t-54 -229.5v-33z" horiz-adv-x="1296" unicode="þ"/><glyph d="M0 1118h334l211 -629q27 -82 37 -194h6q11 103 43 194l207 629h327l-473 -1261q-65 -175 -185.5 -262t-281.5 -87q-79 0 -155 17v242q55 -13 120 -13q81 0 141.5 49.5t94.5 149.5l18 55zM243 1405q0 65 37.5 100t101.5 35q66 0 103.5 -37t37.5 -98q0 -60 -38 -96.5 t-103 -36.5q-64 0 -101.5 35t-37.5 98zM646 1405q0 70 40.5 102.5t100.5 32.5q65 0 103.5 -36t38.5 -99q0 -61 -39 -97t-103 -36q-60 0 -100.5 32.5t-40.5 100.5z" horiz-adv-x="1165" unicode="ÿ"/><glyph d="M0 0l516 1468h379l518 -1468h-334l-106 348h-533l-106 -348h-334zM518 608h381q-147 473 -165.5 535t-26.5 98q-33 -128 -189 -633zM371 1579v211h678v-211h-678z" horiz-adv-x="1413" unicode="Ā"/><glyph d="M86 334q0 178 124.5 262.5t375.5 93.5l194 6v49q0 170 -174 170q-134 0 -315 -81l-101 206q193 101 428 101q225 0 345 -98t120 -298v-745h-213l-59 152h-8q-77 -97 -158.5 -134.5t-212.5 -37.5q-161 0 -253.5 92t-92.5 262zM399 332q0 -129 148 -129q106 0 169.5 61 t63.5 162v92l-118 -4q-133 -4 -198 -48t-65 -134zM293 1241v211h678v-211h-678z" horiz-adv-x="1237" unicode="ā"/><glyph d="M0 0l516 1468h379l518 -1468h-334l-106 348h-533l-106 -348h-334zM518 608h381q-147 473 -165.5 535t-26.5 98q-33 -128 -189 -633zM313 1917h170q4 -47 27.5 -74t66 -39t127.5 -12q206 0 222 125h174q-12 -154 -122 -246t-276 -92q-174 0 -277.5 91t-111.5 247z" horiz-adv-x="1413" unicode="Ă"/><glyph d="M86 334q0 178 124.5 262.5t375.5 93.5l194 6v49q0 170 -174 170q-134 0 -315 -81l-101 206q193 101 428 101q225 0 345 -98t120 -298v-745h-213l-59 152h-8q-77 -97 -158.5 -134.5t-212.5 -37.5q-161 0 -253.5 92t-92.5 262zM399 332q0 -129 148 -129q106 0 169.5 61 t63.5 162v92l-118 -4q-133 -4 -198 -48t-65 -134zM239 1579h170q4 -47 27.5 -74t66 -39t127.5 -12q206 0 222 125h174q-12 -154 -122 -246t-276 -92q-174 0 -277.5 91t-111.5 247z" horiz-adv-x="1237" unicode="ă"/><glyph d="M0 0l516 1468h379l518 -1468h-334l-106 348h-533l-106 -348h-334zM518 608h381q-147 473 -165.5 535t-26.5 98q-33 -128 -189 -633zM901 -262q0 67 38 126t142 136h179q-70 -66 -109 -120.5t-39 -106.5q0 -42 22.5 -62t57.5 -20q55 0 115 18v-178q-82 -23 -156 -23 q-113 0 -181.5 63.5t-68.5 166.5z" horiz-adv-x="1413" unicode="Ą"/><glyph d="M86 334q0 178 124.5 262.5t375.5 93.5l194 6v49q0 170 -174 170q-134 0 -315 -81l-101 206q193 101 428 101q225 0 345 -98t120 -298v-745h-213l-59 152h-8q-77 -97 -158.5 -134.5t-212.5 -37.5q-161 0 -253.5 92t-92.5 262zM399 332q0 -129 148 -129q106 0 169.5 61 t63.5 162v92l-118 -4q-133 -4 -198 -48t-65 -134zM694 -262q0 67 38 126t142 136h179q-70 -66 -109 -120.5t-39 -106.5q0 -42 22.5 -62t57.5 -20q55 0 115 18v-178q-82 -23 -156 -23q-113 0 -181.5 63.5t-68.5 166.5z" horiz-adv-x="1237" unicode="ą"/><glyph d="M119 729q0 228 83 399.5t238.5 263t364.5 91.5q213 0 428 -103l-100 -252q-82 39 -165 68t-163 29q-175 0 -271 -131.5t-96 -366.5q0 -489 367 -489q154 0 373 77v-260q-180 -75 -402 -75q-319 0 -488 193.5t-169 555.5zM598 1579v27q172 200 235 301h342v-21 q-52 -52 -177.5 -154.5t-196.5 -152.5h-203z" horiz-adv-x="1305" unicode="Ć"/><glyph d="M92 553q0 285 142 435.5t407 150.5q194 0 348 -76l-90 -236q-72 29 -134 47.5t-124 18.5q-238 0 -238 -338q0 -328 238 -328q88 0 163 23.5t150 73.5v-261q-74 -47 -149.5 -65t-190.5 -18q-522 0 -522 573zM443 1241v27q172 200 235 301h342v-21q-52 -52 -177.5 -154.5 t-196.5 -152.5h-203z" horiz-adv-x="1053" unicode="ć"/><glyph d="M119 729q0 228 83 399.5t238.5 263t364.5 91.5q213 0 428 -103l-100 -252q-82 39 -165 68t-163 29q-175 0 -271 -131.5t-96 -366.5q0 -489 367 -489q154 0 373 77v-260q-180 -75 -402 -75q-319 0 -488 193.5t-169 555.5zM356 1579v27q189 189 256 301h357 q31 -52 107.5 -141.5t148.5 -159.5v-27h-203q-157 93 -234 176q-78 -81 -229 -176h-203z" horiz-adv-x="1305" unicode="Ĉ"/><glyph d="M92 553q0 285 142 435.5t407 150.5q194 0 348 -76l-90 -236q-72 29 -134 47.5t-124 18.5q-238 0 -238 -338q0 -328 238 -328q88 0 163 23.5t150 73.5v-261q-74 -47 -149.5 -65t-190.5 -18q-522 0 -522 573zM169 1241v27q189 189 256 301h357q31 -52 107.5 -141.5 t148.5 -159.5v-27h-203q-157 93 -234 176q-78 -81 -229 -176h-203z" horiz-adv-x="1053" unicode="ĉ"/><glyph d="M119 729q0 228 83 399.5t238.5 263t364.5 91.5q213 0 428 -103l-100 -252q-82 39 -165 68t-163 29q-175 0 -271 -131.5t-96 -366.5q0 -489 367 -489q154 0 373 77v-260q-180 -75 -402 -75q-319 0 -488 193.5t-169 555.5zM620 1745q0 149 166 149t166 -149 q0 -71 -41.5 -110.5t-124.5 -39.5q-166 0 -166 150z" horiz-adv-x="1305" unicode="Ċ"/><glyph d="M92 553q0 285 142 435.5t407 150.5q194 0 348 -76l-90 -236q-72 29 -134 47.5t-124 18.5q-238 0 -238 -338q0 -328 238 -328q88 0 163 23.5t150 73.5v-261q-74 -47 -149.5 -65t-190.5 -18q-522 0 -522 573zM462 1407q0 149 166 149t166 -149q0 -71 -41.5 -110.5 t-124.5 -39.5q-166 0 -166 150z" horiz-adv-x="1053" unicode="ċ"/><glyph d="M119 729q0 228 83 399.5t238.5 263t364.5 91.5q213 0 428 -103l-100 -252q-82 39 -165 68t-163 29q-175 0 -271 -131.5t-96 -366.5q0 -489 367 -489q154 0 373 77v-260q-180 -75 -402 -75q-319 0 -488 193.5t-169 555.5zM358 1880v27h203q147 -93 229 -176q84 87 234 176 h203v-27q-84 -84 -154.5 -167.5t-101.5 -133.5h-357q-29 47 -83 112.5t-173 188.5z" horiz-adv-x="1305" unicode="Č"/><glyph d="M92 553q0 285 142 435.5t407 150.5q194 0 348 -76l-90 -236q-72 29 -134 47.5t-124 18.5q-238 0 -238 -338q0 -328 238 -328q88 0 163 23.5t150 73.5v-261q-74 -47 -149.5 -65t-190.5 -18q-522 0 -522 573zM186 1542v27h203q147 -93 229 -176q84 87 234 176h203v-27 q-84 -84 -154.5 -167.5t-101.5 -133.5h-357q-29 47 -83 112.5t-173 188.5z" horiz-adv-x="1053" unicode="č"/><glyph d="M184 0v1462h459q358 0 556 -189t198 -528q0 -361 -205.5 -553t-593.5 -192h-414zM494 256h133q448 0 448 481q0 471 -416 471h-165v-952zM290 1880v27h203q147 -93 229 -176q84 87 234 176h203v-27q-84 -84 -154.5 -167.5t-101.5 -133.5h-357q-29 47 -83 112.5 t-173 188.5z" horiz-adv-x="1516" unicode="Ď"/><glyph d="M92 557q0 275 114.5 428.5t315.5 153.5q211 0 322 -164h10q-23 125 -23 223v358h306v-1556h-234l-59 145h-13q-104 -165 -317 -165q-197 0 -309.5 153t-112.5 424zM401 553q0 -165 57 -247.5t163 -82.5q117 0 171.5 68t59.5 231v33q0 180 -55.5 258t-180.5 78 q-102 0 -158.5 -86.5t-56.5 -251.5zM1229 1229v26q15 49 34.5 143t27.5 158h282v-20q-80 -176 -166 -307h-178z" horiz-adv-x="1296" unicode="ď"/><glyph d="M47 596v254h137v612h459q358 0 556 -189t198 -528q0 -361 -205.5 -553t-593.5 -192h-414v596h-137zM494 256h131q450 0 450 481q0 232 -104 351.5t-314 119.5h-163v-358h237v-254h-237v-340z" horiz-adv-x="1516" unicode="Đ"/><glyph d="M92 526q0 282 99 416.5t323 134.5q108 0 192.5 -42t137.5 -122h10q-23 131 -23 232v51h-315v199h315v161h306v-161h155v-199h-155v-1196h-248l-64 145h-12q-104 -165 -309 -165q-192 0 -302 144t-110 402zM424 522q0 -149 50 -224t159 -75q110 0 162.5 61.5t56.5 211.5 v28q0 176 -50.5 240.5t-183.5 64.5q-111 0 -152.5 -69t-41.5 -238z" horiz-adv-x="1329" unicode="đ"/><glyph d="M184 0v1462h842v-254h-532v-321h495v-254h-495v-377h532v-256h-842zM274 1579v211h678v-211h-678z" horiz-adv-x="1147" unicode="Ē"/><glyph d="M92 551q0 281 140.5 434.5t388.5 153.5q237 0 369 -135t132 -373v-148h-721q5 -130 77 -203t202 -73q101 0 191 21t188 67v-236q-80 -40 -171 -59.5t-222 -19.5q-270 0 -422 149t-152 422zM408 686h428q-2 113 -59 174.5t-154 61.5t-152 -61.5t-63 -174.5zM278 1241v211 h678v-211h-678z" horiz-adv-x="1210" unicode="ē"/><glyph d="M184 0v1462h842v-254h-532v-321h495v-254h-495v-377h532v-256h-842zM205 1917h170q4 -47 27.5 -74t66 -39t127.5 -12q206 0 222 125h174q-12 -154 -122 -246t-276 -92q-174 0 -277.5 91t-111.5 247z" horiz-adv-x="1147" unicode="Ĕ"/><glyph d="M92 551q0 281 140.5 434.5t388.5 153.5q237 0 369 -135t132 -373v-148h-721q5 -130 77 -203t202 -73q101 0 191 21t188 67v-236q-80 -40 -171 -59.5t-222 -19.5q-270 0 -422 149t-152 422zM408 686h428q-2 113 -59 174.5t-154 61.5t-152 -61.5t-63 -174.5zM227 1579h170 q4 -47 27.5 -74t66 -39t127.5 -12q206 0 222 125h174q-12 -154 -122 -246t-276 -92q-174 0 -277.5 91t-111.5 247z" horiz-adv-x="1210" unicode="ĕ"/><glyph d="M184 0v1462h842v-254h-532v-321h495v-254h-495v-377h532v-256h-842zM450 1716q0 149 166 149t166 -149q0 -71 -41.5 -110.5t-124.5 -39.5q-166 0 -166 150z" horiz-adv-x="1147" unicode="Ė"/><glyph d="M92 551q0 281 140.5 434.5t388.5 153.5q237 0 369 -135t132 -373v-148h-721q5 -130 77 -203t202 -73q101 0 191 21t188 67v-236q-80 -40 -171 -59.5t-222 -19.5q-270 0 -422 149t-152 422zM408 686h428q-2 113 -59 174.5t-154 61.5t-152 -61.5t-63 -174.5zM466 1407 q0 149 166 149t166 -149q0 -71 -41.5 -110.5t-124.5 -39.5q-166 0 -166 150z" horiz-adv-x="1210" unicode="ė"/><glyph d="M184 0v1462h842v-254h-532v-321h495v-254h-495v-377h532v-256h-842zM575 -262q0 67 38 126t142 136h179q-70 -66 -109 -120.5t-39 -106.5q0 -42 22.5 -62t57.5 -20q55 0 115 18v-178q-82 -23 -156 -23q-113 0 -181.5 63.5t-68.5 166.5z" horiz-adv-x="1147" unicode="Ę"/><glyph d="M92 551q0 281 140.5 434.5t388.5 153.5q237 0 369 -135t132 -373v-148h-721q5 -130 77 -203t202 -73q101 0 191 21t188 67v-236q-80 -40 -171 -59.5t-222 -19.5q-270 0 -422 149t-152 422zM408 686h428q-2 113 -59 174.5t-154 61.5t-152 -61.5t-63 -174.5zM585 -242 q0 67 38 126t142 136h179q-70 -66 -109 -120.5t-39 -106.5q0 -42 22.5 -62t57.5 -20q55 0 115 18v-178q-82 -23 -156 -23q-113 0 -181.5 63.5t-68.5 166.5z" horiz-adv-x="1210" unicode="ę"/><glyph d="M184 0v1462h842v-254h-532v-321h495v-254h-495v-377h532v-256h-842zM175 1880v27h203q147 -93 229 -176q84 87 234 176h203v-27q-84 -84 -154.5 -167.5t-101.5 -133.5h-357q-29 47 -83 112.5t-173 188.5z" horiz-adv-x="1147" unicode="Ě"/><glyph d="M92 551q0 281 140.5 434.5t388.5 153.5q237 0 369 -135t132 -373v-148h-721q5 -130 77 -203t202 -73q101 0 191 21t188 67v-236q-80 -40 -171 -59.5t-222 -19.5q-270 0 -422 149t-152 422zM408 686h428q-2 113 -59 174.5t-154 61.5t-152 -61.5t-63 -174.5zM188 1542v27 h203q147 -93 229 -176q84 87 234 176h203v-27q-84 -84 -154.5 -167.5t-101.5 -133.5h-357q-29 47 -83 112.5t-173 188.5z" horiz-adv-x="1210" unicode="ě"/><glyph d="M119 733q0 354 202.5 552t561.5 198q225 0 434 -90l-103 -248q-160 80 -333 80q-201 0 -322 -135t-121 -363q0 -238 97.5 -363.5t283.5 -125.5q97 0 197 20v305h-277v258h580v-758q-141 -46 -265.5 -64.5t-254.5 -18.5q-331 0 -505.5 194.5t-174.5 558.5zM370 1579v27 q189 189 256 301h357q31 -52 107.5 -141.5t148.5 -159.5v-27h-203q-157 93 -234 176q-78 -81 -229 -176h-203z" horiz-adv-x="1483" unicode="Ĝ"/><glyph d="M6 -182q0 101 63 169t185 97q-47 20 -82 65.5t-35 96.5q0 64 37 106.5t107 83.5q-88 38 -139.5 122t-51.5 198q0 183 119 283t340 100q47 0 111.5 -8.5t82.5 -12.5h390v-155l-175 -45q48 -75 48 -168q0 -180 -125.5 -280.5t-348.5 -100.5l-55 3l-45 5q-47 -36 -47 -80 q0 -66 168 -66h190q184 0 280.5 -79t96.5 -232q0 -196 -163.5 -304t-469.5 -108q-234 0 -357.5 81.5t-123.5 228.5zM270 -158q0 -63 60.5 -99t169.5 -36q164 0 257 45t93 123q0 63 -55 87t-170 24h-158q-84 0 -140.5 -39.5t-56.5 -104.5zM381 752q0 -91 41.5 -144t126.5 -53 q86 0 126 53t40 144q0 202 -166 202q-168 0 -168 -202zM150 1241v27q189 189 256 301h357q31 -52 107.5 -141.5t148.5 -159.5v-27h-203q-157 93 -234 176q-78 -81 -229 -176h-203z" horiz-adv-x="1157" unicode="ĝ"/><glyph d="M119 733q0 354 202.5 552t561.5 198q225 0 434 -90l-103 -248q-160 80 -333 80q-201 0 -322 -135t-121 -363q0 -238 97.5 -363.5t283.5 -125.5q97 0 197 20v305h-277v258h580v-758q-141 -46 -265.5 -64.5t-254.5 -18.5q-331 0 -505.5 194.5t-174.5 558.5zM417 1917h170 q4 -47 27.5 -74t66 -39t127.5 -12q206 0 222 125h174q-12 -154 -122 -246t-276 -92q-174 0 -277.5 91t-111.5 247z" horiz-adv-x="1483" unicode="Ğ"/><glyph d="M6 -182q0 101 63 169t185 97q-47 20 -82 65.5t-35 96.5q0 64 37 106.5t107 83.5q-88 38 -139.5 122t-51.5 198q0 183 119 283t340 100q47 0 111.5 -8.5t82.5 -12.5h390v-155l-175 -45q48 -75 48 -168q0 -180 -125.5 -280.5t-348.5 -100.5l-55 3l-45 5q-47 -36 -47 -80 q0 -66 168 -66h190q184 0 280.5 -79t96.5 -232q0 -196 -163.5 -304t-469.5 -108q-234 0 -357.5 81.5t-123.5 228.5zM270 -158q0 -63 60.5 -99t169.5 -36q164 0 257 45t93 123q0 63 -55 87t-170 24h-158q-84 0 -140.5 -39.5t-56.5 -104.5zM381 752q0 -91 41.5 -144t126.5 -53 q86 0 126 53t40 144q0 202 -166 202q-168 0 -168 -202zM197 1579h170q4 -47 27.5 -74t66 -39t127.5 -12q206 0 222 125h174q-12 -154 -122 -246t-276 -92q-174 0 -277.5 91t-111.5 247z" horiz-adv-x="1157" unicode="ğ"/><glyph d="M119 733q0 354 202.5 552t561.5 198q225 0 434 -90l-103 -248q-160 80 -333 80q-201 0 -322 -135t-121 -363q0 -238 97.5 -363.5t283.5 -125.5q97 0 197 20v305h-277v258h580v-758q-141 -46 -265.5 -64.5t-254.5 -18.5q-331 0 -505.5 194.5t-174.5 558.5zM655 1745 q0 149 166 149t166 -149q0 -71 -41.5 -110.5t-124.5 -39.5q-166 0 -166 150z" horiz-adv-x="1483" unicode="Ġ"/><glyph d="M6 -182q0 101 63 169t185 97q-47 20 -82 65.5t-35 96.5q0 64 37 106.5t107 83.5q-88 38 -139.5 122t-51.5 198q0 183 119 283t340 100q47 0 111.5 -8.5t82.5 -12.5h390v-155l-175 -45q48 -75 48 -168q0 -180 -125.5 -280.5t-348.5 -100.5l-55 3l-45 5q-47 -36 -47 -80 q0 -66 168 -66h190q184 0 280.5 -79t96.5 -232q0 -196 -163.5 -304t-469.5 -108q-234 0 -357.5 81.5t-123.5 228.5zM270 -158q0 -63 60.5 -99t169.5 -36q164 0 257 45t93 123q0 63 -55 87t-170 24h-158q-84 0 -140.5 -39.5t-56.5 -104.5zM381 752q0 -91 41.5 -144t126.5 -53 q86 0 126 53t40 144q0 202 -166 202q-168 0 -168 -202zM411 1407q0 149 166 149t166 -149q0 -71 -41.5 -110.5t-124.5 -39.5q-166 0 -166 150z" horiz-adv-x="1157" unicode="ġ"/><glyph d="M119 733q0 354 202.5 552t561.5 198q225 0 434 -90l-103 -248q-160 80 -333 80q-201 0 -322 -135t-121 -363q0 -238 97.5 -363.5t283.5 -125.5q97 0 197 20v305h-277v258h580v-758q-141 -46 -265.5 -64.5t-254.5 -18.5q-331 0 -505.5 194.5t-174.5 558.5zM629 -426 q15 49 34.5 143t27.5 158h282v-20q-75 -168 -166 -308h-178v27z" horiz-adv-x="1483" unicode="Ģ"/><glyph d="M6 -182q0 101 63 169t185 97q-47 20 -82 65.5t-35 96.5q0 64 37 106.5t107 83.5q-88 38 -139.5 122t-51.5 198q0 183 119 283t340 100q47 0 111.5 -8.5t82.5 -12.5h390v-155l-175 -45q48 -75 48 -168q0 -180 -125.5 -280.5t-348.5 -100.5l-55 3l-45 5q-47 -36 -47 -80 q0 -66 168 -66h190q184 0 280.5 -79t96.5 -232q0 -196 -163.5 -304t-469.5 -108q-234 0 -357.5 81.5t-123.5 228.5zM270 -158q0 -63 60.5 -99t169.5 -36q164 0 257 45t93 123q0 63 -55 87t-170 24h-158q-84 0 -140.5 -39.5t-56.5 -104.5zM381 752q0 -91 41.5 -144t126.5 -53 q86 0 126 53t40 144q0 202 -166 202q-168 0 -168 -202zM424 1241v21q78 170 166 307h178v-27q-15 -49 -34.5 -143t-27.5 -158h-282z" horiz-adv-x="1157" unicode="ģ"/><glyph d="M184 0v1462h310v-573h579v573h309v-1462h-309v631h-579v-631h-310zM346 1579v27q189 189 256 301h357q31 -52 107.5 -141.5t148.5 -159.5v-27h-203q-157 93 -234 176q-78 -81 -229 -176h-203z" horiz-adv-x="1567" unicode="Ĥ"/><glyph d="M160 0v1556h305v-317q0 -37 -7 -174l-7 -90h16q102 164 324 164q197 0 299 -106t102 -304v-729h-305v653q0 242 -180 242q-128 0 -185 -87t-57 -282v-526h-305zM239 1634v27q189 189 256 301h357q31 -52 107.5 -141.5t148.5 -159.5v-27h-203q-157 93 -234 176 q-78 -81 -229 -176h-203z" horiz-adv-x="1346" unicode="ĥ"/><glyph d="M0 1069v199h184v194h310v-194h579v194h309v-194h185v-199h-185v-1069h-309v631h-579v-631h-310v1069h-184zM494 889h579v180h-579v-180z" horiz-adv-x="1567" unicode="Ħ"/><glyph d="M4 1196v199h156v161h305v-161h315v-199h-315v-18q0 -83 -14 -265h18q102 164 324 164q197 0 298 -105t101 -304v-668h-305v592q0 242 -180 242q-127 0 -184.5 -87.5t-57.5 -281.5v-465h-305v1196h-156z" horiz-adv-x="1346" unicode="ħ"/><glyph d="M184 0v1462h310v-1462h-310zM-75 1577q11 145 82.5 227t189.5 82q41 0 80.5 -16.5t78 -36t75.5 -35.5t73 -16q31 0 59.5 26t41.5 80h149q-11 -145 -83.5 -227t-188.5 -82q-41 0 -80.5 16.5t-78 36t-75.5 36t-73 16.5q-31 0 -59.5 -26.5t-41.5 -80.5h-149z" horiz-adv-x="678" unicode="Ĩ"/><glyph d="M160 0v1118h305v-1118h-305zM-101 1239q11 145 82.5 227t189.5 82q41 0 80.5 -16.5t78 -36t75.5 -35.5t73 -16q31 0 59.5 26t41.5 80h149q-11 -145 -83.5 -227t-188.5 -82q-41 0 -80.5 16.5t-78 36t-75.5 36t-73 16.5q-31 0 -59.5 -26.5t-41.5 -80.5h-149z" horiz-adv-x="625" unicode="ĩ"/><glyph d="M184 0v1462h310v-1462h-310zM3 1579v211h678v-211h-678z" horiz-adv-x="678" unicode="Ī"/><glyph d="M160 0v1118h305v-1118h-305zM-23 1241v211h678v-211h-678z" horiz-adv-x="625" unicode="ī"/><glyph d="M184 0v1462h310v-1462h-310zM-53 1917h170q4 -47 27.5 -74t66 -39t127.5 -12q206 0 222 125h174q-12 -154 -122 -246t-276 -92q-174 0 -277.5 91t-111.5 247z" horiz-adv-x="678" unicode="Ĭ"/><glyph d="M160 0v1118h305v-1118h-305zM-81 1579h170q4 -47 27.5 -74t66 -39t127.5 -12q206 0 222 125h174q-12 -154 -122 -246t-276 -92q-174 0 -277.5 91t-111.5 247z" horiz-adv-x="625" unicode="ĭ"/><glyph d="M184 0v1462h310v-1462h-310zM110 -262q0 67 38 126t142 136h179q-70 -66 -109 -120.5t-39 -106.5q0 -42 22.5 -62t57.5 -20q55 0 115 18v-178q-82 -23 -156 -23q-113 0 -181.5 63.5t-68.5 166.5z" horiz-adv-x="678" unicode="Į"/><glyph d="M147 1407q0 149 166 149t166 -149q0 -71 -41.5 -110.5t-124.5 -39.5q-166 0 -166 150zM160 0v1118h305v-1118h-305zM43 -262q0 67 38 126t142 136h179q-70 -66 -109 -120.5t-39 -106.5q0 -42 22.5 -62t57.5 -20q55 0 115 18v-178q-82 -23 -156 -23q-113 0 -181.5 63.5 t-68.5 166.5z" horiz-adv-x="625" unicode="į"/><glyph d="M184 0v1462h310v-1462h-310zM172 1745q0 149 166 149t166 -149q0 -71 -41.5 -110.5t-124.5 -39.5q-166 0 -166 150z" horiz-adv-x="678" unicode="İ"/><glyph d="M160 0v1118h305v-1118h-305z" horiz-adv-x="625" unicode="ı"/><glyph d="M184 0v1462h310v-1462h-310zM645 -150q80 -20 146 -20q102 0 146 63.5t44 198.5v1370h310v-1368q0 -256 -117 -390t-346 -134q-105 0 -183 22v258z" horiz-adv-x="1475" unicode="Ĳ"/><glyph d="M147 1407q0 149 166 149t166 -149q0 -71 -41.5 -110.5t-124.5 -39.5q-166 0 -166 150zM160 0v1118h305v-1118h-305zM455 -227q70 -19 143 -19q77 0 112.5 43t35.5 127v1194h305v-1239q0 -178 -103 -274.5t-292 -96.5q-117 0 -201 25v240zM733 1407q0 149 166 149 t166 -149q0 -71 -41.5 -110.5t-124.5 -39.5q-166 0 -166 150z" horiz-adv-x="1210" unicode="ĳ"/><glyph d="M-152 -150q80 -20 146 -20q102 0 146 63.5t44 198.5v1370h310v-1368q0 -256 -117 -390t-346 -134q-105 0 -183 22v258zM-92 1579v27q189 189 256 301h357q31 -52 107.5 -141.5t148.5 -159.5v-27h-203q-157 93 -234 176q-78 -81 -229 -176h-203z" horiz-adv-x="678" unicode="Ĵ"/><glyph d="M-131 -227q70 -19 143 -19q77 0 112.5 43t35.5 127v1194h305v-1239q0 -178 -103 -274.5t-292 -96.5q-117 0 -201 25v240zM-126 1241v27q189 189 256 301h357q31 -52 107.5 -141.5t148.5 -159.5v-27h-203q-157 93 -234 176q-78 -81 -229 -176h-203z" horiz-adv-x="625" unicode="ĵ"/><glyph d="M184 0v1462h310v-669l122 172l396 497h344l-510 -647l514 -815h-352l-383 616l-131 -94v-522h-310zM506 -426q15 49 34.5 143t27.5 158h282v-20q-75 -168 -166 -308h-178v27z" horiz-adv-x="1360" unicode="Ķ"/><glyph d="M160 0v1556h305v-694l-16 -254h4l133 170l313 340h344l-444 -485l471 -633h-352l-322 453l-131 -105v-348h-305zM467 -426q15 49 34.5 143t27.5 158h282v-20q-75 -168 -166 -308h-178v27z" horiz-adv-x="1270" unicode="ķ"/><glyph d="M160 0v1118h305v-293l-3 -161l-3 -82h4l141 170l314 366h325l-440 -512l467 -606h-348l-314 426l-143 -90v-336h-305z" horiz-adv-x="1270" unicode="ĸ"/><glyph d="M184 0v1462h310v-1206h593v-256h-903zM267 1579v27q172 200 235 301h342v-21q-52 -52 -177.5 -154.5t-196.5 -152.5h-203z" horiz-adv-x="1157" unicode="Ĺ"/><glyph d="M160 0v1556h305v-1556h-305zM179 1636v27q172 200 235 301h342v-21q-52 -52 -177.5 -154.5t-196.5 -152.5h-203z" horiz-adv-x="625" unicode="ĺ"/><glyph d="M184 0v1462h310v-1206h593v-256h-903zM424 -426q15 49 34.5 143t27.5 158h282v-20q-75 -168 -166 -308h-178v27z" horiz-adv-x="1157" unicode="Ļ"/><glyph d="M160 0v1556h305v-1556h-305zM99 -426q15 49 34.5 143t27.5 158h282v-20q-75 -168 -166 -308h-178v27z" horiz-adv-x="625" unicode="ļ"/><glyph d="M184 0v1462h310v-1206h593v-256h-903zM723 1136v26q15 49 34.5 143t27.5 158h282v-20q-80 -176 -166 -307h-178z" horiz-adv-x="1157" unicode="Ľ"/><glyph d="M160 0v1556h305v-1556h-305zM557 1229v26q15 49 34.5 143t27.5 158h282v-20q-80 -176 -166 -307h-178z" horiz-adv-x="625" unicode="ľ"/><glyph d="M184 0v1462h310v-1206h593v-256h-903zM706 751q0 149 166 149t166 -149q0 -71 -41.5 -110.5t-124.5 -39.5q-166 0 -166 150z" horiz-adv-x="1157" unicode="Ŀ"/><glyph d="M160 0v1556h305v-1556h-305zM587 695q0 149 166 149t166 -149q0 -71 -41.5 -110.5t-124.5 -39.5q-166 0 -166 150z" horiz-adv-x="877" unicode="ŀ"/><glyph d="M2 647l182 111v704h310v-516l143 88l117 -196l-260 -158v-424h593v-256h-903v492l-69 -41z" horiz-adv-x="1157" unicode="Ł"/><glyph d="M0 631l184 112v813h305v-626l70 43l117 -197l-187 -112v-664h-305v477l-71 -43z" horiz-adv-x="676" unicode="ł"/><glyph d="M184 0v1462h391l635 -1095h7q-15 285 -15 403v692h279v-1462h-394l-636 1106h-9q19 -293 19 -418v-688h-277zM656 1579v27q172 200 235 301h342v-21q-52 -52 -177.5 -154.5t-196.5 -152.5h-203z" horiz-adv-x="1665" unicode="Ń"/><glyph d="M160 0v1118h233l41 -143h17q51 81 140.5 122.5t203.5 41.5q195 0 296 -105.5t101 -304.5v-729h-305v653q0 121 -43 181.5t-137 60.5q-128 0 -185 -85.5t-57 -283.5v-526h-305zM502 1241v27q172 200 235 301h342v-21q-52 -52 -177.5 -154.5t-196.5 -152.5h-203z" horiz-adv-x="1346" unicode="ń"/><glyph d="M184 0v1462h391l635 -1095h7q-15 285 -15 403v692h279v-1462h-394l-636 1106h-9q19 -293 19 -418v-688h-277zM598 -426q15 49 34.5 143t27.5 158h282v-20q-75 -168 -166 -308h-178v27z" horiz-adv-x="1665" unicode="Ņ"/><glyph d="M160 0v1118h233l41 -143h17q51 81 140.5 122.5t203.5 41.5q195 0 296 -105.5t101 -304.5v-729h-305v653q0 121 -43 181.5t-137 60.5q-128 0 -185 -85.5t-57 -283.5v-526h-305zM467 -426q15 49 34.5 143t27.5 158h282v-20q-75 -168 -166 -308h-178v27z" horiz-adv-x="1346" unicode="ņ"/><glyph d="M184 0v1462h391l635 -1095h7q-15 285 -15 403v692h279v-1462h-394l-636 1106h-9q19 -293 19 -418v-688h-277zM424 1880v27h203q147 -93 229 -176q84 87 234 176h203v-27q-84 -84 -154.5 -167.5t-101.5 -133.5h-357q-29 47 -83 112.5t-173 188.5z" horiz-adv-x="1665" unicode="Ň"/><glyph d="M160 0v1118h233l41 -143h17q51 81 140.5 122.5t203.5 41.5q195 0 296 -105.5t101 -304.5v-729h-305v653q0 121 -43 181.5t-137 60.5q-128 0 -185 -85.5t-57 -283.5v-526h-305zM264 1542v27h203q147 -93 229 -176q84 87 234 176h203v-27q-84 -84 -154.5 -167.5 t-101.5 -133.5h-357q-29 47 -83 112.5t-173 188.5z" horiz-adv-x="1346" unicode="ň"/><glyph d="M410 0v1118h233l41 -143h17q51 81 140.5 122.5t203.5 41.5q195 0 296 -105.5t101 -304.5v-729h-305v653q0 121 -43 181.5t-137 60.5q-128 0 -185 -85.5t-57 -283.5v-526h-305zM6 961q69 296 100 501h281l14 -22q-50 -197 -176 -479h-219z" horiz-adv-x="1595" unicode="ŉ"/><glyph d="M184 0v1462h391l635 -891h7l-8 151q-7 109 -7 253v487h279v-1462q0 -207 -120.5 -318.5t-344.5 -111.5q-114 0 -197 22v258q93 -20 166 -20q109 0 168 45.5t68 128.5l-770 1102h-9q19 -293 19 -418v-688h-277z" horiz-adv-x="1665" unicode="Ŋ"/><glyph d="M160 0v1118h233l41 -143h19q50 79 138 121.5t204 42.5q195 0 296 -105.5t101 -304.5v-850q0 -179 -94 -275t-269 -96q-107 0 -184 25v240q59 -19 119 -19q123 0 123 170v752q0 219 -180 219q-128 0 -185 -85.5t-57 -283.5v-526h-305z" horiz-adv-x="1346" unicode="ŋ"/><glyph d="M119 735q0 365 180.5 557.5t517.5 192.5t515.5 -194t178.5 -558q0 -363 -180 -558t-516 -195t-516 195t-180 560zM444 733q0 -245 93 -369t278 -124q371 0 371 493q0 494 -369 494q-185 0 -279 -124.5t-94 -369.5zM478 1579v211h678v-211h-678z" horiz-adv-x="1630" unicode="Ō"/><glyph d="M92 561q0 274 143 426t402 152q161 0 284 -70t189 -201t66 -307q0 -273 -144 -427t-401 -154q-161 0 -284 70.5t-189 202.5t-66 308zM403 561q0 -166 54.5 -251t177.5 -85q122 0 175.5 84.5t53.5 251.5q0 166 -54 249t-177 83q-122 0 -176 -82.5t-54 -249.5zM295 1241 v211h678v-211h-678z" horiz-adv-x="1268" unicode="ō"/><glyph d="M119 735q0 365 180.5 557.5t517.5 192.5t515.5 -194t178.5 -558q0 -363 -180 -558t-516 -195t-516 195t-180 560zM444 733q0 -245 93 -369t278 -124q371 0 371 493q0 494 -369 494q-185 0 -279 -124.5t-94 -369.5zM424 1917h170q4 -47 27.5 -74t66 -39t127.5 -12 q206 0 222 125h174q-12 -154 -122 -246t-276 -92q-174 0 -277.5 91t-111.5 247z" horiz-adv-x="1630" unicode="Ŏ"/><glyph d="M92 561q0 274 143 426t402 152q161 0 284 -70t189 -201t66 -307q0 -273 -144 -427t-401 -154q-161 0 -284 70.5t-189 202.5t-66 308zM403 561q0 -166 54.5 -251t177.5 -85q122 0 175.5 84.5t53.5 251.5q0 166 -54 249t-177 83q-122 0 -176 -82.5t-54 -249.5zM239 1579 h170q4 -47 27.5 -74t66 -39t127.5 -12q206 0 222 125h174q-12 -154 -122 -246t-276 -92q-174 0 -277.5 91t-111.5 247z" horiz-adv-x="1268" unicode="ŏ"/><glyph d="M119 735q0 365 180.5 557.5t517.5 192.5t515.5 -194t178.5 -558q0 -363 -180 -558t-516 -195t-516 195t-180 560zM444 733q0 -245 93 -369t278 -124q371 0 371 493q0 494 -369 494q-185 0 -279 -124.5t-94 -369.5zM478 1579v27q62 85 117.5 172.5t76.5 128.5h301v-21 q-32 -53 -146 -153t-188 -154h-161zM875 1579v27q139 192 195 301h301v-21q-25 -43 -125.5 -134.5t-208.5 -172.5h-162z" horiz-adv-x="1630" unicode="Ő"/><glyph d="M92 561q0 274 143 426t402 152q161 0 284 -70t189 -201t66 -307q0 -273 -144 -427t-401 -154q-161 0 -284 70.5t-189 202.5t-66 308zM403 561q0 -166 54.5 -251t177.5 -85q122 0 175.5 84.5t53.5 251.5q0 166 -54 249t-177 83q-122 0 -176 -82.5t-54 -249.5zM279 1241v27 q62 85 117.5 172.5t76.5 128.5h301v-21q-32 -53 -146 -153t-188 -154h-161zM676 1241v27q139 192 195 301h301v-21q-25 -43 -125.5 -134.5t-208.5 -172.5h-162z" horiz-adv-x="1268" unicode="ő"/><glyph d="M119 735q0 363 169.5 556.5t487.5 193.5q61 0 127 -7t101 -16h868v-254h-563v-321h526v-254h-526v-377h563v-256h-873q-38 -9 -109 -14.5t-116 -5.5q-319 0 -487 197t-168 558zM438 733q0 -244 86 -368.5t250 -124.5q65 0 126 10.5t99 28.5v907q-35 19 -101.5 30 t-121.5 11q-166 0 -252 -125.5t-86 -368.5z" horiz-adv-x="1993" unicode="Œ"/><glyph d="M92 561q0 277 141.5 427.5t399.5 150.5q112 0 212 -39.5t171 -116.5q144 156 383 156q244 0 380 -135t136 -373v-148h-746v-8q7 -127 81.5 -197.5t207.5 -70.5q107 0 200 21t193 67v-236q-81 -39 -175.5 -59t-229.5 -20q-271 0 -420 155q-141 -155 -391 -155 q-162 0 -286 70t-190.5 202t-66.5 309zM403 561q0 -166 54.5 -251t177.5 -85q122 0 175.5 84.5t53.5 251.5q0 166 -54 249t-177 83q-122 0 -176 -82.5t-54 -249.5zM1178 686h450q-2 111 -60.5 173.5t-162.5 62.5q-94 0 -156 -57.5t-71 -178.5z" horiz-adv-x="2003" unicode="œ"/><glyph d="M184 0v1462h426q298 0 441 -108.5t143 -329.5q0 -129 -71 -229.5t-201 -157.5q330 -493 430 -637h-344l-349 561h-165v-561h-310zM494 813h100q147 0 217 49t70 154q0 104 -71.5 148t-221.5 44h-94v-395zM477 1579v27q172 200 235 301h342v-21q-52 -52 -177.5 -154.5 t-196.5 -152.5h-203z" horiz-adv-x="1352" unicode="Ŕ"/><glyph d="M160 0v1118h231l45 -188h15q52 94 140.5 151.5t192.5 57.5q62 0 103 -9l-23 -286q-37 10 -90 10q-146 0 -227.5 -75t-81.5 -210v-569h-305zM338 1241v27q172 200 235 301h342v-21q-52 -52 -177.5 -154.5t-196.5 -152.5h-203z" horiz-adv-x="930" unicode="ŕ"/><glyph d="M184 0v1462h426q298 0 441 -108.5t143 -329.5q0 -129 -71 -229.5t-201 -157.5q330 -493 430 -637h-344l-349 561h-165v-561h-310zM494 813h100q147 0 217 49t70 154q0 104 -71.5 148t-221.5 44h-94v-395zM530 -426q15 49 34.5 143t27.5 158h282v-20q-75 -168 -166 -308 h-178v27z" horiz-adv-x="1352" unicode="Ŗ"/><glyph d="M160 0v1118h231l45 -188h15q52 94 140.5 151.5t192.5 57.5q62 0 103 -9l-23 -286q-37 10 -90 10q-146 0 -227.5 -75t-81.5 -210v-569h-305zM99 -426q15 49 34.5 143t27.5 158h282v-20q-75 -168 -166 -308h-178v27z" horiz-adv-x="930" unicode="ŗ"/><glyph d="M184 0v1462h426q298 0 441 -108.5t143 -329.5q0 -129 -71 -229.5t-201 -157.5q330 -493 430 -637h-344l-349 561h-165v-561h-310zM494 813h100q147 0 217 49t70 154q0 104 -71.5 148t-221.5 44h-94v-395zM237 1880v27h203q147 -93 229 -176q84 87 234 176h203v-27 q-84 -84 -154.5 -167.5t-101.5 -133.5h-357q-29 47 -83 112.5t-173 188.5z" horiz-adv-x="1352" unicode="Ř"/><glyph d="M160 0v1118h231l45 -188h15q52 94 140.5 151.5t192.5 57.5q62 0 103 -9l-23 -286q-37 10 -90 10q-146 0 -227.5 -75t-81.5 -210v-569h-305zM83 1542v27h203q147 -93 229 -176q84 87 234 176h203v-27q-84 -84 -154.5 -167.5t-101.5 -133.5h-357q-29 47 -83 112.5 t-173 188.5z" horiz-adv-x="930" unicode="ř"/><glyph d="M94 68v288q148 -66 250.5 -93t187.5 -27q102 0 156.5 39t54.5 116q0 43 -24 76.5t-70.5 64.5t-189.5 99q-134 63 -201 121t-107 135t-40 180q0 194 131.5 305t363.5 111q114 0 217.5 -27t216.5 -76l-100 -241q-117 48 -193.5 67t-150.5 19q-88 0 -135 -41t-47 -107 q0 -41 19 -71.5t60.5 -59t196.5 -102.5q205 -98 281 -196.5t76 -241.5q0 -198 -142.5 -312t-396.5 -114q-234 0 -414 88zM410 1579v27q172 200 235 301h342v-21q-52 -52 -177.5 -154.5t-196.5 -152.5h-203z" horiz-adv-x="1128" unicode="Ś"/><glyph d="M92 827q0 149 115.5 230.5t327.5 81.5q202 0 393 -88l-92 -220q-84 36 -157 59t-149 23q-135 0 -135 -73q0 -41 43.5 -71t190.5 -89q131 -53 192 -99t90 -106t29 -143q0 -172 -119.5 -262t-357.5 -90q-122 0 -208 16.5t-161 48.5v252q85 -40 191.5 -67t187.5 -27 q166 0 166 96q0 36 -22 58.5t-76 51t-144 66.5q-129 54 -189.5 100t-88 105.5t-27.5 146.5zM342 1241v27q172 200 235 301h342v-21q-52 -52 -177.5 -154.5t-196.5 -152.5h-203z" horiz-adv-x="1018" unicode="ś"/><glyph d="M94 68v288q148 -66 250.5 -93t187.5 -27q102 0 156.5 39t54.5 116q0 43 -24 76.5t-70.5 64.5t-189.5 99q-134 63 -201 121t-107 135t-40 180q0 194 131.5 305t363.5 111q114 0 217.5 -27t216.5 -76l-100 -241q-117 48 -193.5 67t-150.5 19q-88 0 -135 -41t-47 -107 q0 -41 19 -71.5t60.5 -59t196.5 -102.5q205 -98 281 -196.5t76 -241.5q0 -198 -142.5 -312t-396.5 -114q-234 0 -414 88zM164 1579v27q189 189 256 301h357q31 -52 107.5 -141.5t148.5 -159.5v-27h-203q-157 93 -234 176q-78 -81 -229 -176h-203z" horiz-adv-x="1128" unicode="Ŝ"/><glyph d="M92 827q0 149 115.5 230.5t327.5 81.5q202 0 393 -88l-92 -220q-84 36 -157 59t-149 23q-135 0 -135 -73q0 -41 43.5 -71t190.5 -89q131 -53 192 -99t90 -106t29 -143q0 -172 -119.5 -262t-357.5 -90q-122 0 -208 16.5t-161 48.5v252q85 -40 191.5 -67t187.5 -27 q166 0 166 96q0 36 -22 58.5t-76 51t-144 66.5q-129 54 -189.5 100t-88 105.5t-27.5 146.5zM93 1241v27q189 189 256 301h357q31 -52 107.5 -141.5t148.5 -159.5v-27h-203q-157 93 -234 176q-78 -81 -229 -176h-203z" horiz-adv-x="1018" unicode="ŝ"/><glyph d="M94 68v288q148 -66 250.5 -93t187.5 -27q102 0 156.5 39t54.5 116q0 43 -24 76.5t-70.5 64.5t-189.5 99q-134 63 -201 121t-107 135t-40 180q0 194 131.5 305t363.5 111q114 0 217.5 -27t216.5 -76l-100 -241q-117 48 -193.5 67t-150.5 19q-88 0 -135 -41t-47 -107 q0 -41 19 -71.5t60.5 -59t196.5 -102.5q205 -98 281 -196.5t76 -241.5q0 -198 -142.5 -312t-396.5 -114q-234 0 -414 88zM317 -303q27 -7 72.5 -14t70.5 -7q72 0 72 62q0 83 -166 108l78 154h193l-27 -61q74 -24 118 -74.5t44 -114.5q0 -128 -75.5 -185t-233.5 -57 q-78 0 -146 21v168z" horiz-adv-x="1128" unicode="Ş"/><glyph d="M92 827q0 149 115.5 230.5t327.5 81.5q202 0 393 -88l-92 -220q-84 36 -157 59t-149 23q-135 0 -135 -73q0 -41 43.5 -71t190.5 -89q131 -53 192 -99t90 -106t29 -143q0 -172 -119.5 -262t-357.5 -90q-122 0 -208 16.5t-161 48.5v252q85 -40 191.5 -67t187.5 -27 q166 0 166 96q0 36 -22 58.5t-76 51t-144 66.5q-129 54 -189.5 100t-88 105.5t-27.5 146.5zM264 -303q27 -7 72.5 -14t70.5 -7q72 0 72 62q0 83 -166 108l78 154h193l-27 -61q74 -24 118 -74.5t44 -114.5q0 -128 -75.5 -185t-233.5 -57q-78 0 -146 21v168z" horiz-adv-x="1018" unicode="ş"/><glyph d="M94 68v288q148 -66 250.5 -93t187.5 -27q102 0 156.5 39t54.5 116q0 43 -24 76.5t-70.5 64.5t-189.5 99q-134 63 -201 121t-107 135t-40 180q0 194 131.5 305t363.5 111q114 0 217.5 -27t216.5 -76l-100 -241q-117 48 -193.5 67t-150.5 19q-88 0 -135 -41t-47 -107 q0 -41 19 -71.5t60.5 -59t196.5 -102.5q205 -98 281 -196.5t76 -241.5q0 -198 -142.5 -312t-396.5 -114q-234 0 -414 88zM164 1880v27h203q147 -93 229 -176q84 87 234 176h203v-27q-84 -84 -154.5 -167.5t-101.5 -133.5h-357q-29 47 -83 112.5t-173 188.5z" horiz-adv-x="1128" unicode="Š"/><glyph d="M92 827q0 149 115.5 230.5t327.5 81.5q202 0 393 -88l-92 -220q-84 36 -157 59t-149 23q-135 0 -135 -73q0 -41 43.5 -71t190.5 -89q131 -53 192 -99t90 -106t29 -143q0 -172 -119.5 -262t-357.5 -90q-122 0 -208 16.5t-161 48.5v252q85 -40 191.5 -67t187.5 -27 q166 0 166 96q0 36 -22 58.5t-76 51t-144 66.5q-129 54 -189.5 100t-88 105.5t-27.5 146.5zM103 1542v27h203q147 -93 229 -176q84 87 234 176h203v-27q-84 -84 -154.5 -167.5t-101.5 -133.5h-357q-29 47 -83 112.5t-173 188.5z" horiz-adv-x="1018" unicode="š"/><glyph d="M41 1204v258h1104v-258h-397v-1204h-310v1204h-397zM375 -303q27 -7 72.5 -14t70.5 -7q72 0 72 62q0 83 -166 108l78 154h193l-27 -61q74 -24 118 -74.5t44 -114.5q0 -128 -75.5 -185t-233.5 -57q-78 0 -146 21v168z" horiz-adv-x="1186" unicode="Ţ"/><glyph d="M47 889v129l168 102l88 236h195v-238h313v-229h-313v-539q0 -65 36.5 -96t96.5 -31q80 0 192 35v-227q-114 -51 -280 -51q-183 0 -266.5 92.5t-83.5 277.5v539h-146zM285 -303q27 -7 72.5 -14t70.5 -7q72 0 72 62q0 83 -166 108l78 154h193l-27 -61q74 -24 118 -74.5 t44 -114.5q0 -128 -75.5 -185t-233.5 -57q-78 0 -146 21v168z" horiz-adv-x="889" unicode="ţ"/><glyph d="M41 1204v258h1104v-258h-397v-1204h-310v1204h-397zM160 1880v27h203q147 -93 229 -176q84 87 234 176h203v-27q-84 -84 -154.5 -167.5t-101.5 -133.5h-357q-29 47 -83 112.5t-173 188.5z" horiz-adv-x="1186" unicode="Ť"/><glyph d="M47 889v129l168 102l88 236h195v-238h313v-229h-313v-539q0 -65 36.5 -96t96.5 -31q80 0 192 35v-227q-114 -51 -280 -51q-183 0 -266.5 92.5t-83.5 277.5v539h-146zM620 1249v26q15 49 34.5 143t27.5 158h282v-20q-80 -176 -166 -307h-178z" horiz-adv-x="889" unicode="ť"/><glyph d="M41 1204v258h1104v-258h-397v-354h247v-254h-247v-596h-310v596h-248v254h248v354h-397z" horiz-adv-x="1186" unicode="Ŧ"/><glyph d="M47 889v129l168 102l88 236h195v-238h313v-229h-313v-193h278v-198h-278v-148q0 -65 36.5 -96t96.5 -31q80 0 192 35v-227q-52 -25 -126.5 -38t-147.5 -13q-186 0 -271 91t-85 279v148h-127v198h127v193h-146z" horiz-adv-x="889" unicode="ŧ"/><glyph d="M174 520v942h309v-895q0 -169 68 -248t225 -79q152 0 220.5 79.5t68.5 249.5v893h309v-946q0 -162 -72.5 -284t-209.5 -187t-324 -65q-282 0 -438 144.5t-156 395.5zM363 1577q11 145 82.5 227t189.5 82q41 0 80.5 -16.5t78 -36t75.5 -35.5t73 -16q31 0 59.5 26t41.5 80 h149q-11 -145 -83.5 -227t-188.5 -82q-41 0 -80.5 16.5t-78 36t-75.5 36t-73 16.5q-31 0 -59.5 -26.5t-41.5 -80.5h-149z" horiz-adv-x="1548" unicode="Ũ"/><glyph d="M154 389v729h305v-653q0 -121 43 -181.5t137 -60.5q128 0 185 85.5t57 283.5v526h305v-1118h-234l-41 143h-16q-49 -78 -139 -120.5t-205 -42.5q-197 0 -297 105.5t-100 303.5zM256 1239q11 145 82.5 227t189.5 82q41 0 80.5 -16.5t78 -36t75.5 -35.5t73 -16 q31 0 59.5 26t41.5 80h149q-11 -145 -83.5 -227t-188.5 -82q-41 0 -80.5 16.5t-78 36t-75.5 36t-73 16.5q-31 0 -59.5 -26.5t-41.5 -80.5h-149z" horiz-adv-x="1346" unicode="ũ"/><glyph d="M174 520v942h309v-895q0 -169 68 -248t225 -79q152 0 220.5 79.5t68.5 249.5v893h309v-946q0 -162 -72.5 -284t-209.5 -187t-324 -65q-282 0 -438 144.5t-156 395.5zM437 1579v211h678v-211h-678z" horiz-adv-x="1548" unicode="Ū"/><glyph d="M154 389v729h305v-653q0 -121 43 -181.5t137 -60.5q128 0 185 85.5t57 283.5v526h305v-1118h-234l-41 143h-16q-49 -78 -139 -120.5t-205 -42.5q-197 0 -297 105.5t-100 303.5zM330 1241v211h678v-211h-678z" horiz-adv-x="1346" unicode="ū"/><glyph d="M174 520v942h309v-895q0 -169 68 -248t225 -79q152 0 220.5 79.5t68.5 249.5v893h309v-946q0 -162 -72.5 -284t-209.5 -187t-324 -65q-282 0 -438 144.5t-156 395.5zM381 1917h170q4 -47 27.5 -74t66 -39t127.5 -12q206 0 222 125h174q-12 -154 -122 -246t-276 -92 q-174 0 -277.5 91t-111.5 247z" horiz-adv-x="1548" unicode="Ŭ"/><glyph d="M154 389v729h305v-653q0 -121 43 -181.5t137 -60.5q128 0 185 85.5t57 283.5v526h305v-1118h-234l-41 143h-16q-49 -78 -139 -120.5t-205 -42.5q-197 0 -297 105.5t-100 303.5zM276 1579h170q4 -47 27.5 -74t66 -39t127.5 -12q206 0 222 125h174q-12 -154 -122 -246 t-276 -92q-174 0 -277.5 91t-111.5 247z" horiz-adv-x="1346" unicode="ŭ"/><glyph d="M174 520v942h309v-895q0 -169 68 -248t225 -79q152 0 220.5 79.5t68.5 249.5v893h309v-946q0 -162 -72.5 -284t-209.5 -187t-324 -65q-282 0 -438 144.5t-156 395.5zM524 1815q0 108 67.5 172.5t180.5 64.5q110 0 182 -66t72 -169q0 -108 -71 -174t-183 -66t-180 64 t-68 174zM676 1815q0 -45 24 -71t72 -26q42 0 69 26t27 71t-27 70.5t-69 25.5t-69 -25.5t-27 -70.5z" horiz-adv-x="1548" unicode="Ů"/><glyph d="M154 389v729h305v-653q0 -121 43 -181.5t137 -60.5q128 0 185 85.5t57 283.5v526h305v-1118h-234l-41 143h-16q-49 -78 -139 -120.5t-205 -42.5q-197 0 -297 105.5t-100 303.5zM418 1477q0 108 67.5 172.5t180.5 64.5q110 0 182 -66t72 -169q0 -108 -71 -174t-183 -66 t-180 64t-68 174zM570 1477q0 -45 24 -71t72 -26q42 0 69 26t27 71t-27 70.5t-69 25.5t-69 -25.5t-27 -70.5z" horiz-adv-x="1346" unicode="ů"/><glyph d="M174 520v942h309v-895q0 -169 68 -248t225 -79q152 0 220.5 79.5t68.5 249.5v893h309v-946q0 -162 -72.5 -284t-209.5 -187t-324 -65q-282 0 -438 144.5t-156 395.5zM441 1579v27q62 85 117.5 172.5t76.5 128.5h301v-21q-32 -53 -146 -153t-188 -154h-161zM838 1579v27 q139 192 195 301h301v-21q-25 -43 -125.5 -134.5t-208.5 -172.5h-162z" horiz-adv-x="1548" unicode="Ű"/><glyph d="M154 389v729h305v-653q0 -121 43 -181.5t137 -60.5q128 0 185 85.5t57 283.5v526h305v-1118h-234l-41 143h-16q-49 -78 -139 -120.5t-205 -42.5q-197 0 -297 105.5t-100 303.5zM344 1241v27q62 85 117.5 172.5t76.5 128.5h301v-21q-32 -53 -146 -153t-188 -154h-161z M741 1241v27q139 192 195 301h301v-21q-25 -43 -125.5 -134.5t-208.5 -172.5h-162z" horiz-adv-x="1346" unicode="ű"/><glyph d="M174 520v942h309v-895q0 -169 68 -248t225 -79q152 0 220.5 79.5t68.5 249.5v893h309v-946q0 -162 -72.5 -284t-209.5 -187t-324 -65q-282 0 -438 144.5t-156 395.5zM594 -262q0 67 38 126t142 136h179q-70 -66 -109 -120.5t-39 -106.5q0 -42 22.5 -62t57.5 -20 q55 0 115 18v-178q-82 -23 -156 -23q-113 0 -181.5 63.5t-68.5 166.5z" horiz-adv-x="1548" unicode="Ų"/><glyph d="M154 389v729h305v-653q0 -121 43 -181.5t137 -60.5q128 0 185 85.5t57 283.5v526h305v-1118h-234l-41 143h-16q-49 -78 -139 -120.5t-205 -42.5q-197 0 -297 105.5t-100 303.5zM770 -262q0 67 38 126t142 136h179q-70 -66 -109 -120.5t-39 -106.5q0 -42 22.5 -62 t57.5 -20q55 0 115 18v-178q-82 -23 -156 -23q-113 0 -181.5 63.5t-68.5 166.5z" horiz-adv-x="1346" unicode="ų"/><glyph d="M0 1462h305l187 -798q49 -221 71 -383q6 57 27.5 176.5t40.5 185.5l213 819h293l213 -819q14 -55 35 -168t32 -194q10 78 32 194.5t40 188.5l186 798h305l-372 -1462h-353l-198 768q-11 41 -37.5 169.5t-30.5 172.5q-6 -54 -30 -173.5t-37 -170.5l-197 -766h-352z M555 1579v27q189 189 256 301h357q31 -52 107.5 -141.5t148.5 -159.5v-27h-203q-157 93 -234 176q-78 -81 -229 -176h-203z" horiz-adv-x="1980" unicode="Ŵ"/><glyph d="M20 1118h304l129 -495q31 -133 63 -367h6q4 76 35 241l16 85l138 536h336l131 -536q4 -22 12.5 -65t16.5 -91.5t14.5 -95t7.5 -74.5h6q9 72 32 197.5t33 169.5l134 495h299l-322 -1118h-332l-86 391l-116 494h-7l-204 -885h-328zM442 1241v27q189 189 256 301h357 q31 -52 107.5 -141.5t148.5 -159.5v-27h-203q-157 93 -234 176q-78 -81 -229 -176h-203z" horiz-adv-x="1753" unicode="ŵ"/><glyph d="M0 1462h336l303 -602l305 602h334l-485 -893v-569h-308v559zM206 1579v27q189 189 256 301h357q31 -52 107.5 -141.5t148.5 -159.5v-27h-203q-157 93 -234 176q-78 -81 -229 -176h-203z" horiz-adv-x="1278" unicode="Ŷ"/><glyph d="M0 1118h334l211 -629q27 -82 37 -194h6q11 103 43 194l207 629h327l-473 -1261q-65 -175 -185.5 -262t-281.5 -87q-79 0 -155 17v242q55 -13 120 -13q81 0 141.5 49.5t94.5 149.5l18 55zM150 1241v27q189 189 256 301h357q31 -52 107.5 -141.5t148.5 -159.5v-27h-203 q-157 93 -234 176q-78 -81 -229 -176h-203z" horiz-adv-x="1165" unicode="ŷ"/><glyph d="M0 1462h336l303 -602l305 602h334l-485 -893v-569h-308v559zM297 1743q0 65 37.5 100t101.5 35q66 0 103.5 -37t37.5 -98q0 -60 -38 -96.5t-103 -36.5q-64 0 -101.5 35t-37.5 98zM700 1743q0 70 40.5 102.5t100.5 32.5q65 0 103.5 -36t38.5 -99q0 -61 -39 -97t-103 -36 q-60 0 -100.5 32.5t-40.5 100.5z" horiz-adv-x="1278" unicode="Ÿ"/><glyph d="M49 0v201l701 1005h-682v256h1050v-200l-700 -1006h719v-256h-1088zM410 1579v27q172 200 235 301h342v-21q-52 -52 -177.5 -154.5t-196.5 -152.5h-203z" horiz-adv-x="1186" unicode="Ź"/><glyph d="M55 0v180l518 705h-487v233h834v-198l-504 -687h522v-233h-883zM352 1241v27q172 200 235 301h342v-21q-52 -52 -177.5 -154.5t-196.5 -152.5h-203z" horiz-adv-x="999" unicode="ź"/><glyph d="M49 0v201l701 1005h-682v256h1050v-200l-700 -1006h719v-256h-1088zM426 1745q0 149 166 149t166 -149q0 -71 -41.5 -110.5t-124.5 -39.5q-166 0 -166 150z" horiz-adv-x="1186" unicode="Ż"/><glyph d="M55 0v180l518 705h-487v233h834v-198l-504 -687h522v-233h-883zM329 1407q0 149 166 149t166 -149q0 -71 -41.5 -110.5t-124.5 -39.5q-166 0 -166 150z" horiz-adv-x="999" unicode="ż"/><glyph d="M49 0v201l701 1005h-682v256h1050v-200l-700 -1006h719v-256h-1088zM171 1880v27h203q147 -93 229 -176q84 87 234 176h203v-27q-84 -84 -154.5 -167.5t-101.5 -133.5h-357q-29 47 -83 112.5t-173 188.5z" horiz-adv-x="1186" unicode="Ž"/><glyph d="M55 0v180l518 705h-487v233h834v-198l-504 -687h522v-233h-883zM83 1542v27h203q147 -93 229 -176q84 87 234 176h203v-27q-84 -84 -154.5 -167.5t-101.5 -133.5h-357q-29 47 -83 112.5t-173 188.5z" horiz-adv-x="999" unicode="ž"/><glyph d="M160 0v1200q0 191 94 279t299 88q158 0 278 -47l-71 -224q-92 29 -168 29q-127 0 -127 -137v-1188h-305z" horiz-adv-x="784" unicode="ſ"/><glyph d="M197 -227q59 -19 118 -19q125 0 125 170v881h-168v147l168 82v82q0 189 87.5 278t281.5 89q150 0 262 -47l-72 -224q-82 29 -145 29q-109 0 -109 -137v-70h228v-229h-228v-926q0 -177 -94 -274t-270 -97q-107 0 -184 25v240z" unicode="ƒ"/><glyph d="M119 735q0 363 181 556.5t519 193.5q346 0 524 -203q93 61 93 274h301l14 -22q-36 -177 -107 -277.5t-194 -150.5q61 -159 61 -373q0 -363 -180 -558t-516 -195t-516 195t-180 560zM444 733q0 -245 93 -369t278 -124q371 0 371 493q0 494 -369 494q-185 0 -279 -124.5 t-94 -369.5zM1630 0z" horiz-adv-x="1690" unicode="Ơ"/><glyph d="M92 561q0 274 143 426t402 152q112 0 212 -34.5t171 -103.5q149 45 149 285h301l15 -22q-27 -134 -70.5 -212.5t-114.5 -132t-176 -79.5q52 -125 52 -279q0 -273 -144 -427t-401 -154q-161 0 -284 70.5t-189 202.5t-66 308zM403 561q0 -166 54.5 -251t177.5 -85 q122 0 175.5 84.5t53.5 251.5q0 166 -54 249t-177 83q-122 0 -176 -82.5t-54 -249.5zM1268 0z" horiz-adv-x="1391" unicode="ơ"/><glyph d="M174 520v942h309v-919q0 -156 70.5 -229.5t222.5 -73.5t220.5 76.5t68.5 228.5v917h309v-188q74 26 109 101t35 181h301l14 -22q-32 -154 -85.5 -237.5t-144.5 -135t-229 -71.5v-574q0 -162 -72.5 -284t-209.5 -187t-324 -65q-282 0 -438 144.5t-156 395.5zM1548 0z" horiz-adv-x="1812" unicode="Ư"/><glyph d="M154 389v729h305v-653q0 -121 43 -181.5t137 -60.5q128 0 185 85.5t57 283.5v526h305v-117q71 22 110 95.5t39 189.5h301l15 -22q-32 -156 -86 -240t-145.5 -135t-233.5 -72v-817h-234l-41 143h-18q-48 -77 -137.5 -120t-204.5 -43q-197 0 -297 105.5t-100 303.5zM1346 0 z" horiz-adv-x="1556" unicode="ư"/><glyph d="M-131 -227q70 -19 143 -19q77 0 112.5 43t35.5 127v1194h305v-1239q0 -178 -103 -274.5t-292 -96.5q-117 0 -201 25v240zM-124 1542v27h203q147 -93 229 -176q84 87 234 176h203v-27q-84 -84 -154.5 -167.5t-101.5 -133.5h-357q-29 47 -83 112.5t-173 188.5z" horiz-adv-x="625" unicode="ǰ"/><glyph d="M0 0l500 1315q-43 58 -43 145q0 110 68 174t180 64q109 0 181 -64.5t72 -171.5q0 -85 -47 -147l502 -1315h-332l-106 330h-535l-108 -330h-332zM508 590h401l-102 289q-86 230 -100 299q-19 -71 -87 -267zM584 1753v16q46 42 99 102t75 91h342v-12q-23 -26 -114.5 -84 t-199.5 -113h-202zM608 1460q0 -92 86 -96h19q38 2 63 27.5t25 68.5q0 45 -27 70.5t-69 25.5t-69.5 -25.5t-27.5 -70.5z" horiz-adv-x="1413" unicode="Ǻ"/><glyph d="M86 334q0 178 124.5 262.5t375.5 93.5l194 6v49q0 170 -174 170q-134 0 -315 -81l-101 206q193 101 428 101q225 0 345 -98t120 -298v-745h-213l-59 152h-8q-77 -97 -158.5 -134.5t-212.5 -37.5q-161 0 -253.5 92t-92.5 262zM379 1436q0 108 67.5 172.5t180.5 64.5 q110 0 182 -66t72 -169q0 -108 -71 -174t-183 -66t-180 64t-68 174zM399 332q0 -129 148 -129q106 0 169.5 61t63.5 162v92l-118 -4q-133 -4 -198 -48t-65 -134zM471 1753v16q46 42 99 102t75 91h342v-12q-21 -24 -103 -76.5t-210 -120.5h-203zM530 1436q0 -45 24.5 -71 t72.5 -26q42 0 69 26t27 71t-27 70.5t-69 25.5t-69.5 -25.5t-27.5 -70.5z" horiz-adv-x="1237" unicode="ǻ"/><glyph d="M0 0l655 1462h1174v-254h-563v-321h526v-254h-526v-377h563v-256h-873v348h-491l-150 -348h-315zM578 608h378v590h-127zM1004 1579v27q172 200 235 301h342v-21q-52 -52 -177.5 -154.5t-196.5 -152.5h-203z" horiz-adv-x="1950" unicode="Ǽ"/><glyph d="M86 334q0 178 121 262.5t362 93.5l191 6v84q0 69 -44.5 102t-121.5 33q-140 0 -305 -77l-99 202q189 101 422 101q227 0 342 -131q66 64 152.5 96.5t206.5 32.5q221 0 349 -137.5t128 -370.5v-148h-723q5 -130 77 -203t202 -73q196 0 380 88v-236q-79 -39 -171 -59 t-226 -20q-137 0 -249.5 50.5t-184.5 155.5q-98 -117 -196.5 -161.5t-256.5 -44.5q-161 0 -258.5 94.5t-97.5 259.5zM399 332q0 -129 140 -129q101 0 161 61t60 162v92l-113 -4q-124 -4 -186 -47.5t-62 -134.5zM1073 686h430q-2 112 -55 174t-141 62q-217 0 -234 -236z M797 1241v27q172 200 235 301h342v-21q-52 -52 -177.5 -154.5t-196.5 -152.5h-203z" horiz-adv-x="1878" unicode="ǽ"/><glyph d="M119 735q0 365 180.5 557.5t517.5 192.5q198 0 344 -70l84 125l160 -104l-88 -131q194 -194 194 -572q0 -363 -180 -558t-516 -195q-197 0 -336 65l-90 -135l-162 108l90 136q-198 194 -198 581zM444 733q0 -191 56 -307l506 756q-84 45 -189 45q-185 0 -279 -124.5 t-94 -369.5zM635 279q76 -39 180 -39q371 0 371 493q0 180 -51 297zM637 1579v27q172 200 235 301h342v-21q-52 -52 -177.5 -154.5t-196.5 -152.5h-203z" horiz-adv-x="1630" unicode="Ǿ"/><glyph d="M92 561q0 274 143 426t402 152q132 0 248 -52l55 82l152 -108l-58 -84q142 -155 142 -416q0 -273 -144 -427t-401 -154q-126 0 -234 45l-67 -101l-154 105l68 100q-152 156 -152 432zM403 561q0 -94 19 -166l317 475q-43 23 -106 23q-122 0 -176 -82.5t-54 -249.5z M543 240q38 -15 92 -15q122 0 175.5 84.5t53.5 251.5q0 81 -12 141zM455 1241v27q172 200 235 301h342v-21q-52 -52 -177.5 -154.5t-196.5 -152.5h-203z" horiz-adv-x="1268" unicode="ǿ"/><glyph d="M94 68v288q148 -66 250.5 -93t187.5 -27q102 0 156.5 39t54.5 116q0 43 -24 76.5t-70.5 64.5t-189.5 99q-134 63 -201 121t-107 135t-40 180q0 194 131.5 305t363.5 111q114 0 217.5 -27t216.5 -76l-100 -241q-117 48 -193.5 67t-150.5 19q-88 0 -135 -41t-47 -107 q0 -41 19 -71.5t60.5 -59t196.5 -102.5q205 -98 281 -196.5t76 -241.5q0 -198 -142.5 -312t-396.5 -114q-234 0 -414 88zM345 -426q15 49 34.5 143t27.5 158h282v-20q-75 -168 -166 -308h-178v27z" horiz-adv-x="1128" unicode="Ș"/><glyph d="M92 827q0 149 115.5 230.5t327.5 81.5q202 0 393 -88l-92 -220q-84 36 -157 59t-149 23q-135 0 -135 -73q0 -41 43.5 -71t190.5 -89q131 -53 192 -99t90 -106t29 -143q0 -172 -119.5 -262t-357.5 -90q-122 0 -208 16.5t-161 48.5v252q85 -40 191.5 -67t187.5 -27 q166 0 166 96q0 36 -22 58.5t-76 51t-144 66.5q-129 54 -189.5 100t-88 105.5t-27.5 146.5zM294 -426q15 49 34.5 143t27.5 158h282v-20q-75 -168 -166 -308h-178v27z" horiz-adv-x="1018" unicode="ș"/><glyph d="M41 1204v258h1104v-258h-397v-1204h-310v1204h-397zM391 -426q15 49 34.5 143t27.5 158h282v-20q-75 -168 -166 -308h-178v27z" horiz-adv-x="1186" unicode="Ț"/><glyph d="M47 889v129l168 102l88 236h195v-238h313v-229h-313v-539q0 -65 36.5 -96t96.5 -31q80 0 192 35v-227q-114 -51 -280 -51q-183 0 -266.5 92.5t-83.5 277.5v539h-146zM300 -426q15 49 34.5 143t27.5 158h282v-20q-75 -168 -166 -308h-178v27z" horiz-adv-x="889" unicode="ț"/><glyph d="M-131 -227q70 -19 143 -19q77 0 112.5 43t35.5 127v1194h305v-1239q0 -178 -103 -274.5t-292 -96.5q-117 0 -201 25v240z" horiz-adv-x="625" unicode="ȷ"/><glyph d="M25 961q69 296 100 501h281l14 -22q-50 -197 -176 -479h-219z" horiz-adv-x="444" unicode="ʼ"/><glyph d="M186 1241v27q189 189 256 301h357q31 -52 107.5 -141.5t148.5 -159.5v-27h-203q-157 93 -234 176q-78 -81 -229 -176h-203z" horiz-adv-x="1243" unicode="ˆ"/><glyph d="M186 1542v27h203q147 -93 229 -176q84 87 234 176h203v-27q-84 -84 -154.5 -167.5t-101.5 -133.5h-357q-29 47 -83 112.5t-173 188.5z" horiz-adv-x="1243" unicode="ˇ"/><glyph d="M283 1241v211h678v-211h-678z" horiz-adv-x="1243" unicode="ˉ"/><glyph d="M227 1579h170q4 -47 27.5 -74t66 -39t127.5 -12q206 0 222 125h174q-12 -154 -122 -246t-276 -92q-174 0 -277.5 91t-111.5 247z" horiz-adv-x="1243" unicode="˘"/><glyph d="M147 1407q0 149 166 149t166 -149q0 -71 -41.5 -110.5t-124.5 -39.5q-166 0 -166 150z" horiz-adv-x="625" unicode="˙"/><glyph d="M340 1477q0 108 67.5 172.5t180.5 64.5q110 0 182 -66t72 -169q0 -108 -71 -174t-183 -66t-180 64t-68 174zM492 1477q0 -45 24 -71t72 -26q42 0 69 26t27 71t-27 70.5t-69 25.5t-69 -25.5t-27 -70.5z" horiz-adv-x="1182" unicode="˚"/><glyph d="M10 -262q0 67 38 126t142 136h179q-70 -66 -109 -120.5t-39 -106.5q0 -42 22.5 -62t57.5 -20q55 0 115 18v-178q-82 -23 -156 -23q-113 0 -181.5 63.5t-68.5 166.5z" horiz-adv-x="422" unicode="˛"/><glyph d="M207 1239q11 145 82.5 227t189.5 82q41 0 80.5 -16.5t78 -36t75.5 -35.5t73 -16q31 0 59.5 26t41.5 80h149q-11 -145 -83.5 -227t-188.5 -82q-41 0 -80.5 16.5t-78 36t-75.5 36t-73 16.5q-31 0 -59.5 -26.5t-41.5 -80.5h-149z" horiz-adv-x="1243" unicode="˜"/><glyph d="M156 1241v27q62 85 117.5 172.5t76.5 128.5h301v-21q-32 -53 -146 -153t-188 -154h-161zM553 1241v27q139 192 195 301h301v-21q-25 -43 -125.5 -134.5t-208.5 -172.5h-162z" horiz-adv-x="1204" unicode="˝"/><glyph d="M88 -362q0 108 67.5 172.5t180.5 64.5q110 0 182 -66t72 -169q0 -108 -71 -174t-183 -66t-180 64t-68 174zM240 -362q0 -45 24 -71t72 -26q42 0 69 26t27 71t-27 70.5t-69 25.5t-69 -25.5t-27 -70.5z" horiz-adv-x="682" unicode="˳"/><glyph d="M-1002 1548v21h342q63 -101 235 -301v-27h-202q-63 44 -185 142.5t-190 164.5z" horiz-adv-x="0" unicode="̀"/><glyph d="M-816 1241v27q172 200 235 301h342v-21q-52 -52 -177.5 -154.5t-196.5 -152.5h-203z" horiz-adv-x="0" unicode="́"/><glyph d="M-1056 1239q11 145 82.5 227t189.5 82q41 0 80.5 -16.5t78 -36t75.5 -35.5t73 -16q31 0 59.5 26t41.5 80h149q-11 -145 -83.5 -227t-188.5 -82q-41 0 -80.5 16.5t-78 36t-75.5 36t-73 16.5q-31 0 -59.5 -26.5t-41.5 -80.5h-149z" horiz-adv-x="0" unicode="̃"/><glyph d="M-807 1509v168q30 10 82.5 16.5t93.5 6.5q140 0 209.5 -55.5t69.5 -157.5q0 -156 -162 -197l-10 -71h-174l-23 147q75 12 102 37.5t27 62.5q0 32 -21 49t-55 17q-65 0 -139 -23z" horiz-adv-x="0" unicode="̉"/><glyph d="M-1153 1548v21h301q33 -72 83 -158.5t91 -142.5v-27h-162q-73 57 -177.5 157t-135.5 150zM-756 1548v21h301q33 -72 83 -158.5t91 -142.5v-27h-161q-62 49 -171 150.5t-143 156.5z" horiz-adv-x="0" unicode="̏"/><glyph d="M-807 -281q0 150 166 150t166 -150q0 -71 -42 -110t-124 -39q-166 0 -166 149z" horiz-adv-x="0" unicode="̣"/><glyph d="M471 1241v31q18 54 44.5 164t37.5 194h283v-24q-78 -186 -187 -365h-178z" horiz-adv-x="1182" unicode="΄"/><glyph d="M186 1405q0 71 35.5 103t93.5 32q57 0 94 -32t37 -103q0 -68 -37 -100.5t-94 -32.5q-58 0 -93.5 32.5t-35.5 100.5zM487 1389v26q15 49 34.5 143t27.5 158h262v-20q-58 -128 -186 -307h-138zM733 1405q0 135 131 135q57 0 94 -32t37 -103q0 -68 -37 -100.5t-94 -32.5 q-60 0 -95.5 32.5t-35.5 100.5z" horiz-adv-x="1182" unicode="΅"/><glyph d="M0 0l516 1468h379l518 -1468h-334l-106 348h-533l-106 -348h-334zM518 608h381q-147 473 -165.5 535t-26.5 98q-33 -128 -189 -633zM-56 1136v31q18 54 44.5 164t37.5 194h283v-24q-78 -186 -187 -365h-178z" horiz-adv-x="1413" unicode="Ά"/><glyph d="M117 721q0 84 45 127t131 43q83 0 128.5 -44t45.5 -126q0 -79 -46 -124.5t-128 -45.5q-84 0 -130 44.5t-46 125.5z" horiz-adv-x="584" unicode="·"/><glyph d="M327 0v1462h842v-254h-532v-321h495v-254h-495v-377h532v-256h-842zM-99 1136v31q18 54 44.5 164t37.5 194h283v-24q-78 -186 -187 -365h-178z" horiz-adv-x="1290" unicode="Έ"/><glyph d="M327 0v1462h310v-573h579v573h309v-1462h-309v631h-579v-631h-310zM-99 1136v31q18 54 44.5 164t37.5 194h283v-24q-78 -186 -187 -365h-178z" horiz-adv-x="1710" unicode="Ή"/><glyph d="M436 0v1462h310v-1462h-310zM-99 1136v31q18 54 44.5 164t37.5 194h283v-24q-78 -186 -187 -365h-178z" horiz-adv-x="1049" unicode="Ί"/><glyph d="M201 735q0 365 180.5 557.5t517.5 192.5t515.5 -194t178.5 -558q0 -363 -180 -558t-516 -195t-516 195t-180 560zM526 733q0 -245 93 -369t278 -124q371 0 371 493q0 494 -369 494q-185 0 -279 -124.5t-94 -369.5zM-58 1136v31q18 54 44.5 164t37.5 194h283v-24 q-78 -186 -187 -365h-178z" horiz-adv-x="1712" unicode="Ό"/><glyph d="M287 1462h336l303 -602l305 602h334l-485 -893v-569h-308v559zM-120 1136v31q18 54 44.5 164t37.5 194h283v-24q-78 -186 -187 -365h-178z" horiz-adv-x="1565" unicode="Ύ"/><glyph d="M145 0v260h371q-152 93 -234.5 253.5t-82.5 358.5q0 184 85.5 323.5t243.5 214.5t367 75q319 0 507.5 -167t188.5 -448q0 -198 -83 -356t-238 -254h374v-260h-643v279q139 72 205 201t66 329q0 199 -98.5 308.5t-278.5 109.5q-181 0 -279 -110t-98 -310q0 -203 66 -329.5 t200 -198.5v-279h-639zM-58 1136v31q18 54 44.5 164t37.5 194h283v-24q-78 -186 -187 -365h-178z" horiz-adv-x="1610" unicode="Ώ"/><glyph d="M160 350v768h305v-768q0 -65 36.5 -96t96.5 -31q81 0 193 35v-227q-109 -51 -263 -51q-190 0 -279 92.5t-89 277.5zM-55 1405q0 71 35.5 103t93.5 32q57 0 94 -32t37 -103q0 -68 -37 -100.5t-94 -32.5q-58 0 -93.5 32.5t-35.5 100.5zM246 1389v26q15 49 34.5 143 t27.5 158h262v-20q-58 -128 -186 -307h-138zM492 1405q0 135 131 135q57 0 94 -32t37 -103q0 -68 -37 -100.5t-94 -32.5q-60 0 -95.5 32.5t-35.5 100.5z" horiz-adv-x="834" unicode="ΐ"/><glyph d="M0 0l516 1468h379l518 -1468h-334l-106 348h-533l-106 -348h-334zM518 608h381q-147 473 -165.5 535t-26.5 98q-33 -128 -189 -633z" horiz-adv-x="1413" unicode="Α"/><glyph d="M184 0v1462h455q311 0 451.5 -88.5t140.5 -281.5q0 -131 -61.5 -215t-163.5 -101v-10q139 -31 200.5 -116t61.5 -226q0 -200 -144.5 -312t-392.5 -112h-547zM494 256h202q128 0 189 49t61 150q0 182 -260 182h-192v-381zM494 883h180q126 0 182.5 39t56.5 129 q0 84 -61.5 120.5t-194.5 36.5h-163v-325z" horiz-adv-x="1376" unicode="Β"/><glyph d="M184 0v1462h924v-256h-614v-1206h-310z" horiz-adv-x="1149" unicode="Γ"/><glyph d="M57 0v178l443 1290h350l440 -1292v-176h-1233zM373 258h602l-252 768l-11 39q-36 129 -38 149q-2 -15 -12.5 -58.5t-30.5 -112.5t-258 -785z" horiz-adv-x="1348" unicode="Δ"/><glyph d="M184 0v1462h842v-254h-532v-321h495v-254h-495v-377h532v-256h-842z" horiz-adv-x="1147" unicode="Ε"/><glyph d="M49 0v201l701 1005h-682v256h1050v-200l-700 -1006h719v-256h-1088z" horiz-adv-x="1186" unicode="Ζ"/><glyph d="M184 0v1462h310v-573h579v573h309v-1462h-309v631h-579v-631h-310z" horiz-adv-x="1567" unicode="Η"/><glyph d="M119 735q0 365 180.5 557.5t517.5 192.5t515.5 -194t178.5 -558q0 -363 -180 -558t-516 -195t-516 195t-180 560zM438 733q0 -242 95.5 -367.5t281.5 -125.5q189 0 283 125.5t94 367.5t-94 368t-281 126t-283 -125.5t-96 -368.5zM555 616v254h520v-254h-520z" horiz-adv-x="1630" unicode="Θ"/><glyph d="M184 0v1462h310v-1462h-310z" horiz-adv-x="678" unicode="Ι"/><glyph d="M184 0v1462h310v-669l122 172l396 497h344l-510 -647l514 -815h-352l-383 616l-131 -94v-522h-310z" horiz-adv-x="1360" unicode="Κ"/><glyph d="M0 0l496 1462h338l497 -1462h-313l-273 879q-10 29 -40 149t-39 174q-12 -62 -37.5 -173t-38.5 -152l-277 -877h-313z" horiz-adv-x="1331" unicode="Λ"/><glyph d="M184 0v1462h422l346 -1118h6l367 1118h422v-1462h-289v692q0 49 1.5 113t13.5 340h-9l-377 -1145h-284l-352 1147h-9q19 -350 19 -467v-680h-277z" horiz-adv-x="1931" unicode="Μ"/><glyph d="M184 0v1462h391l635 -1095h7q-15 285 -15 403v692h279v-1462h-394l-636 1106h-9q19 -293 19 -418v-688h-277z" horiz-adv-x="1665" unicode="Ν"/><glyph d="M82 0v256h1005v-256h-1005zM123 1208v254h924v-254h-924zM205 633v254h760v-254h-760z" unicode="Ξ"/><glyph d="M119 735q0 365 180.5 557.5t517.5 192.5t515.5 -194t178.5 -558q0 -363 -180 -558t-516 -195t-516 195t-180 560zM444 733q0 -245 93 -369t278 -124q371 0 371 493q0 494 -369 494q-185 0 -279 -124.5t-94 -369.5z" horiz-adv-x="1630" unicode="Ο"/><glyph d="M184 0v1462h1157v-1462h-309v1204h-538v-1204h-310z" horiz-adv-x="1526" unicode="Π"/><glyph d="M184 0v1462h467q266 0 404.5 -114.5t138.5 -341.5q0 -236 -147.5 -361t-419.5 -125h-133v-520h-310zM494 774h102q143 0 214 56.5t71 164.5q0 109 -59.5 161t-186.5 52h-141v-434z" horiz-adv-x="1286" unicode="Ρ"/><glyph d="M78 0v244l471 522l-459 459v237h995v-254h-438q-51 0 -227 11l454 -451l-477 -524q240 12 285 12h463v-256h-1067z" horiz-adv-x="1214" unicode="Σ"/><glyph d="M41 1204v258h1104v-258h-397v-1204h-310v1204h-397z" horiz-adv-x="1186" unicode="Τ"/><glyph d="M0 1462h336l303 -602l305 602h334l-485 -893v-569h-308v559z" horiz-adv-x="1278" unicode="Υ"/><glyph d="M92 758q0 155 71.5 279.5t206.5 195t318 70.5h53v180h279v-180h53q182 0 317 -70.5t207 -195t72 -279.5q0 -160 -80.5 -291t-220.5 -196.5t-326 -65.5h-22v-225h-279v225h-22q-186 0 -326 65.5t-220.5 196.5t-80.5 291zM383 760q0 -144 90 -230t254 -86h14v617h-41 q-147 0 -232 -82t-85 -219zM1020 444h14q161 0 252.5 84.5t91.5 231.5q0 136 -85 218.5t-232 82.5h-41v-617z" horiz-adv-x="1761" unicode="Φ"/><glyph d="M0 0l485 754l-454 708h342l315 -526l309 526h334l-459 -725l494 -737h-354l-340 553l-340 -553h-332z" horiz-adv-x="1366" unicode="Χ"/><glyph d="M109 979v483h290v-479q0 -157 75 -227t253 -70h31v776h278v-776h31q174 0 251 72.5t77 220.5v483h291v-479q0 -281 -149 -414t-450 -133h-51v-436h-278v436h-51q-305 0 -451.5 132.5t-146.5 410.5z" horiz-adv-x="1794" unicode="Ψ"/><glyph d="M55 0v260h371q-152 93 -234.5 253.5t-82.5 358.5q0 184 85.5 323.5t243.5 214.5t367 75q319 0 507.5 -167t188.5 -448q0 -198 -83 -356t-238 -254h374v-260h-643v279q139 72 205 201t66 329q0 199 -98.5 308.5t-278.5 109.5q-181 0 -279 -110t-98 -310q0 -203 66 -329.5 t200 -198.5v-279h-639z" horiz-adv-x="1610" unicode="Ω"/><glyph d="M184 0v1462h310v-1462h-310zM-3 1743q0 65 37.5 100t101.5 35q66 0 103.5 -37t37.5 -98q0 -60 -38 -96.5t-103 -36.5q-64 0 -101.5 35t-37.5 98zM400 1743q0 70 40.5 102.5t100.5 32.5q65 0 103.5 -36t38.5 -99q0 -61 -39 -97t-103 -36q-60 0 -100.5 32.5t-40.5 100.5z" horiz-adv-x="678" unicode="Ϊ"/><glyph d="M0 1462h336l303 -602l305 602h334l-485 -893v-569h-308v559zM299 1743q0 65 37.5 100t101.5 35q66 0 103.5 -37t37.5 -98q0 -60 -38 -96.5t-103 -36.5q-64 0 -101.5 35t-37.5 98zM702 1743q0 70 40.5 102.5t100.5 32.5q65 0 103.5 -36t38.5 -99q0 -61 -39 -97t-103 -36 q-60 0 -100.5 32.5t-40.5 100.5z" horiz-adv-x="1278" unicode="Ϋ"/><glyph d="M92 555q0 278 121.5 430t339.5 152q118 0 194.5 -42t126.5 -126h15q24 94 67 149h252q-32 -97 -51.5 -222.5t-19.5 -229.5v-312q0 -118 84 -118q32 0 59 10v-240q-16 -10 -61.5 -18t-75.5 -8q-112 0 -171 38.5t-93 128.5h-21q-110 -167 -328 -167q-205 0 -321.5 152 t-116.5 423zM403 553q0 -165 53.5 -247.5t166.5 -82.5q118 0 171.5 71.5t57.5 250.5v12q0 180 -55.5 258t-178.5 78q-215 0 -215 -340zM520 1241v31q18 54 44.5 164t37.5 194h283v-24q-78 -186 -187 -365h-178z" horiz-adv-x="1325" unicode="ά"/><glyph d="M78 309q0 107 64 174t208 95v10q-213 49 -213 258q0 141 127 217t361 76q115 0 231.5 -23t204.5 -61l-94 -221q-119 48 -188 63.5t-146 15.5q-113 0 -168 -25t-55 -79q0 -66 66.5 -93.5t209.5 -27.5h154v-211h-168q-146 0 -219.5 -32.5t-73.5 -104.5q0 -125 268 -125 q103 0 213 22.5t199 63.5v-244q-172 -77 -434 -77q-266 0 -406.5 82.5t-140.5 246.5zM508 1241v31q18 54 44.5 164t37.5 194h283v-24q-78 -186 -187 -365h-178z" horiz-adv-x="1137" unicode="έ"/><glyph d="M160 0v1118h233l41 -143h17q51 81 140.5 122.5t203.5 41.5q195 0 296 -105.5t101 -304.5v-1221h-305v1145q0 121 -43 181.5t-137 60.5q-128 0 -185 -85.5t-57 -283.5v-526h-305zM590 1241v31q18 54 44.5 164t37.5 194h283v-24q-78 -186 -187 -365h-178z" horiz-adv-x="1346" unicode="ή"/><glyph d="M160 350v768h305v-768q0 -65 36.5 -96t96.5 -31q81 0 193 35v-227q-109 -51 -263 -51q-190 0 -279 92.5t-89 277.5zM228 1241v31q18 54 44.5 164t37.5 194h283v-24q-78 -186 -187 -365h-178z" horiz-adv-x="834" unicode="ί"/><glyph d="M143 510v608h306v-618q0 -146 52.5 -210.5t166.5 -64.5q125 0 182 93t57 296q0 107 -14 214t-57 290h307q40 -157 54.5 -275.5t14.5 -236.5q0 -314 -136.5 -469t-418.5 -155q-259 0 -386.5 129.5t-127.5 398.5zM254 1405q0 71 35.5 103t93.5 32q57 0 94 -32t37 -103 q0 -68 -37 -100.5t-94 -32.5q-58 0 -93.5 32.5t-35.5 100.5zM555 1389v26q15 49 34.5 143t27.5 158h262v-20q-58 -128 -186 -307h-138zM801 1405q0 135 131 135q57 0 94 -32t37 -103q0 -68 -37 -100.5t-94 -32.5q-60 0 -95.5 32.5t-35.5 100.5z" horiz-adv-x="1321" unicode="ΰ"/><glyph d="M92 555q0 278 121.5 430t339.5 152q118 0 194.5 -42t126.5 -126h15q24 94 67 149h252q-32 -97 -51.5 -222.5t-19.5 -229.5v-312q0 -118 84 -118q32 0 59 10v-240q-16 -10 -61.5 -18t-75.5 -8q-112 0 -171 38.5t-93 128.5h-21q-110 -167 -328 -167q-205 0 -321.5 152 t-116.5 423zM403 553q0 -165 53.5 -247.5t166.5 -82.5q118 0 171.5 71.5t57.5 250.5v12q0 180 -55.5 258t-178.5 78q-215 0 -215 -340z" horiz-adv-x="1325" unicode="α"/><glyph d="M160 -492v1588q0 224 140 347.5t394 123.5q235 0 370.5 -104t135.5 -289q0 -149 -76 -235.5t-217 -109.5v-6q188 -24 280.5 -120.5t92.5 -270.5q0 -210 -130.5 -331t-358.5 -121q-200 0 -326 63v-535h-305zM465 293q48 -31 118 -50.5t130 -19.5q128 0 190 62t62 174 q0 110 -66.5 167.5t-193.5 57.5h-72v242h53q99 0 154 54.5t55 156.5q0 92 -55 142t-154 50q-221 0 -221 -262v-774z" horiz-adv-x="1352" unicode="β"/><glyph d="M2 1118h317l164 -493q21 -62 54 -183t47 -194h6q4 44 32.5 158.5t59.5 203.5l164 508h317l-413 -1100q-45 -116 -72 -256.5t-27 -253.5h-323q0 86 28 229t72 275z" horiz-adv-x="1163" unicode="γ"/><glyph d="M92 438q0 182 96.5 302t296.5 178q-237 151 -237 342q0 144 120.5 225.5t333.5 81.5q111 0 215.5 -22.5t245.5 -88.5l-121 -215q-92 45 -178 72.5t-174 27.5q-73 0 -110 -27t-37 -73q0 -54 69 -106.5t207 -122.5q184 -94 270.5 -217t86.5 -283q0 -259 -141 -395.5 t-406 -136.5q-244 0 -390.5 124t-146.5 334zM406 451q0 -101 60 -163.5t165 -62.5q111 0 172 68t61 199q0 93 -47.5 168t-152.5 133q-123 -35 -190.5 -125.5t-67.5 -216.5z" horiz-adv-x="1268" unicode="δ"/><glyph d="M78 309q0 107 64 174t208 95v10q-213 49 -213 258q0 141 127 217t361 76q115 0 231.5 -23t204.5 -61l-94 -221q-119 48 -188 63.5t-146 15.5q-113 0 -168 -25t-55 -79q0 -66 66.5 -93.5t209.5 -27.5h154v-211h-168q-146 0 -219.5 -32.5t-73.5 -104.5q0 -125 268 -125 q103 0 213 22.5t199 63.5v-244q-172 -77 -434 -77q-266 0 -406.5 82.5t-140.5 246.5z" horiz-adv-x="1137" unicode="ε"/><glyph d="M92 467q0 209 131 420t439 463q-28 -7 -99.5 -12t-122.5 -5h-290v223h854v-182q-201 -167 -333 -316t-198.5 -289.5t-66.5 -287.5q0 -74 19.5 -119t56 -71.5t88 -40.5t116.5 -27q166 -33 245 -95.5t79 -164.5q0 -149 -138 -342h-307q69 93 108.5 170.5t39.5 124.5 q0 32 -39.5 52.5t-141.5 39.5q-440 77 -440 459z" horiz-adv-x="1020" unicode="ζ"/><glyph d="M160 0v1118h233l41 -143h17q51 81 140.5 122.5t203.5 41.5q195 0 296 -105.5t101 -304.5v-1221h-305v1145q0 121 -43 181.5t-137 60.5q-128 0 -185 -85.5t-57 -283.5v-526h-305z" horiz-adv-x="1346" unicode="η"/><glyph d="M92 780q0 407 134 603t405 196q265 0 404 -203.5t139 -595.5q0 -405 -134.5 -602.5t-408.5 -197.5q-265 0 -402 205.5t-137 594.5zM403 672q4 -235 56.5 -353t171.5 -118q117 0 170.5 116.5t58.5 354.5h-457zM406 899h454q-8 230 -60.5 344.5t-166.5 114.5 q-108 0 -163 -106.5t-64 -352.5z" horiz-adv-x="1266" unicode="θ"/><glyph d="M160 350v768h305v-768q0 -65 36.5 -96t96.5 -31q81 0 193 35v-227q-109 -51 -263 -51q-190 0 -279 92.5t-89 277.5z" horiz-adv-x="834" unicode="ι"/><glyph d="M160 0v1118h305v-293l-3 -161l-3 -82h4l141 170l314 366h325l-440 -512l467 -606h-348l-314 426l-143 -90v-336h-305z" horiz-adv-x="1270" unicode="κ"/><glyph d="M8 0l473 1057l-35 92q-36 90 -82 127t-141 37q-50 0 -102 -13v252q79 17 166 17q115 0 196.5 -35t139 -108.5t108.5 -215.5l281 -772q37 -104 75 -153t93 -49q33 0 69 10v-236q-23 -12 -80 -21t-96 -9q-110 0 -180 54t-111 173q-114 323 -135.5 389.5t-34.5 118.5h-6 q-46 -154 -76 -230l-206 -485h-316z" horiz-adv-x="1260" unicode="λ"/><glyph d="M160 -492v1610h305v-653q0 -121 44 -181.5t138 -60.5q126 0 183 86.5t57 282.5v526h305v-1118h-231l-43 150h-15q-42 -85 -102 -127.5t-148 -42.5q-62 0 -114 23t-84 67l5 -85l5 -157v-320h-305z" horiz-adv-x="1352" unicode="μ"/><glyph d="M6 1118h313l218 -620l69 -228h8q115 153 166 351t51 497h308q0 -256 -44 -441.5t-139.5 -351t-255.5 -325.5h-274z" horiz-adv-x="1219" unicode="ν"/><glyph d="M92 438q0 126 73 221.5t210 149.5v10q-219 52 -219 254q0 107 67.5 171.5t220.5 101.5q-205 -13 -272 -13h-22v223h804v-210h-75q-185 0 -302.5 -68.5t-117.5 -185.5q0 -95 64.5 -136t211.5 -41h166v-210h-168q-173 0 -250 -61.5t-77 -184.5q0 -71 23.5 -113.5t72 -69 t184.5 -53.5q166 -33 245 -95.5t79 -164.5q0 -149 -138 -342h-307q69 93 108.5 170.5t39.5 124.5q0 32 -39.5 52.5t-141.5 39.5q-217 38 -328.5 147t-111.5 283z" horiz-adv-x="1020" unicode="ξ"/><glyph d="M92 561q0 274 143 426t402 152q161 0 284 -70t189 -201t66 -307q0 -273 -144 -427t-401 -154q-161 0 -284 70.5t-189 202.5t-66 308zM403 561q0 -166 54.5 -251t177.5 -85q122 0 175.5 84.5t53.5 251.5q0 166 -54 249t-177 83q-122 0 -176 -82.5t-54 -249.5z" horiz-adv-x="1268" unicode="ο"/><glyph d="M25 885v131l178 102h1239v-233h-236v-566q0 -51 27 -75.5t67 -24.5q67 0 130 35v-219q-41 -25 -104.5 -40t-117.5 -15q-150 0 -228.5 82t-78.5 245v578h-338v-885h-305v885h-233z" horiz-adv-x="1513" unicode="π"/><glyph d="M121 -492v1053q0 275 138.5 426.5t393.5 151.5q155 0 273 -70.5t183 -202.5t65 -307q0 -273 -122.5 -426t-340.5 -153q-154 0 -281 77h-18q16 -172 16 -268v-281h-307zM428 311q43 -43 101 -64.5t118 -21.5q114 0 163.5 78.5t49.5 255.5q0 176 -48.5 255t-164.5 79 q-113 0 -166 -76.5t-53 -241.5v-264z" horiz-adv-x="1266" unicode="ρ"/><glyph d="M92 494q0 328 134.5 486.5t424.5 158.5q184 0 357 -80l-88 -232q-173 66 -277 66q-126 0 -183 -98t-57 -293q0 -74 25 -121t75 -75.5t183 -57.5q167 -35 245.5 -100t78.5 -171q0 -152 -138 -356h-307q148 214 148 311q0 36 -41 57.5t-140 41.5q-217 42 -328.5 158.5 t-111.5 304.5z" horiz-adv-x="1020" unicode="ς"/><glyph d="M92 545q0 575 631 575h573v-223h-284q180 -190 180 -422q0 -146 -67.5 -259.5t-193 -174.5t-292.5 -61q-260 0 -403.5 150.5t-143.5 414.5zM406 545q0 -156 59.5 -238t177.5 -82q116 0 176 76.5t60 220.5q0 111 -29.5 201.5t-97.5 173.5h-50q-162 0 -229 -82t-67 -270z" horiz-adv-x="1337" unicode="σ"/><glyph d="M41 889v127l176 102h807v-229h-397v-539q0 -65 36.5 -96t96.5 -31q80 0 192 35v-227q-107 -51 -262 -51q-190 0 -279 92.5t-89 277.5v539h-281z" horiz-adv-x="1102" unicode="τ"/><glyph d="M143 510v608h306v-618q0 -146 52.5 -210.5t166.5 -64.5q125 0 182 93t57 296q0 107 -14 214t-57 290h307q40 -157 54.5 -275.5t14.5 -236.5q0 -314 -136.5 -469t-418.5 -155q-259 0 -386.5 129.5t-127.5 398.5z" horiz-adv-x="1321" unicode="υ"/><glyph d="M92 555q0 155 55 298.5t175 289.5l221 -144q-90 -122 -127 -225.5t-37 -224.5q0 -278 270 -330v516q0 185 107 292.5t293 107.5q225 0 353 -146t128 -397q0 -171 -74.5 -301.5t-210 -208t-313.5 -94.5v-480h-283v480q-275 30 -416 175.5t-141 391.5zM932 219 q137 12 221 114t84 257q0 156 -47 239.5t-137 83.5q-57 0 -89 -39.5t-32 -136.5v-518z" horiz-adv-x="1622" unicode="φ"/><glyph d="M-49 -492l502 885l-134 352q-25 70 -60 101t-91 31t-115 -19v244q114 31 187 31q90 0 147 -25.5t97 -82t81 -179.5l74 -221l279 493h307l-455 -762l195 -475q28 -64 63 -90.5t96 -26.5q49 0 101 13v-238q-85 -31 -195 -31q-125 0 -204.5 67.5t-131.5 225.5l-104 326 l-314 -619h-325z" horiz-adv-x="1212" unicode="χ"/><glyph d="M143 555v563h291v-571q0 -173 64 -246.5t227 -85.5v1339h283v-1337q176 17 246.5 99.5t70.5 261.5q0 224 -80 540h283q78 -281 78 -543q0 -274 -150.5 -425t-447.5 -168v-474h-283v474q-290 9 -436 153.5t-146 419.5z" horiz-adv-x="1714" unicode="ψ"/><glyph d="M109 543q0 154 24 284t88 291h293q-125 -262 -125 -565q0 -164 49.5 -250t145.5 -86q83 0 121 58t38 192v295h281v-295q0 -135 38 -192.5t122 -57.5q94 0 144 84.5t50 247.5q0 307 -125 569h293q64 -162 88.5 -291t24.5 -284q0 -263 -119 -413t-332 -150 q-122 0 -200 52.5t-119 157.5h-10q-46 -110 -123.5 -160t-196.5 -50q-214 0 -332 151t-118 412z" horiz-adv-x="1767" unicode="ω"/><glyph d="M160 350v768h305v-768q0 -65 36.5 -96t96.5 -31q81 0 193 35v-227q-109 -51 -263 -51q-190 0 -279 92.5t-89 277.5zM12 1405q0 65 37.5 100t101.5 35q66 0 103.5 -37t37.5 -98q0 -60 -38 -96.5t-103 -36.5q-64 0 -101.5 35t-37.5 98zM415 1405q0 70 40.5 102.5 t100.5 32.5q65 0 103.5 -36t38.5 -99q0 -61 -39 -97t-103 -36q-60 0 -100.5 32.5t-40.5 100.5z" horiz-adv-x="834" unicode="ϊ"/><glyph d="M143 510v608h306v-618q0 -146 52.5 -210.5t166.5 -64.5q125 0 182 93t57 296q0 107 -14 214t-57 290h307q40 -157 54.5 -275.5t14.5 -236.5q0 -314 -136.5 -469t-418.5 -155q-259 0 -386.5 129.5t-127.5 398.5zM318 1405q0 65 37.5 100t101.5 35q66 0 103.5 -37t37.5 -98 q0 -60 -38 -96.5t-103 -36.5q-64 0 -101.5 35t-37.5 98zM721 1405q0 70 40.5 102.5t100.5 32.5q65 0 103.5 -36t38.5 -99q0 -61 -39 -97t-103 -36q-60 0 -100.5 32.5t-40.5 100.5z" horiz-adv-x="1321" unicode="ϋ"/><glyph d="M92 561q0 274 143 426t402 152q161 0 284 -70t189 -201t66 -307q0 -273 -144 -427t-401 -154q-161 0 -284 70.5t-189 202.5t-66 308zM403 561q0 -166 54.5 -251t177.5 -85q122 0 175.5 84.5t53.5 251.5q0 166 -54 249t-177 83q-122 0 -176 -82.5t-54 -249.5zM537 1241v31 q18 54 44.5 164t37.5 194h283v-24q-78 -186 -187 -365h-178z" horiz-adv-x="1268" unicode="ό"/><glyph d="M143 510v608h306v-618q0 -146 52.5 -210.5t166.5 -64.5q125 0 182 93t57 296q0 107 -14 214t-57 290h307q40 -157 54.5 -275.5t14.5 -236.5q0 -314 -136.5 -469t-418.5 -155q-259 0 -386.5 129.5t-127.5 398.5zM549 1241v31q18 54 44.5 164t37.5 194h283v-24 q-78 -186 -187 -365h-178z" horiz-adv-x="1321" unicode="ύ"/><glyph d="M109 543q0 154 24 284t88 291h293q-125 -262 -125 -565q0 -164 49.5 -250t145.5 -86q83 0 121 58t38 192v295h281v-295q0 -135 38 -192.5t122 -57.5q94 0 144 84.5t50 247.5q0 307 -125 569h293q64 -162 88.5 -291t24.5 -284q0 -263 -119 -413t-332 -150 q-122 0 -200 52.5t-119 157.5h-10q-46 -110 -123.5 -160t-196.5 -50q-214 0 -332 151t-118 412zM780 1241v31q18 54 44.5 164t37.5 194h283v-24q-78 -186 -187 -365h-178z" horiz-adv-x="1767" unicode="ώ"/><glyph d="M41 735q149 86 301 86q90 0 141.5 -47t51.5 -135q0 -63 -7.5 -130t-7.5 -138q0 -75 48.5 -114.5t140.5 -39.5q145 0 218.5 115t73.5 362v31l-2 33q-224 2 -380 60t-237 162.5t-81 244.5q0 161 112.5 256.5t309.5 95.5q241 0 383 -146.5t186 -439.5h146v-229h-129l2 -43 v-45q0 -338 -158.5 -516t-464.5 -178q-219 0 -328.5 82.5t-109.5 248.5q0 53 6 105.5t6 95.5q0 42 -13.5 56t-41.5 14q-42 0 -90 -29zM600 1235q0 -114 103.5 -178t287.5 -66q-22 169 -91.5 263t-170.5 94q-59 0 -94 -28t-35 -85z" horiz-adv-x="1499" unicode="ϑ"/><glyph d="M0 1462h336l301 -610q62 136 122 258.5t112 210.5t110.5 121t153.5 33q85 0 151 -27v-229q-44 12 -69 12q-40 0 -66.5 -21.5t-52.5 -60.5q-67 -96 -158 -274t-145 -320v-555h-308v559z" horiz-adv-x="1292" unicode="ϒ"/><glyph d="M51 889v127l174 102h1770v-229h-258q63 -209 63 -387q0 -252 -114.5 -387t-335.5 -135q-237 0 -320 210h-10q-82 -210 -320 -210q-221 0 -335.5 135t-114.5 387q0 178 63 387h-262zM530 512q0 -150 46 -222.5t149 -72.5q84 0 122 57.5t38 192.5v137h280v-137 q0 -135 38 -192.5t122 -57.5q103 0 149 72t46 219q0 169 -64 381h-864q-62 -201 -62 -377z" horiz-adv-x="2046" unicode="ϖ"/><glyph d="M184 0v1462h842v-254h-532v-321h495v-254h-495v-377h532v-256h-842zM198 1886v21h342q63 -101 235 -301v-27h-202q-63 44 -185 142.5t-190 164.5z" horiz-adv-x="1147" unicode="Ѐ"/><glyph d="M184 0v1462h842v-254h-532v-321h495v-254h-495v-377h532v-256h-842zM264 1743q0 65 37.5 100t101.5 35q66 0 103.5 -37t37.5 -98q0 -60 -38 -96.5t-103 -36.5q-64 0 -101.5 35t-37.5 98zM667 1743q0 70 40.5 102.5t100.5 32.5q65 0 103.5 -36t38.5 -99q0 -61 -39 -97 t-103 -36q-60 0 -100.5 32.5t-40.5 100.5z" horiz-adv-x="1147" unicode="Ё"/><glyph d="M41 1204v258h1114v-258h-438v-272h348q228 0 351.5 -103t123.5 -292v-129q0 -209 -102.5 -317.5t-304.5 -108.5q-116 0 -203 38v256q99 -43 172 -43q54 0 79 15.5t37.5 49.5t12.5 89v127q0 89 -41.5 124.5t-136.5 35.5h-336v-674h-309v1204h-367z" horiz-adv-x="1649" unicode="Ђ"/><glyph d="M184 0v1462h924v-256h-614v-1206h-310zM465 1579v27q172 200 235 301h342v-21q-52 -52 -177.5 -154.5t-196.5 -152.5h-203z" horiz-adv-x="1149" unicode="Ѓ"/><glyph d="M119 729q0 227 89 398.5t255.5 263.5t392.5 92q130 0 240.5 -27.5t218.5 -75.5l-111 -252l-87 37q-142 60 -275 60q-170 0 -277 -95.5t-119 -265.5h633v-254h-635q13 -178 113.5 -275t288.5 -97q171 0 414 77v-260q-106 -40 -208.5 -57.5t-224.5 -17.5q-344 0 -526 193.5 t-182 555.5z" horiz-adv-x="1386" unicode="Є"/><glyph d="M94 68v288q148 -66 250.5 -93t187.5 -27q102 0 156.5 39t54.5 116q0 43 -24 76.5t-70.5 64.5t-189.5 99q-134 63 -201 121t-107 135t-40 180q0 194 131.5 305t363.5 111q114 0 217.5 -27t216.5 -76l-100 -241q-117 48 -193.5 67t-150.5 19q-88 0 -135 -41t-47 -107 q0 -41 19 -71.5t60.5 -59t196.5 -102.5q205 -98 281 -196.5t76 -241.5q0 -198 -142.5 -312t-396.5 -114q-234 0 -414 88z" horiz-adv-x="1128" unicode="Ѕ"/><glyph d="M184 0v1462h310v-1462h-310z" horiz-adv-x="678" unicode="І"/><glyph d="M184 0v1462h310v-1462h-310zM-3 1743q0 65 37.5 100t101.5 35q66 0 103.5 -37t37.5 -98q0 -60 -38 -96.5t-103 -36.5q-64 0 -101.5 35t-37.5 98zM400 1743q0 70 40.5 102.5t100.5 32.5q65 0 103.5 -36t38.5 -99q0 -61 -39 -97t-103 -36q-60 0 -100.5 32.5t-40.5 100.5z" horiz-adv-x="678" unicode="Ї"/><glyph d="M-152 -150q80 -20 146 -20q102 0 146 63.5t44 198.5v1370h310v-1368q0 -256 -117 -390t-346 -134q-105 0 -183 22v258z" horiz-adv-x="678" unicode="Ј"/><glyph d="M16 2v254q58 -20 109 -20q53 0 84 48.5t58.5 180t73 431t77.5 566.5h856v-561h115q270 0 417.5 -116t147.5 -328q0 -228 -147 -342.5t-435 -114.5h-407v1204h-291l-16 -134q-62 -511 -109.5 -717.5t-138.5 -290.5t-246 -82q-84 0 -148 22zM1274 254h94q141 0 206.5 50.5 t65.5 152.5q0 99 -65.5 144.5t-228.5 45.5h-72v-393z" horiz-adv-x="2046" unicode="Љ"/><glyph d="M184 0v1462h310v-573h477v573h309v-561h115q270 0 417.5 -116t147.5 -328q0 -228 -147 -342.5t-435 -114.5h-407v631h-477v-631h-310zM1280 254h94q141 0 207 50.5t66 152.5q0 101 -67.5 145.5t-227.5 44.5h-72v-393z" horiz-adv-x="2052" unicode="Њ"/><glyph d="M41 1204v258h1114v-258h-438v-272h385q208 0 323 -104.5t115 -290.5v-537h-309v514q0 89 -35 124.5t-115 35.5h-364v-674h-309v1204h-367z" horiz-adv-x="1649" unicode="Ћ"/><glyph d="M184 0v1462h310v-708l524 708h330l-533 -702l561 -760h-352l-530 741v-741h-310zM580 1579v27q172 200 235 301h342v-21q-52 -52 -177.5 -154.5t-196.5 -152.5h-203z" horiz-adv-x="1376" unicode="Ќ"/><glyph d="M184 0v1462h279v-706l-4 -189l-10 -215h6l675 1110h371v-1462h-276v702q0 141 18 418h-8l-678 -1120h-373zM416 1886v21h342q63 -101 235 -301v-27h-202q-63 44 -185 142.5t-190 164.5z" horiz-adv-x="1686" unicode="Ѝ"/><glyph d="M0 1462h328l360 -815h10l18 50l302 765h319l-452 -1034q-85 -195 -159.5 -280t-176.5 -126.5t-248 -41.5q-125 0 -233 30v266q88 -36 219 -36q83 0 134 38.5t85 133.5zM198 1937h273q7 -103 51.5 -144.5t159.5 -41.5q101 0 150.5 45.5t60.5 140.5h276 q-19 -187 -141 -272.5t-352 -85.5q-237 0 -350.5 82t-127.5 276z" horiz-adv-x="1337" unicode="Ў"/><glyph d="M184 0v1462h310v-1204h538v1204h309v-1462h-428v-426h-299v426h-430z" horiz-adv-x="1526" unicode="Џ"/><glyph d="M0 0l516 1468h379l518 -1468h-334l-106 348h-533l-106 -348h-334zM518 608h381q-147 473 -165.5 535t-26.5 98q-33 -128 -189 -633z" horiz-adv-x="1413" unicode="А"/><glyph d="M184 0v1462h924v-256h-614v-305h122q286 0 442 -116t156 -328q0 -457 -604 -457h-426zM494 254h104q157 0 230 50.5t73 152.5q0 101 -74 145.5t-254 44.5h-79v-393z" horiz-adv-x="1307" unicode="Б"/><glyph d="M184 0v1462h455q311 0 451.5 -88.5t140.5 -281.5q0 -131 -61.5 -215t-163.5 -101v-10q139 -31 200.5 -116t61.5 -226q0 -200 -144.5 -312t-392.5 -112h-547zM494 256h202q128 0 189 49t61 150q0 182 -260 182h-192v-381zM494 883h180q126 0 182.5 39t56.5 129 q0 84 -61.5 120.5t-194.5 36.5h-163v-325z" horiz-adv-x="1376" unicode="В"/><glyph d="M184 0v1462h924v-256h-614v-1206h-310z" horiz-adv-x="1149" unicode="Г"/><glyph d="M10 258h113q145 290 229 579.5t125 624.5h852v-1204h195v-684h-299v426h-916v-426h-299v684zM449 258h571v946h-297q-32 -229 -106.5 -485t-167.5 -461z" horiz-adv-x="1565" unicode="Д"/><glyph d="M184 0v1462h842v-254h-532v-321h495v-254h-495v-377h532v-256h-842z" horiz-adv-x="1147" unicode="Е"/><glyph d="M0 0l520 760l-491 702h319l473 -708v708h289v-708l473 708h320l-492 -702l520 -760h-332l-489 741v-741h-289v741l-489 -741h-332z" horiz-adv-x="1931" unicode="Ж"/><glyph d="M94 1323q125 83 265 121.5t311 38.5q239 0 381.5 -100t142.5 -263q0 -141 -100 -233t-271 -117v-6q201 -20 308.5 -111t107.5 -237q0 -202 -163.5 -319t-452.5 -117q-322 0 -517 79v260q94 -45 220.5 -70.5t236.5 -25.5q369 0 369 215q0 97 -118.5 149t-350.5 52h-137 v242h123q232 0 338 44t106 146q0 75 -66.5 119.5t-199.5 44.5q-206 0 -398 -119z" horiz-adv-x="1327" unicode="З"/><glyph d="M184 0v1462h279v-706l-4 -189l-10 -215h6l675 1110h371v-1462h-276v702q0 141 18 418h-8l-678 -1120h-373z" horiz-adv-x="1686" unicode="И"/><glyph d="M184 0v1462h279v-706l-4 -189l-10 -215h6l675 1110h371v-1462h-276v702q0 141 18 418h-8l-678 -1120h-373zM356 1937h273q7 -103 51.5 -144.5t159.5 -41.5q101 0 150.5 45.5t60.5 140.5h276q-19 -187 -141 -272.5t-352 -85.5q-237 0 -350.5 82t-127.5 276z" horiz-adv-x="1686" unicode="Й"/><glyph d="M184 0v1462h310v-708l524 708h330l-533 -702l561 -760h-352l-530 741v-741h-310z" horiz-adv-x="1376" unicode="К"/><glyph d="M16 2v254q58 -20 109 -20q53 0 84 48.5t58.5 180t73 431t77.5 566.5h923v-1462h-309v1204h-358l-16 -134q-62 -511 -109.5 -717.5t-138.5 -290.5t-246 -82q-84 0 -148 22z" horiz-adv-x="1526" unicode="Л"/><glyph d="M184 0v1462h422l346 -1118h6l367 1118h422v-1462h-289v692q0 49 1.5 113t13.5 340h-9l-377 -1145h-284l-352 1147h-9q19 -350 19 -467v-680h-277z" horiz-adv-x="1931" unicode="М"/><glyph d="M184 0v1462h310v-573h579v573h309v-1462h-309v631h-579v-631h-310z" horiz-adv-x="1567" unicode="Н"/><glyph d="M119 735q0 365 180.5 557.5t517.5 192.5t515.5 -194t178.5 -558q0 -363 -180 -558t-516 -195t-516 195t-180 560zM444 733q0 -245 93 -369t278 -124q371 0 371 493q0 494 -369 494q-185 0 -279 -124.5t-94 -369.5z" horiz-adv-x="1630" unicode="О"/><glyph d="M184 0v1462h1157v-1462h-309v1204h-538v-1204h-310z" horiz-adv-x="1526" unicode="П"/><glyph d="M184 0v1462h467q266 0 404.5 -114.5t138.5 -341.5q0 -236 -147.5 -361t-419.5 -125h-133v-520h-310zM494 774h102q143 0 214 56.5t71 164.5q0 109 -59.5 161t-186.5 52h-141v-434z" horiz-adv-x="1286" unicode="Р"/><glyph d="M119 729q0 228 83 399.5t238.5 263t364.5 91.5q213 0 428 -103l-100 -252q-82 39 -165 68t-163 29q-175 0 -271 -131.5t-96 -366.5q0 -489 367 -489q154 0 373 77v-260q-180 -75 -402 -75q-319 0 -488 193.5t-169 555.5z" horiz-adv-x="1305" unicode="С"/><glyph d="M41 1204v258h1104v-258h-397v-1204h-310v1204h-397z" horiz-adv-x="1186" unicode="Т"/><glyph d="M0 1462h328l360 -815h10l18 50l302 765h319l-452 -1034q-85 -195 -159.5 -280t-176.5 -126.5t-248 -41.5q-125 0 -233 30v266q88 -36 219 -36q83 0 134 38.5t85 133.5z" horiz-adv-x="1337" unicode="У"/><glyph d="M92 758q0 155 71.5 279.5t206.5 195t318 70.5h53v180h279v-180h53q182 0 317 -70.5t207 -195t72 -279.5q0 -160 -80.5 -291t-220.5 -196.5t-326 -65.5h-22v-225h-279v225h-22q-186 0 -326 65.5t-220.5 196.5t-80.5 291zM383 760q0 -144 90 -230t254 -86h14v617h-41 q-147 0 -232 -82t-85 -219zM1020 444h14q161 0 252.5 84.5t91.5 231.5q0 136 -85 218.5t-232 82.5h-41v-617z" horiz-adv-x="1761" unicode="Ф"/><glyph d="M0 0l485 754l-454 708h342l315 -526l309 526h334l-459 -725l494 -737h-354l-340 553l-340 -553h-332z" horiz-adv-x="1366" unicode="Х"/><glyph d="M184 0v1462h310v-1204h538v1204h309v-1216h218v-672h-299v426h-1076z" horiz-adv-x="1599" unicode="Ц"/><glyph d="M109 858v604h309v-516q0 -106 49 -159.5t166 -53.5q82 0 163.5 16.5t200.5 57.5v655h310v-1462h-310v565q-154 -52 -256.5 -71t-195.5 -19q-209 0 -322.5 100.5t-113.5 282.5z" horiz-adv-x="1491" unicode="Ч"/><glyph d="M184 0v1462h310v-1204h454v1204h312v-1204h454v1204h309v-1462h-1839z" horiz-adv-x="2208" unicode="Ш"/><glyph d="M184 0v1462h310v-1204h454v1204h312v-1204h454v1204h309v-1216h218v-672h-299v426h-1758zM2208 0z" horiz-adv-x="2281" unicode="Щ"/><glyph d="M0 1204v258h676v-561h123q286 0 442 -116t156 -328q0 -228 -152.5 -342.5t-451.5 -114.5h-426v1204h-367zM676 254h104q157 0 230 50.5t73 152.5q0 101 -74 145.5t-253 44.5h-80v-393z" horiz-adv-x="1489" unicode="Ъ"/><glyph d="M184 0v1462h310v-561h100q281 0 435.5 -116.5t154.5 -327.5q0 -228 -151.5 -342.5t-448.5 -114.5h-400zM494 254h81q153 0 224 50.5t71 152.5t-68.5 146t-240.5 44h-67v-393zM1362 0v1462h309v-1462h-309z" horiz-adv-x="1855" unicode="Ы"/><glyph d="M184 0v1462h310v-561h122q286 0 442 -116t156 -328q0 -457 -604 -457h-426zM494 254h104q157 0 230 50.5t73 152.5q0 101 -74 145.5t-254 44.5h-79v-393z" horiz-adv-x="1307" unicode="Ь"/><glyph d="M72 1380q232 103 487 103q325 0 502.5 -199.5t177.5 -554.5q0 -362 -182.5 -555.5t-526.5 -193.5q-237 0 -432 75v260q243 -77 414 -77q191 0 291.5 93t109.5 279h-634v254h632q-6 170 -102 265.5t-256 95.5q-99 0 -194.5 -28t-188.5 -67z" horiz-adv-x="1358" unicode="Э"/><glyph d="M184 0v1462h310v-573h286q34 289 198.5 442.5t444.5 153.5q316 0 483 -196t167 -556t-168.5 -556.5t-483.5 -196.5q-289 0 -455 166.5t-192 484.5h-280v-631h-310zM1092 733q0 -244 84 -368.5t245 -124.5q332 0 332 493q0 244 -82.5 369t-245.5 125q-164 0 -248.5 -125 t-84.5 -369z" horiz-adv-x="2191" unicode="Ю"/><glyph d="M-10 0l416 643q-124 50 -190 154.5t-66 246.5q0 201 142.5 309.5t409.5 108.5h476v-1462h-310v561h-192l-342 -561h-344zM463 1022q0 -97 64 -153t196 -56h145v395h-153q-120 0 -186 -43t-66 -143z" horiz-adv-x="1362" unicode="Я"/><glyph d="M86 334q0 178 124.5 262.5t375.5 93.5l194 6v49q0 170 -174 170q-134 0 -315 -81l-101 206q193 101 428 101q225 0 345 -98t120 -298v-745h-213l-59 152h-8q-77 -97 -158.5 -134.5t-212.5 -37.5q-161 0 -253.5 92t-92.5 262zM399 332q0 -129 148 -129q106 0 169.5 61 t63.5 162v92l-118 -4q-133 -4 -198 -48t-65 -134z" horiz-adv-x="1237" unicode="а"/><glyph d="M92 670q0 385 146.5 584.5t457.5 252.5q151 26 451 66l35 -266q-130 -15 -461 -64q-126 -20 -188 -60t-92.5 -114t-37.5 -197h15q53 82 140 126t187 44q207 0 322 -126.5t115 -362.5q0 -272 -145.5 -422.5t-401.5 -150.5t-399.5 183.5t-143.5 506.5zM403 645 q0 -203 65 -310.5t185 -107.5q217 0 217 299q0 291 -196 291q-54 0 -107.5 -25t-98 -65.5t-65.5 -81.5z" horiz-adv-x="1274" unicode="б"/><glyph d="M160 0v1118h573q230 0 344.5 -74.5t114.5 -218.5q0 -90 -56.5 -153.5t-166.5 -81.5v-8q119 -14 188.5 -81.5t69.5 -166.5q0 -163 -128 -248.5t-366 -85.5h-573zM465 211h248q97 0 147.5 36.5t50.5 102.5t-51 95.5t-153 29.5h-242v-264zM465 682h221q97 0 147 28t50 91 q0 102 -162 102h-256v-221z" horiz-adv-x="1309" unicode="в"/><glyph d="M160 0v1118h772v-229h-467v-889h-305z" horiz-adv-x="979" unicode="г"/><glyph d="M29 223h94q96 149 161 376t91 519h790v-895h164v-624h-274v401h-752v-401h-274v624zM442 223h418v666h-229q-25 -186 -68.5 -353t-120.5 -313z" horiz-adv-x="1360" unicode="д"/><glyph d="M92 551q0 281 140.5 434.5t388.5 153.5q237 0 369 -135t132 -373v-148h-721q5 -130 77 -203t202 -73q101 0 191 21t188 67v-236q-80 -40 -171 -59.5t-222 -19.5q-270 0 -422 149t-152 422zM408 686h428q-2 113 -59 174.5t-154 61.5t-152 -61.5t-63 -174.5z" horiz-adv-x="1210" unicode="е"/><glyph d="M0 0l451 582l-412 536h315l398 -543v543h284v-543l398 543h315l-412 -536l451 -582h-326l-426 567v-567h-284v567l-426 -567h-326z" horiz-adv-x="1788" unicode="ж"/><glyph d="M78 49v252q86 -40 188.5 -63t198.5 -23q149 0 223 33.5t74 95.5q0 68 -78 100.5t-240 32.5h-118v211h112q173 0 245.5 28t72.5 89q0 54 -53 81t-175 27q-77 0 -174.5 -19t-177.5 -52l-90 213q119 45 231 64.5t250 19.5q209 0 335 -80t126 -217q0 -189 -223 -246v-10 q137 -34 195.5 -96.5t58.5 -163.5q0 -102 -66 -181t-191 -122t-294 -43q-280 0 -430 69z" horiz-adv-x="1137" unicode="з"/><glyph d="M160 0v1118h295v-442q0 -70 -23 -342l516 784h367v-1118h-295v446q0 119 20 336l-514 -782h-366z" horiz-adv-x="1475" unicode="и"/><glyph d="M160 0v1118h295v-442q0 -70 -23 -342l516 784h367v-1118h-295v446q0 119 20 336l-514 -782h-366zM254 1599h273q7 -103 51.5 -144.5t159.5 -41.5q101 0 150.5 45.5t60.5 140.5h276q-19 -187 -141 -272.5t-352 -85.5q-237 0 -350.5 82t-127.5 276z" horiz-adv-x="1475" unicode="й"/><glyph d="M160 0v1118h305v-543l428 543h336l-443 -536l482 -582h-346l-457 567v-567h-305z" horiz-adv-x="1268" unicode="к"/><glyph d="M0 12v244q49 -20 98 -20q57 0 95.5 82t69 273.5t52.5 526.5h846v-1118h-305v889h-281q-32 -375 -78 -559.5t-122.5 -267t-200.5 -82.5q-106 0 -174 32z" horiz-adv-x="1321" unicode="л"/><glyph d="M160 0v1118h420l192 -477q30 -77 55.5 -177t34.5 -171q33 150 51.5 215.5t40.5 120.5t199 489h416v-1118h-285v881l-16 -62q-54 -211 -97 -319l-198 -500h-217l-201 504q-43 110 -92 309l-19 68v-881h-284z" horiz-adv-x="1729" unicode="м"/><glyph d="M160 0v1118h305v-430h426v430h305v-1118h-305v461h-426v-461h-305z" horiz-adv-x="1356" unicode="н"/><glyph d="M92 561q0 274 143 426t402 152q161 0 284 -70t189 -201t66 -307q0 -273 -144 -427t-401 -154q-161 0 -284 70.5t-189 202.5t-66 308zM403 561q0 -166 54.5 -251t177.5 -85q122 0 175.5 84.5t53.5 251.5q0 166 -54 249t-177 83q-122 0 -176 -82.5t-54 -249.5z" horiz-adv-x="1268" unicode="о"/><glyph d="M160 0v1118h1016v-1118h-306v889h-405v-889h-305z" horiz-adv-x="1335" unicode="п"/><glyph d="M160 -492v1610h248l43 -145h14q107 166 317 166q198 0 310 -153t112 -425q0 -179 -52.5 -311t-149.5 -201t-228 -69q-197 0 -309 143h-16q16 -140 16 -162v-453h-305zM465 563q0 -180 53.5 -258t169.5 -78q205 0 205 338q0 165 -50.5 247.5t-158.5 82.5 q-113 0 -165 -69.5t-54 -229.5v-33z" horiz-adv-x="1296" unicode="р"/><glyph d="M92 553q0 285 142 435.5t407 150.5q194 0 348 -76l-90 -236q-72 29 -134 47.5t-124 18.5q-238 0 -238 -338q0 -328 238 -328q88 0 163 23.5t150 73.5v-261q-74 -47 -149.5 -65t-190.5 -18q-522 0 -522 573z" horiz-adv-x="1053" unicode="с"/><glyph d="M47 889v229h1038v-229h-366v-889h-305v889h-367z" horiz-adv-x="1133" unicode="т"/><glyph d="M0 1118h334l211 -629q27 -82 37 -194h6q11 103 43 194l207 629h327l-473 -1261q-65 -175 -185.5 -262t-281.5 -87q-79 0 -155 17v242q55 -13 120 -13q81 0 141.5 49.5t94.5 149.5l18 55z" horiz-adv-x="1165" unicode="у"/><glyph d="M92 559q0 253 154 399.5t448 165.5v432h283v-432q280 -23 439 -173t159 -392q0 -247 -157 -395.5t-441 -171.5v-484h-283v484q-283 26 -442.5 177.5t-159.5 389.5zM406 559q0 -141 77 -229.5t211 -106.5v672q-129 -17 -208.5 -109t-79.5 -227zM977 223q133 18 209 107 t76 229q0 132 -75 222.5t-210 109.5v-668z" horiz-adv-x="1667" unicode="ф"/><glyph d="M10 0l379 571l-360 547h346l217 -356l219 356h346l-364 -547l381 -571h-347l-235 383l-236 -383h-346z" horiz-adv-x="1184" unicode="х"/><glyph d="M160 0v1118h305v-889h446v889h306v-895h163v-624h-274v401h-946z" horiz-adv-x="1409" unicode="ц"/><glyph d="M123 702v416h305v-409q0 -146 135 -146q88 0 163.5 20t152.5 52v483h305v-1118h-305v444q-106 -56 -197 -79t-176 -23q-183 0 -283 93.5t-100 266.5z" horiz-adv-x="1343" unicode="ч"/><glyph d="M160 0v1118h305v-889h375v889h305v-889h375v889h305v-1118h-1665z" horiz-adv-x="1985" unicode="ш"/><glyph d="M160 0v1118h305v-889h375v889h305v-889h375v889h305v-895h164v-624h-275v401h-1554zM1985 0z" horiz-adv-x="2017" unicode="щ"/><glyph d="M0 889v229h662v-432h215q258 0 381.5 -82t123.5 -248q0 -356 -493 -356h-533v889h-356zM662 211h212q203 0 203 141q0 65 -51.5 94t-155.5 29h-208v-264z" horiz-adv-x="1454" unicode="ъ"/><glyph d="M160 0v1118h305v-432h147q256 0 379 -82t123 -248q0 -177 -123 -266.5t-368 -89.5h-463zM465 211h141q203 0 203 141q0 65 -52 94t-155 29h-137v-264zM1276 0v1118h305v-1118h-305z" horiz-adv-x="1741" unicode="ы"/><glyph d="M160 0v1118h305v-432h215q258 0 382 -82t124 -248q0 -356 -494 -356h-532zM465 211h213q203 0 203 141q0 65 -52 94t-155 29h-209v-264z" horiz-adv-x="1257" unicode="ь"/><glyph d="M74 49v238q174 -80 327 -80q110 0 170 64t70 192h-422v203h422q-8 123 -61.5 185t-153.5 62q-119 0 -260 -63l-86 209q75 35 169.5 57.5t188.5 22.5q262 0 390 -142t128 -426q0 -292 -135.5 -441.5t-402.5 -149.5q-210 0 -344 69z" horiz-adv-x="1049" unicode="э"/><glyph d="M160 0v1118h305v-430h205q29 214 165.5 332.5t350.5 118.5q237 0 377.5 -155.5t140.5 -422.5q0 -275 -139 -428t-385 -153q-221 0 -353.5 124t-160.5 357h-201v-461h-305zM973 561q0 -167 49 -251.5t162 -84.5q111 0 160 84.5t49 251.5t-49.5 249.5t-161.5 82.5 q-111 0 -160 -83t-49 -249z" horiz-adv-x="1796" unicode="ю"/><glyph d="M0 0l301 442q-108 45 -163.5 130t-55.5 200q0 162 121.5 254t331.5 92h520v-1118h-305v416h-168l-252 -416h-330zM381 770q0 -70 55 -109.5t144 -39.5h170v282h-209q-75 0 -117.5 -36.5t-42.5 -96.5z" horiz-adv-x="1214" unicode="я"/><glyph d="M92 551q0 281 140.5 434.5t388.5 153.5q237 0 369 -135t132 -373v-148h-721q5 -130 77 -203t202 -73q101 0 191 21t188 67v-236q-80 -40 -171 -59.5t-222 -19.5q-270 0 -422 149t-152 422zM408 686h428q-2 113 -59 174.5t-154 61.5t-152 -61.5t-63 -174.5zM245 1548v21 h342q63 -101 235 -301v-27h-202q-63 44 -185 142.5t-190 164.5z" horiz-adv-x="1210" unicode="ѐ"/><glyph d="M92 551q0 281 140.5 434.5t388.5 153.5q237 0 369 -135t132 -373v-148h-721q5 -130 77 -203t202 -73q101 0 191 21t188 67v-236q-80 -40 -171 -59.5t-222 -19.5q-270 0 -422 149t-152 422zM408 686h428q-2 113 -59 174.5t-154 61.5t-152 -61.5t-63 -174.5zM281 1405 q0 65 37.5 100t101.5 35q66 0 103.5 -37t37.5 -98q0 -60 -38 -96.5t-103 -36.5q-64 0 -101.5 35t-37.5 98zM684 1405q0 70 40.5 102.5t100.5 32.5q65 0 103.5 -36t38.5 -99q0 -61 -39 -97t-103 -36q-60 0 -100.5 32.5t-40.5 100.5z" horiz-adv-x="1210" unicode="ё"/><glyph d="M4 1196v199h156v161h305v-161h315v-199h-315v-18q0 -83 -14 -265h18q102 164 324 164q197 0 298 -105t101 -304v-789q0 -179 -94 -275t-269 -96q-107 0 -184 25v240q59 -19 119 -19q123 0 123 170v690q0 110 -47 165t-133 55q-127 0 -184.5 -87.5t-57.5 -281.5v-465h-305 v1196h-156z" horiz-adv-x="1346" unicode="ђ"/><glyph d="M160 0v1118h772v-229h-467v-889h-305zM361 1241v27q172 200 235 301h342v-21q-52 -52 -177.5 -154.5t-196.5 -152.5h-203z" horiz-adv-x="979" unicode="ѓ"/><glyph d="M92 553q0 298 135 442t424 144q184 0 357 -74l-88 -217q-170 65 -277 65q-105 0 -162.5 -61t-72.5 -186h421v-203h-421q14 -131 69 -193.5t158 -62.5q79 0 158.5 18t181.5 62v-234q-142 -73 -322 -73q-278 0 -419.5 145.5t-141.5 427.5z" horiz-adv-x="1073" unicode="є"/><glyph d="M92 827q0 149 115.5 230.5t327.5 81.5q202 0 393 -88l-92 -220q-84 36 -157 59t-149 23q-135 0 -135 -73q0 -41 43.5 -71t190.5 -89q131 -53 192 -99t90 -106t29 -143q0 -172 -119.5 -262t-357.5 -90q-122 0 -208 16.5t-161 48.5v252q85 -40 191.5 -67t187.5 -27 q166 0 166 96q0 36 -22 58.5t-76 51t-144 66.5q-129 54 -189.5 100t-88 105.5t-27.5 146.5z" horiz-adv-x="1018" unicode="ѕ"/><glyph d="M147 1407q0 149 166 149t166 -149q0 -71 -41.5 -110.5t-124.5 -39.5q-166 0 -166 150zM160 0v1118h305v-1118h-305z" horiz-adv-x="625" unicode="і"/><glyph d="M160 0v1118h305v-1118h-305zM-27 1405q0 65 37.5 100t101.5 35q66 0 103.5 -37t37.5 -98q0 -60 -38 -96.5t-103 -36.5q-64 0 -101.5 35t-37.5 98zM376 1405q0 70 40.5 102.5t100.5 32.5q65 0 103.5 -36t38.5 -99q0 -61 -39 -97t-103 -36q-60 0 -100.5 32.5t-40.5 100.5z" horiz-adv-x="625" unicode="ї"/><glyph d="M-131 -227q70 -19 143 -19q77 0 112.5 43t35.5 127v1194h305v-1239q0 -178 -103 -274.5t-292 -96.5q-117 0 -201 25v240zM147 1407q0 149 166 149t166 -149q0 -71 -41.5 -110.5t-124.5 -39.5q-166 0 -166 150z" horiz-adv-x="625" unicode="ј"/><glyph d="M0 12v244q49 -20 98 -20q57 0 95.5 82t69 273.5t52.5 526.5h803v-432h142q248 0 367.5 -82t119.5 -248q0 -356 -481 -356h-453v889h-238q-32 -375 -78 -559.5t-122.5 -267t-200.5 -82.5q-106 0 -174 32zM1118 211h133q191 0 191 141q0 65 -49 94t-146 29h-129v-264z" horiz-adv-x="1819" unicode="љ"/><glyph d="M160 0v1118h305v-430h348v430h305v-432h142q248 0 367.5 -82t119.5 -248q0 -356 -481 -356h-453v461h-348v-461h-305zM1118 211h133q191 0 191 141q0 65 -49 94t-146 29h-129v-264z" horiz-adv-x="1819" unicode="њ"/><glyph d="M4 1196v199h156v161h305v-161h315v-199h-315v-18q0 -83 -14 -265h18q102 164 324 164q197 0 298 -105t101 -304v-668h-305v592q0 242 -180 242q-127 0 -184.5 -87.5t-57.5 -281.5v-465h-305v1196h-156z" horiz-adv-x="1346" unicode="ћ"/><glyph d="M160 0v1118h305v-543l428 543h336l-443 -536l482 -582h-346l-457 567v-567h-305zM506 1241v27q172 200 235 301h342v-21q-52 -52 -177.5 -154.5t-196.5 -152.5h-203z" horiz-adv-x="1268" unicode="ќ"/><glyph d="M160 0v1118h295v-442q0 -70 -23 -342l516 784h367v-1118h-295v446q0 119 20 336l-514 -782h-366zM344 1548v21h342q63 -101 235 -301v-27h-202q-63 44 -185 142.5t-190 164.5z" horiz-adv-x="1475" unicode="ѝ"/><glyph d="M0 1118h334l211 -629q27 -82 37 -194h6q11 103 43 194l207 629h327l-473 -1261q-65 -175 -185.5 -262t-281.5 -87q-79 0 -155 17v242q55 -13 120 -13q81 0 141.5 49.5t94.5 149.5l18 55zM99 1599h273q7 -103 51.5 -144.5t159.5 -41.5q101 0 150.5 45.5t60.5 140.5h276 q-19 -187 -141 -272.5t-352 -85.5q-237 0 -350.5 82t-127.5 276z" horiz-adv-x="1165" unicode="ў"/><glyph d="M160 0v1118h305v-889h446v889h306v-1118h-392v-401h-274v401h-391z" horiz-adv-x="1376" unicode="џ"/><glyph d="M119 768q0 338 148.5 525.5t416.5 187.5q74 0 161.5 -29t153.5 -80l-108 -215q-68 45 -113.5 61.5t-83.5 16.5q-128 0 -199 -121.5t-71 -347.5q0 -251 93 -383.5t269 -132.5q83 0 168 69v396h310v-396q72 -69 180 -69q176 0 268 132.5t92 383.5q0 225 -71.5 347 t-198.5 122q-39 0 -84 -16.5t-113 -61.5l-108 215q64 49 152 79t163 30q268 0 416.5 -187t148.5 -526q0 -375 -164 -581.5t-462 -206.5q-116 0 -205 36t-166 111q-77 -75 -164 -111t-203 -36q-297 0 -461.5 206t-164.5 582z" horiz-adv-x="2228" unicode="Ѡ"/><glyph d="M6 1118h320l194 -641q33 -100 45 -229h8q16 83 76 229l109 277l-127 364h344l184 -620l62 -228h8q103 155 149.5 356.5t46.5 491.5h308q0 -368 -100 -641t-308 -477h-274l-164 381l-172 -381h-314z" horiz-adv-x="1812" unicode="ѡ"/><glyph d="M0 1124v230h256v202h309v-202h377v-230h-377v-223h123q286 0 442 -116t156 -328q0 -457 -604 -457h-426v1124h-256zM565 254h105q157 0 230 50.5t73 152.5q0 101 -74 145.5t-254 44.5h-80v-393z" horiz-adv-x="1378" unicode="Ѣ"/><glyph d="M0 889v229h258v201h305v-201h359v-229h-359v-203h215q258 0 382 -82t124 -248q0 -356 -493 -356h-533v889h-258zM563 211h213q203 0 203 141q0 65 -52 94t-155 29h-209v-264z" horiz-adv-x="1356" unicode="ѣ"/><glyph d="M184 0v1462h310v-573h215q44 280 234 437t482 157q230 0 449 -103l-100 -252q-90 39 -180 68t-177 29q-163 0 -267 -87t-124 -249h612v-258h-614q13 -181 117 -287t274 -106q97 0 193.5 20t210.5 57v-260q-104 -40 -204.5 -57.5t-219.5 -17.5q-315 0 -492.5 167 t-202.5 484h-206v-631h-310z" horiz-adv-x="1946" unicode="Ѥ"/><glyph d="M160 0v1118h305v-430h221q24 225 152.5 338t361.5 113q91 0 186.5 -22t172.5 -58l-86 -209q-141 63 -261 63q-100 0 -153.5 -56.5t-61.5 -168.5h422v-227h-422q9 -128 67 -191t173 -63q152 0 328 80v-238q-136 -69 -344 -69q-240 0 -375 121t-160 360h-221v-461h-305z" horiz-adv-x="1638" unicode="ѥ"/><glyph d="M0 0l557 1468h379l559 -1468h-301l-209 631h-100v-631h-273v631h-102l-207 -631h-303zM588 868h313q-134 345 -153 414q-11 -52 -160 -414z" horiz-adv-x="1495" unicode="Ѧ"/><glyph d="M0 0l471 1118h367l473 -1118h-293l-152 422h-78v-422h-264v422h-80l-151 -422h-293zM522 629h269l-35 80q-72 156 -101 243q-26 -93 -133 -323z" horiz-adv-x="1311" unicode="ѧ"/><glyph d="M184 0v1462h310v-573h407l219 579h379l559 -1468h-301l-209 631h-100v-631h-272v631h-103l-207 -631h-303l240 631h-309v-631h-310zM1151 868h313l-51 137q-92 238 -102 277q-11 -52 -160 -414z" horiz-adv-x="2058" unicode="Ѩ"/><glyph d="M160 0v1118h264v-430h401l183 430h366l473 -1118h-293l-163 459h-66v-459h-264v459h-66l-166 -459h-292l194 461h-307v-461h-264zM1077 666h234q-96 218 -119 286q-21 -73 -115 -286z" horiz-adv-x="1847" unicode="ѩ"/><glyph d="M41 0l152 453q58 179 142 272t216 129l-375 469v139h1301v-139l-383 -469q135 -37 219 -132.5t141 -268.5l152 -453h-312l-123 385q-41 124 -83 174t-109 66v-625h-307v625q-71 -16 -114 -66.5t-83 -173.5l-123 -385h-311zM571 1204l252 -313l254 313h-506z" horiz-adv-x="1647" unicode="Ѫ"/><glyph d="M20 0l117 346q40 125 102.5 197t153.5 104l-289 365v106h1076v-106l-293 -367q89 -32 149.5 -104t102.5 -195l116 -346h-258l-94 295q-26 77 -54 110t-75 44v-449h-264v451q-54 -10 -84 -44t-53 -112l-94 -295h-259zM461 911l178 -225l180 225h-358z" horiz-adv-x="1276" unicode="ѫ"/><glyph d="M184 0v1462h310v-573h579l-346 434v139h1301v-139l-383 -469q135 -37 219 -132.5t141 -268.5l152 -453h-312l-123 385q-41 124 -83 174t-109 66v-625h-307v625q-71 -16 -114 -66.5t-83 -173.5l-123 -385h-311l151 453q44 127 95 178h-344v-631h-310zM551 0zM1122 1204 l252 -313l254 313h-506z" horiz-adv-x="2198" unicode="Ѭ"/><glyph d="M160 0v1118h264v-430h463l-256 324v106h1075v-106l-293 -367q89 -32 150 -104t102 -195l117 -346h-258l-94 295q-23 72 -53 108t-77 46v-449h-264v451q-54 -10 -84 -44t-53 -112l-94 -295h-258l117 346q29 85 61 115h-301v-461h-264zM527 0zM987 911l178 -225l181 225 h-359z" horiz-adv-x="1802" unicode="ѭ"/><glyph d="M41 -113q0 173 118 251t373 85q195 4 281 54.5t86 160.5q0 97 -118.5 149t-350.5 52h-137v242h123q232 0 338 44t106 146q0 75 -66.5 119.5t-199.5 44.5q-207 0 -397 -119l-136 207q83 54 174.5 92t210.5 55q-96 119 -227 250v27h209q54 -40 209 -195q78 100 121.5 139 t94 62t110.5 23q74 0 122 -17v-151q-26 12 -88 12q-93 0 -188 -154q168 -34 260 -126t92 -220q0 -140 -91.5 -232.5t-250.5 -117.5v-6q184 -20 285.5 -111.5t101.5 -236.5q0 -201 -168.5 -318.5t-464.5 -117.5q-92 0 -141 -8.5t-69.5 -28t-20.5 -60.5q0 -88 145 -88 q89 0 193 5l154 5q140 0 170 -41v-229q-16 16 -61 28.5t-99 12.5l-181 -4l-239 -4q-178 0 -280.5 86t-102.5 233z" horiz-adv-x="1294" unicode="Ѯ"/><glyph d="M31 -125q0 175 115 257.5t352 82.5q132 0 198 32t66 97q0 68 -78 100.5t-240 32.5h-118v211h112q173 0 245.5 28t72.5 89q0 54 -53 81t-175 27q-77 0 -174.5 -19t-177.5 -52l-90 213q65 24 128.5 40.5t125.5 26.5l-93 108l-87 95v27h196q57 -41 209 -195q82 102 125 140 t92.5 60.5t108.5 22.5q72 0 123 -16v-152q-34 13 -88 13q-84 0 -158 -111q126 -34 193 -104.5t67 -167.5q0 -95 -52.5 -156.5t-156.5 -89.5v-10q129 -34 184.5 -96.5t55.5 -163.5q0 -168 -146 -257t-417 -89q-108 0 -156.5 -19.5t-48.5 -71.5t37.5 -73t126.5 -21q85 0 164 5 q78 5 126 5q136 0 166 -41v-229q-17 17 -60 29t-95 12q-68 0 -157.5 -4t-213.5 -4q-177 0 -265.5 76.5t-88.5 230.5z" horiz-adv-x="1137" unicode="ѯ"/><glyph d="M109 979v483h290v-479q0 -157 75 -227t253 -70h31v776h278v-776h31q174 0 251 72.5t77 220.5v483h291v-479q0 -281 -149 -414t-450 -133h-51v-436h-278v436h-51q-305 0 -451.5 132.5t-146.5 410.5z" horiz-adv-x="1794" unicode="Ѱ"/><glyph d="M143 555v563h291v-571q0 -173 64 -246.5t227 -85.5v1339h283v-1337q176 17 246.5 99.5t70.5 261.5q0 224 -80 540h283q78 -281 78 -543q0 -274 -150.5 -425t-447.5 -168v-474h-283v474q-290 9 -436 153.5t-146 419.5z" horiz-adv-x="1714" unicode="ѱ"/><glyph d="M119 735q0 365 180.5 557.5t517.5 192.5t515.5 -194t178.5 -558q0 -363 -180 -558t-516 -195t-516 195t-180 560zM442 621q20 -180 111.5 -280.5t261.5 -100.5q163 0 257.5 96t113.5 285h-744zM446 879h736q-25 169 -116.5 258.5t-248.5 89.5q-158 0 -251 -87t-120 -261z" horiz-adv-x="1630" unicode="Ѳ"/><glyph d="M92 561q0 274 143 426t402 152q161 0 284 -70t189 -201t66 -307q0 -273 -144 -427t-401 -154q-161 0 -284 70.5t-189 202.5t-66 308zM408 457q15 -116 70 -174t157 -58q97 0 153 58t70 174h-450zM408 668h450q-14 112 -68.5 168.5t-156.5 56.5q-98 0 -154 -56.5 t-71 -168.5z" horiz-adv-x="1268" unicode="ѳ"/><glyph d="M0 1462h313l289 -909q43 -160 64 -299q17 128 71 299l170 520q55 171 101 249t106 115.5t146 37.5q116 0 186 -39v-242q-51 23 -100 23q-46 0 -78 -35.5t-74 -153.5l-360 -1028h-338z" horiz-adv-x="1468" unicode="Ѵ"/><glyph d="M0 1118h319l205 -626q50 -163 58 -242h4q13 111 57 235l123 344q51 142 89 195t91.5 77.5t138.5 24.5q76 0 148 -28v-236q-43 19 -82 19q-32 0 -57.5 -22t-46.5 -77l-308 -782h-311z" horiz-adv-x="1239" unicode="ѵ"/><glyph d="M0 1462h313l289 -909q43 -160 64 -299q17 128 71 299l170 520q55 171 101 249t106 115.5t146 37.5q116 0 186 -39v-242q-51 23 -100 23q-46 0 -78 -35.5t-74 -153.5l-360 -1028h-338zM166 1886v21h301q33 -72 83 -158.5t91 -142.5v-27h-162q-73 57 -177.5 157t-135.5 150 zM563 1886v21h301q33 -72 83 -158.5t91 -142.5v-27h-161q-62 49 -171 150.5t-143 156.5z" horiz-adv-x="1468" unicode="Ѷ"/><glyph d="M0 1118h319l205 -626q50 -163 58 -242h4q13 111 57 235l123 344q51 142 89 195t91.5 77.5t138.5 24.5q76 0 148 -28v-236q-43 19 -82 19q-32 0 -57.5 -22t-46.5 -77l-308 -782h-311zM74 1548v21h301q33 -72 83 -158.5t91 -142.5v-27h-162q-73 57 -177.5 157t-135.5 150z M471 1548v21h301q33 -72 83 -158.5t91 -142.5v-27h-161q-62 49 -171 150.5t-143 156.5z" horiz-adv-x="1239" unicode="ѷ"/><glyph d="M119 735q0 376 166 563t491 187q323 0 488.5 -188.5t165.5 -563.5q0 -371 -165 -562t-491 -191q-324 0 -489.5 189.5t-165.5 565.5zM438 733q0 -257 82 -375t254 -118q173 0 254.5 114.5t81.5 378.5q0 261 -80.5 377.5t-253.5 116.5q-175 0 -256.5 -119t-81.5 -375z M1536 1118h334l211 -629q27 -82 37 -194h6q11 103 43 194l207 629h327l-473 -1261q-65 -175 -185.5 -262t-281.5 -87q-78 0 -155 17v242q55 -13 120 -13q81 0 141.5 49.5t94.5 149.5l18 55z" horiz-adv-x="2701" unicode="Ѹ"/><glyph d="M92 561q0 274 143 426t402 152q161 0 284 -70t189 -201t66 -307q0 -273 -144 -427t-401 -154q-161 0 -284 70.5t-189 202.5t-66 308zM403 561q0 -166 54.5 -251t177.5 -85q122 0 175.5 84.5t53.5 251.5q0 166 -54 249t-177 83q-122 0 -176 -82.5t-54 -249.5zM1180 1118 h333l211 -629q26 -75 37 -194h6q13 103 43 194l207 629h328l-473 -1261q-65 -175 -185.5 -262t-281.5 -87q-77 0 -156 17v242q57 -13 121 -13q81 0 141.5 49.5t94.5 149.5l18 55z" horiz-adv-x="2345" unicode="ѹ"/><glyph d="M119 735q0 323 151 512.5t443 227.5q16 60 50 85t95 25q53 0 89 -22t54 -88q287 -38 439.5 -228t152.5 -514q0 -321 -150.5 -512t-436.5 -231q-35 -115 -148 -115q-118 0 -147 115q-287 36 -439.5 227.5t-152.5 517.5zM438 733q0 -198 71 -319t210 -158q22 42 56.5 57 t82.5 15q45 0 79.5 -15t57.5 -57q279 74 279 477q0 398 -275 475q-39 -75 -141 -75t-143 75q-277 -77 -277 -475z" horiz-adv-x="1712" unicode="Ѻ"/><glyph d="M92 561q0 237 121.5 382.5t351.5 178.5q19 82 129 82q106 0 127 -82q224 -34 350.5 -180.5t126.5 -380.5q0 -235 -119.5 -379t-349.5 -182q-9 -53 -45 -82t-90 -29q-57 0 -92.5 29.5t-44.5 83.5q-223 39 -344 185.5t-121 373.5zM403 561q0 -270 158 -332q19 39 47.5 60.5 t85.5 21.5q43 0 74 -16.5t57 -67.5q83 31 122.5 119.5t39.5 214.5q0 130 -40 212.5t-113 111.5q-17 -47 -48 -75t-92 -28q-54 0 -88 24.5t-53 78.5q-150 -65 -150 -324z" horiz-adv-x="1391" unicode="ѻ"/><glyph d="M119 768q0 338 148.5 525.5t416.5 187.5q81 0 158 -31t137 -78l-88 -215q-68 45 -113.5 61.5t-83.5 16.5q-128 0 -199 -121.5t-71 -347.5q0 -248 87 -384t247 -136q96 0 189 56t167 155q75 -101 168 -156t188 -55q162 0 248 137t86 383q0 225 -71.5 347t-198.5 122 q-39 0 -84 -16.5t-113 -61.5l-88 215q60 47 137.5 78t157.5 31q268 0 416.5 -187t148.5 -526q0 -375 -164 -581.5t-462 -206.5q-107 0 -196 35.5t-173 117.5q-77 -75 -165 -114t-204 -39q-297 0 -461.5 206t-164.5 582zM756 1872v49q0 98 31.5 156t86.5 85t160 27 q58 0 114 -19t115.5 -41.5t126 -41.5t144.5 -19h14v-194h-16q-180 0 -316 54q-103 41 -128 47.5t-50 6.5q-46 0 -67.5 -25.5t-32.5 -84.5h-182zM965 1790q0 53 39 82t110 29q78 0 120 -45t42 -121q0 -93 -89.5 -163t-219.5 -77v86q52 14 84 43t32 59q0 19 -18.5 28t-40.5 17 t-40.5 21t-18.5 41z" horiz-adv-x="2228" unicode="Ѽ"/><glyph d="M92 571q0 282 118 425t363 143q149 0 273 -60l-86 -209q-63 30 -96 36.5t-70 6.5q-186 0 -186 -342q0 -178 59.5 -271t167.5 -93q146 0 276 135q130 -135 277 -135q109 0 168 93.5t59 270.5q0 342 -186 342q-39 0 -71.5 -7t-94.5 -36l-86 209q124 60 272 60 q246 0 364 -143t118 -425q0 -291 -131 -441t-392 -150q-173 0 -297 112q-122 -112 -297 -112q-258 0 -390 148.5t-132 442.5zM547 1556v50q0 69 17 119.5t46 81.5t80 49t135 18q58 0 114 -19t115.5 -41.5t126 -41.5t144.5 -19h14v-194h-16q-180 0 -316 54q-103 41 -128 47.5 t-50 6.5q-46 0 -67.5 -26t-32.5 -85h-182zM756 1475q0 52 39 81t110 29q78 0 120 -44.5t42 -121.5q0 -94 -91 -163.5t-218 -75.5v86q50 12 83 41.5t33 60.5q0 19 -18.5 28t-40.5 17t-40.5 21t-18.5 41z" horiz-adv-x="1823" unicode="ѽ"/><glyph d="M119 768q0 338 148.5 525.5t416.5 187.5q81 0 158 -31t137 -78l-88 -215q-68 45 -113.5 61.5t-83.5 16.5q-128 0 -199 -121.5t-71 -347.5q0 -251 93 -383.5t269 -132.5q80 0 168 74v391h310v-381q89 -84 180 -84q176 0 268 132.5t92 383.5q0 225 -71.5 347t-198.5 122 q-39 0 -84 -16.5t-113 -61.5l-88 215q60 47 137.5 78t157.5 31q268 0 416.5 -187t148.5 -526q0 -375 -164 -581.5t-462 -206.5q-107 0 -196 35.5t-173 117.5q-77 -75 -165 -114t-204 -39q-297 0 -461.5 206t-164.5 582zM696 1769v89h832v-89l-82 -172h-55l-50 103h-153 l-49 -103h-56l-49 103h-153l-50 -103h-55z" horiz-adv-x="2228" unicode="Ѿ"/><glyph d="M6 1118h320l194 -637q37 -111 49 -229h6q6 27 15 54t174 439l-139 373h319l201 -620q7 -23 17 -54t19.5 -62.5t18.5 -61t14 -50.5h9q106 151 154 348t48 500h308q0 -372 -99.5 -628.5t-322.5 -489.5h-285l-133 385l-152 -385h-325zM461 1356v88h831v-88l-82 -172h-55 l-49 102h-154l-49 -102h-55l-49 102h-154l-49 -102h-55z" horiz-adv-x="1812" unicode="ѿ"/><glyph d="M119 729q0 227 89 398.5t255.5 263.5t392.5 92q225 0 459 -103l-101 -252q-91 39 -183.5 68t-182.5 29q-195 0 -302.5 -131t-107.5 -367q0 -489 414 -489q58 0 147.5 9.5t167.5 26.5v-766h-309v472q-359 0 -549 193.5t-190 555.5z" horiz-adv-x="1386" unicode="Ҁ"/><glyph d="M92 553q0 298 135 442t424 144q184 0 357 -80l-88 -232q-173 66 -277 66q-126 0 -183 -84.5t-57 -253.5q0 -156 64.5 -242t183.5 -86q125 0 256 37v-756h-305v476q-252 19 -381 162.5t-129 406.5z" horiz-adv-x="1073" unicode="ҁ"/><glyph d="M104 547l70 123l287 -164l198 346l-284 164l71 125l285 -164l182 313l127 -73l-182 -316l287 -164l-74 -123l-283 164l-200 -346l284 -166l-71 -123l-285 164l-180 -313l-129 74l180 315z" horiz-adv-x="1247" unicode="҂"/><glyph d="M180 1274q0 117 109 117h459q10 94 108 94q109 0 109 -115q0 -57 -27 -93t-84 -36h-459q-6 -43 -33 -68.5t-75 -25.5q-56 0 -81.5 35.5t-25.5 91.5z" horiz-adv-x="1141" unicode="҃"/><glyph d="M244 1241v195h14q78 0 144.5 18.5t126 41t115.5 41.5t114 19q105 0 160 -27t86.5 -85.5t31.5 -155.5v-49h-182q-11 59 -32.5 85t-67.5 26q-30 0 -66.5 -12t-110.5 -42q-134 -55 -317 -55h-16z" horiz-adv-x="1182" unicode="҄"/><glyph d="M461 1458q0 77 42.5 121.5t119.5 44.5q71 0 110 -29t39 -82q0 -27 -18.5 -40t-41 -21.5t-41 -17t-18.5 -27.5q0 -32 34 -61t83 -41v-86q-126 6 -217.5 74.5t-91.5 164.5z" horiz-adv-x="1182" unicode="҅"/><glyph d="M459 1513q0 53 39 82t110 29q78 0 120 -44.5t42 -121.5q0 -94 -91 -163.5t-218 -75.5v86q48 11 82.5 40.5t34.5 61.5q0 19 -18.5 27.5t-41 17t-41 21.5t-18.5 40z" horiz-adv-x="1182" unicode="҆"/><glyph d="M41 459q5 90 55.5 142t153.5 52q92 0 149.5 -51t63.5 -143h-80q-5 45 -35 66.5t-98 21.5q-78 0 -103 -19.5t-30 -68.5h-76zM219 -41q5 90 55.5 142.5t153.5 52.5q92 0 149.5 -51t63.5 -144h-80q-5 45 -35 66.5t-98 21.5q-78 0 -103 -19.5t-30 -68.5h-76zM219 946 q5 90 55.5 142.5t153.5 52.5q92 0 149.5 -51t63.5 -144h-80q-5 45 -35 66.5t-98 21.5q-78 0 -103 -19.5t-30 -68.5h-76zM793 -319q5 89 55 141.5t153 52.5q92 0 149.5 -51t63.5 -143h-79q-5 44 -35 66t-99 22q-78 0 -103 -20.5t-30 -67.5h-75zM793 1231q11 194 208 194 q93 0 149.5 -50.5t63.5 -143.5h-79q-5 44 -35 66t-99 22q-78 0 -103 -20.5t-30 -67.5h-75zM1372 -41q5 90 55.5 142.5t153.5 52.5q92 0 149.5 -51t63.5 -144h-80q-5 45 -35 66.5t-98 21.5q-78 0 -103 -19.5t-30 -68.5h-76zM1372 946q5 90 55.5 142.5t153.5 52.5 q92 0 149.5 -51t63.5 -144h-80q-5 45 -35 66.5t-98 21.5q-78 0 -103 -19.5t-30 -68.5h-76zM1563 459q11 194 209 194q92 0 149.5 -52t63.5 -142h-80q-5 44 -35 66t-98 22q-78 0 -103.5 -20t-30.5 -68h-75z" horiz-adv-x="2025" unicode="҈"/><glyph d="M41 565v97q221 -53 350 -70v-139l-14 -11q-66 17 -161.5 52t-174.5 71zM238 -55q177 110 297 198l98 -98l-2 -16q-155 -89 -324 -152zM324 1202l67 70q123 -198 199 -297l-98 -98l-17 2q-82 140 -151 323zM870 -385q53 221 70 350h139l11 -14q-17 -66 -52 -161.5 t-71 -174.5h-97zM870 1155q19 71 55.5 171t67.5 165h97q-52 -220 -70 -350h-139zM1325 1018l2 16q67 39 162 83t162 69l69 -68q-177 -110 -297 -198zM1366 86l98 98l17 -2q39 -69 84 -166t67 -157l-67 -70q-31 50 -96 147.5t-103 149.5zM1567 512v139l14 11 q71 -19 171 -55.5t165 -67.5v-97q-221 53 -350 70z" horiz-adv-x="1958" unicode="҉"/><glyph d="M184 0v1462h279v-706l-4 -189l-10 -215h6l675 1110h371v-1196h334l-178 -692h-344l188 426h-276v702q0 141 18 418h-8l-678 -1120h-373zM356 1937h273q7 -103 51.5 -144.5t159.5 -41.5q99 0 149.5 45.5t61.5 140.5h276q-19 -187 -141 -272.5t-352 -85.5q-237 0 -350.5 82 t-127.5 276zM1686 0z" horiz-adv-x="1876" unicode="Ҋ"/><glyph d="M160 0v1118h295v-442q0 -70 -23 -342l516 784h367v-895h299l-146 -624h-290l137 401h-295v446q0 119 20 336l-514 -782h-366zM254 1599h272q9 -108 53.5 -147t157.5 -39q103 0 153 47.5t58 138.5h277q-21 -189 -142.5 -273.5t-351.5 -84.5q-161 0 -262.5 37t-153 112 t-61.5 209zM1475 0z" horiz-adv-x="1642" unicode="ҋ"/><glyph d="M47 1057v254h137v151h310v-151h299v-254h-299v-156h122q286 0 442 -116t156 -328q0 -457 -604 -457h-426v1057h-137zM494 254h104q157 0 230 50.5t73 152.5q0 101 -74 145.5t-254 44.5h-79v-393z" horiz-adv-x="1262" unicode="Ҍ"/><glyph d="M4 1135v198h156v223h305v-223h377v-198h-377v-449h215q258 0 382 -82t124 -248q0 -356 -494 -356h-532v1135h-156zM465 211h213q203 0 203 141q0 65 -52 94t-155 29h-209v-264z" horiz-adv-x="1257" unicode="ҍ"/><glyph d="M184 0v1462h467q266 0 404.5 -114.5t138.5 -341.5q0 -129 -47.5 -229.5t-140.5 -162.5l88 -125l-152 -112l-115 164q-86 -21 -200 -21h-133v-520h-310zM494 774h145l23 2l-58 82l154 111l82 -117q41 53 41 143q0 109 -59.5 161t-186.5 52h-141v-434z" horiz-adv-x="1286" unicode="Ҏ"/><glyph d="M160 -492v1610h248l43 -145h16q54 83 135 124.5t180 41.5q198 0 310 -153t112 -425q0 -303 -145 -463l94 -123l-158 -118l-108 139q-52 -16 -113 -16q-197 0 -309 143h-16q16 -140 16 -162v-453h-305zM465 563q0 -180 53.5 -258t169.5 -78h17l18 2l-102 127l167 123 l82 -100q23 78 23 186q0 165 -50.5 247.5t-158.5 82.5q-113 0 -165 -69.5t-54 -229.5v-33z" horiz-adv-x="1296" unicode="ҏ"/><glyph d="M184 0v1462h697v310h268v-566h-655v-1206h-310z" horiz-adv-x="1190" unicode="Ґ"/><glyph d="M160 0v1118h540v305h275v-534h-510v-889h-305z" horiz-adv-x="1049" unicode="ґ"/><glyph d="M47 596v254h137v612h920v-254h-610v-358h401v-254h-401v-596h-310v596h-137z" horiz-adv-x="1145" unicode="Ғ"/><glyph d="M4 418v235h137v465h817v-248h-512v-217h332v-235h-332v-418h-305v418h-137z" horiz-adv-x="1006" unicode="ғ"/><glyph d="M184 0v1462h920v-254h-610v-401q107 12 256 12q193 0 345.5 -85t229 -236.5t76.5 -356.5q0 -195 -69.5 -343.5t-195 -229t-278.5 -80.5q-110 0 -179.5 11t-143.5 36v272q129 -47 262 -47q139 0 220 102.5t81 278.5q0 196 -115 296t-362 100q-53 0 -127 -13v-524h-310z" horiz-adv-x="1503" unicode="Ҕ"/><glyph d="M160 0v1118h817v-248h-512v-241q74 12 149 12q158 0 283.5 -70t194.5 -200t69 -303q0 -179 -61 -308t-173 -195.5t-259 -66.5q-142 0 -256 51v263q45 -24 105.5 -39t109.5 -15q116 0 178.5 81.5t62.5 232.5q0 305 -315 305q-42 0 -88 -6v-371h-305z" horiz-adv-x="1233" unicode="ҕ"/><glyph d="M0 0l520 760l-491 702h319l473 -708v708h289v-708l473 708h320l-492 -702l338 -494h317v-692h-299v426h-168l-489 741v-741h-289v741l-489 -741h-332zM1931 0z" horiz-adv-x="2107" unicode="Җ"/><glyph d="M0 0l451 582l-412 536h315l398 -543v543h284v-543l398 543h315l-412 -536l277 -359h266v-624h-274v401h-144l-426 567v-567h-284v567l-426 -567h-326zM1788 0z" horiz-adv-x="1929" unicode="җ"/><glyph d="M94 1323q125 83 265 121.5t311 38.5q239 0 381.5 -100t142.5 -263q0 -141 -100 -233t-271 -117v-6q201 -20 308.5 -111t107.5 -237q0 -202 -163.5 -319t-452.5 -117q-322 0 -517 79v260q94 -45 220.5 -70.5t236.5 -25.5q369 0 369 215q0 97 -118.5 149t-350.5 52h-137 v242h123q232 0 338 44t106 146q0 75 -66.5 119.5t-199.5 44.5q-206 0 -398 -119zM424 -291q60 -18 115 -18q35 0 57.5 20t22.5 62q0 52 -39 106.5t-109 120.5h179q79 -60 112 -97.5t50.5 -77.5t17.5 -87q0 -103 -69 -166.5t-181 -63.5q-74 0 -156 23v178z" horiz-adv-x="1327" unicode="Ҙ"/><glyph d="M78 49v252q86 -40 188.5 -63t198.5 -23q149 0 223 33.5t74 95.5q0 68 -78 100.5t-240 32.5h-118v211h112q173 0 245.5 28t72.5 89q0 54 -53 81t-175 27q-77 0 -174.5 -19t-177.5 -52l-90 213q119 45 231 64.5t250 19.5q209 0 335 -80t126 -217q0 -189 -223 -246v-10 q137 -34 195.5 -96.5t58.5 -163.5q0 -102 -66 -181t-191 -122t-294 -43q-280 0 -430 69zM315 -291q60 -18 115 -18q35 0 57.5 20t22.5 62q0 52 -39 106.5t-109 120.5h179q79 -60 112 -97.5t50.5 -77.5t17.5 -87q0 -103 -69 -166.5t-181 -63.5q-74 0 -156 23v178z" horiz-adv-x="1137" unicode="ҙ"/><glyph d="M184 0v1462h310v-708l524 708h330l-533 -702l365 -494h327v-692h-299v426h-184l-530 741v-741h-310zM1376 0z" horiz-adv-x="1548" unicode="Қ"/><glyph d="M160 0v1118h305v-543l428 543h336l-443 -536l297 -359h250v-624h-274v401h-137l-457 567v-567h-305zM1268 0z" horiz-adv-x="1362" unicode="қ"/><glyph d="M184 0v1462h310v-669l122 172l2 2v354h134v-186l260 327h344l-510 -647l514 -815h-352l-256 412v-222h-134v422l-124 -90v-522h-310z" horiz-adv-x="1360" unicode="Ҝ"/><glyph d="M160 0v1118h284v-543l99 123v316h145v-129l184 233h316l-443 -536l482 -582h-326l-215 266v-176h-145v356l-97 121v-567h-284z" horiz-adv-x="1227" unicode="ҝ"/><glyph d="M4 1073v254h137v135h310v-135h137v-254h-137v-280l122 172l396 497h344l-510 -647l514 -815h-352l-383 616l-131 -94v-522h-310v1073h-137z" horiz-adv-x="1317" unicode="Ҟ"/><glyph d="M4 1196v199h156v161h305v-161h315v-199h-315v-334l-16 -254h4l133 170l313 340h344l-444 -485l471 -633h-352l-322 453l-131 -105v-348h-305v1196h-156z" horiz-adv-x="1270" unicode="ҟ"/><glyph d="M0 1204v258h635v-669l123 172l395 497h344l-510 -647l514 -815h-352l-383 616l-131 -94v-522h-309v1204h-326zM141 0z" horiz-adv-x="1501" unicode="Ҡ"/><glyph d="M0 889v229h641v-543l428 543h315l-442 -536l481 -582h-325l-457 567v-567h-285v889h-356zM196 0z" horiz-adv-x="1423" unicode="ҡ"/><glyph d="M184 0v1462h310v-573h579v573h309v-1196h299v-692h-299v426h-309v631h-579v-631h-310zM1567 0z" horiz-adv-x="1722" unicode="Ң"/><glyph d="M160 0v1118h305v-430h426v430h305v-895h277v-624h-275v401h-307v461h-426v-461h-305zM1356 0z" horiz-adv-x="1522" unicode="ң"/><glyph d="M184 0v1462h310v-573h579v573h635v-258h-326v-1204h-309v631h-579v-631h-310zM1567 0z" horiz-adv-x="1708" unicode="Ҥ"/><glyph d="M160 0v1118h305v-430h426v430h661v-229h-356v-889h-305v461h-426v-461h-305zM1356 0z" horiz-adv-x="1552" unicode="ҥ"/><glyph d="M184 0v1462h1116v-659q115 16 281 16q185 0 330 -85.5t218 -236t73 -356.5q0 -195 -69.5 -343.5t-195 -229t-278.5 -80.5q-109 0 -176.5 10t-147.5 37v272q129 -47 262 -47q131 0 216 106.5t85 274.5q0 196 -106.5 296t-335.5 100q-58 0 -156 -21v-516h-309v1204h-497 v-1204h-310z" horiz-adv-x="2304" unicode="Ҧ"/><glyph d="M160 0v1118h985v-481l80 4q151 0 271.5 -70.5t186.5 -200t66 -302.5q0 -179 -60.5 -307t-172.5 -195.5t-261 -67.5q-142 0 -256 51v263q45 -24 105.5 -39t109.5 -15q115 0 178.5 81.5t63.5 232.5q0 149 -77.5 227t-227.5 78h-6v-377h-305v889h-375v-889h-305z" horiz-adv-x="1821" unicode="ҧ"/><glyph d="M119 713q0 381 162.5 576.5t480.5 195.5q56 0 129 -12.5t119 -30.5l-78 -240q-92 29 -170 29q-330 0 -330 -508q0 -230 100 -355.5t277 -125.5q25 0 31 4q-63 76 -101.5 197.5t-38.5 246.5q0 218 99.5 331.5t290.5 113.5q187 0 291 -121t104 -336q0 -143 -49 -266.5 t-162 -235.5q46 -16 112 -16q76 0 144 22v-241q-62 -25 -178 -25q-173 0 -318 98q-104 -34 -250 -34q-310 0 -487.5 195t-177.5 538zM979 674q0 -122 28 -209.5t66 -136.5q61 56 98 148.5t37 193.5q0 233 -112 233q-55 0 -86 -61.5t-31 -167.5z" horiz-adv-x="1591" unicode="Ҩ"/><glyph d="M92 555q0 276 136.5 430t385.5 154q42 0 102.5 -11t108.5 -30l-67 -228q-88 25 -144 25q-111 0 -163 -83t-52 -267q0 -152 55.5 -236t163.5 -84q25 0 37 4q-42 79 -56.5 143.5t-14.5 141.5q0 167 83 255.5t248 88.5q152 0 241 -92.5t89 -257.5q0 -118 -43 -211t-121 -145 q28 -7 70 -7q59 0 123 17v-211q-72 -23 -156 -23q-147 0 -274 86q-98 -34 -232 -34q-237 0 -378.5 155.5t-141.5 419.5zM825 506q0 -126 76 -213q103 64 103 215q0 57 -22 93t-67 36q-90 0 -90 -131z" horiz-adv-x="1343" unicode="ҩ"/><glyph d="M119 729q0 228 83 399.5t238.5 263t364.5 91.5q213 0 428 -103l-100 -252q-82 39 -165 68t-163 29q-175 0 -271 -131.5t-96 -366.5q0 -489 367 -489q154 0 373 77v-260q-180 -75 -402 -75q-319 0 -488 193.5t-169 555.5zM579 -291q60 -18 115 -18q35 0 57.5 20t22.5 62 q0 52 -39 106.5t-109 120.5h179q79 -60 112 -97.5t50.5 -77.5t17.5 -87q0 -103 -69 -166.5t-181 -63.5q-74 0 -156 23v178z" horiz-adv-x="1305" unicode="Ҫ"/><glyph d="M92 553q0 285 142 435.5t407 150.5q194 0 348 -76l-90 -236q-72 29 -134 47.5t-124 18.5q-238 0 -238 -338q0 -328 238 -328q88 0 163 23.5t150 73.5v-261q-74 -47 -149.5 -65t-190.5 -18q-522 0 -522 573zM426 -291q60 -18 115 -18q35 0 57.5 20t22.5 62q0 52 -39 106.5 t-109 120.5h179q79 -60 112 -97.5t50.5 -77.5t17.5 -87q0 -103 -69 -166.5t-181 -63.5q-74 0 -156 23v178z" horiz-adv-x="1053" unicode="ҫ"/><glyph d="M41 1204v258h1104v-258h-397v-938h299v-692h-299v426h-310v1204h-397z" horiz-adv-x="1186" unicode="Ҭ"/><glyph d="M47 889v229h1038v-229h-366v-666h274v-624h-274v401h-305v889h-367z" horiz-adv-x="1126" unicode="ҭ"/><glyph d="M0 1462h336l303 -602l305 602h334l-485 -893v-569h-308v559z" horiz-adv-x="1278" unicode="Ү"/><glyph d="M0 1118h336l176 -504q26 -73 57 -216l13 -60h12q36 180 70 276l178 504h334l-435 -1118v-492h-307v492z" horiz-adv-x="1176" unicode="ү"/><glyph d="M0 1462h336l303 -602l305 602h334l-485 -893v-41h319v-258h-319v-270h-308v270h-319v258h319v31z" horiz-adv-x="1278" unicode="Ұ"/><glyph d="M0 1118h336l176 -504q26 -73 57 -216l13 -60h12q36 180 70 276l178 504h334l-435 -1118h291v-229h-291v-263h-307v263h-291v229h291z" horiz-adv-x="1176" unicode="ұ"/><glyph d="M0 0l485 754l-454 708h342l315 -526l309 526h334l-459 -725l316 -471h293v-692h-299v426h-170l-340 553l-340 -553h-332zM1366 0z" horiz-adv-x="1522" unicode="Ҳ"/><glyph d="M10 0l379 571l-360 547h346l217 -356l219 356h346l-364 -547l231 -348h258v-624h-274v401h-181l-235 383l-236 -383h-346zM1174 0zM1184 0z" horiz-adv-x="1311" unicode="ҳ"/><glyph d="M41 1204v258h1083v-258h-407v-946h538v1204h310v-1196h299v-692h-299v426h-1157v1204h-367z" horiz-adv-x="1905" unicode="Ҵ"/><glyph d="M47 889v229h854v-229h-295v-660h406v889h305v-895h274v-624h-274v401h-1016v889h-254z" horiz-adv-x="1620" unicode="ҵ"/><glyph d="M109 858v604h309v-516q0 -106 49 -159.5t166 -53.5q82 0 163.5 16.5t200.5 57.5v655h310v-1196h299v-692h-299v426h-310v565q-154 -52 -256.5 -71t-195.5 -19q-209 0 -322.5 100.5t-113.5 282.5zM1491 0z" horiz-adv-x="1647" unicode="Ҷ"/><glyph d="M123 702v416h305v-409q0 -146 135 -146q88 0 163.5 20t152.5 52v483h305v-895h274v-624h-274v401h-305v444q-106 -56 -197 -79t-176 -23q-183 0 -283 93.5t-100 266.5zM1343 0z" horiz-adv-x="1487" unicode="ҷ"/><glyph d="M109 858v604h309v-516q0 -110 49 -160.5t158 -52.5v328h133v-318q89 13 239 64v655h310v-1462h-310v565q-129 -45 -239 -69v-324h-133v305l-40 -2h-40q-209 0 -322.5 100.5t-113.5 282.5z" horiz-adv-x="1491" unicode="Ҹ"/><glyph d="M123 702v416h305v-409q0 -146 135 -146h19v256h125v-241q78 16 172 57v483h305v-1118h-305v444q-105 -54 -172 -73v-242h-125v217q-25 -4 -76 -4q-183 0 -283 93.5t-100 266.5z" horiz-adv-x="1343" unicode="ҹ"/><glyph d="M184 0v1462h310v-565q147 51 254 70.5t198 19.5q206 0 321 -99.5t115 -283.5v-604h-309v516q0 106 -49 159.5t-166 53.5q-79 0 -162.5 -16t-201.5 -58v-655h-310z" horiz-adv-x="1491" unicode="Һ"/><glyph d="M160 0v1118h305v-444q106 56 196 79t177 23q183 0 283 -93.5t100 -266.5v-416h-306v420q0 135 -135 135q-144 0 -315 -72v-483h-305z" horiz-adv-x="1364" unicode="һ"/><glyph d="M0 891q0 116 53 205h234q-8 -17 -17.5 -53t-9.5 -66q0 -88 96 -88h41q37 284 215 440t471 156q348 0 521.5 -197.5t173.5 -585.5v-71h-1067q13 -193 118 -293t293 -100q138 0 304 46.5t276 114.5v-278q-125 -75 -267.5 -108t-314.5 -33q-318 0 -509 170.5t-220 480.5h-63 q-163 0 -245.5 69t-82.5 191zM715 889h741q0 176 -91 257t-282 81q-159 0 -257.5 -89.5t-110.5 -248.5z" horiz-adv-x="1942" unicode="Ҽ"/><glyph d="M0 707q0 96 41 165h205q-25 -55 -25 -108q0 -78 96 -78h17q33 219 172 336t358 117q242 0 377 -134.5t135 -373.5v-148h-743q5 -130 79.5 -203t209.5 -73q106 0 199.5 21.5t191.5 66.5v-236q-78 -39 -173 -59t-229 -20q-259 0 -411.5 130.5t-171.5 372.5q-328 0 -328 224 zM639 686h451q-2 112 -61.5 174t-162.5 62q-94 0 -156 -57.5t-71 -178.5z" horiz-adv-x="1464" unicode="ҽ"/><glyph d="M0 891q0 116 53 205h234q-8 -17 -17.5 -53t-9.5 -66q0 -88 96 -88h41q37 284 215 440t471 156q348 0 521.5 -197.5t173.5 -585.5v-71h-1067q13 -193 118 -293t293 -100q138 0 304 46.5t276 114.5v-278q-109 -64 -216 -95t-233 -40v-412h-297v418q-246 40 -392.5 204.5 t-172.5 434.5h-63q-163 0 -245.5 69t-82.5 191zM715 889h741q0 176 -91 257t-282 81q-159 0 -257.5 -89.5t-110.5 -248.5z" horiz-adv-x="1942" unicode="Ҿ"/><glyph d="M0 707q0 96 41 165h205q-25 -55 -25 -108q0 -78 96 -78h17q33 219 172 336t358 117q242 0 377 -134.5t135 -373.5v-148h-743q5 -130 79.5 -203t209.5 -73q106 0 199.5 21.5t191.5 66.5v-236q-127 -63 -305 -75v-385h-275v399q-181 40 -285.5 164t-119.5 321 q-328 0 -328 224zM639 686h451q-2 112 -61.5 174t-162.5 62q-94 0 -156 -57.5t-71 -178.5z" horiz-adv-x="1464" unicode="ҿ"/><glyph d="M184 0v1462h310v-1462h-310z" horiz-adv-x="678" unicode="Ӏ"/><glyph d="M0 0l520 760l-491 702h319l473 -708v708h289v-708l473 708h320l-492 -702l520 -760h-332l-489 741v-741h-289v741l-489 -741h-332zM477 1937h273q7 -103 51.5 -144.5t159.5 -41.5q101 0 150.5 45.5t60.5 140.5h276q-19 -187 -141 -272.5t-352 -85.5q-237 0 -350.5 82 t-127.5 276z" horiz-adv-x="1931" unicode="Ӂ"/><glyph d="M0 0l451 582l-412 536h315l398 -543v543h284v-543l398 543h315l-412 -536l451 -582h-326l-426 567v-567h-284v567l-426 -567h-326zM407 1599h273q7 -103 51.5 -144.5t159.5 -41.5q101 0 150.5 45.5t60.5 140.5h276q-19 -187 -141 -272.5t-352 -85.5q-237 0 -350.5 82 t-127.5 276z" horiz-adv-x="1788" unicode="ӂ"/><glyph d="M184 0v1462h310v-704l145 207l393 497h344l-577 -688h4q200 0 351.5 -78t225.5 -220t74 -335q0 -195 -69.5 -343.5t-195 -229t-278.5 -80.5q-110 0 -179.5 11t-143.5 36v272q129 -47 262 -47q142 0 221.5 102.5t79.5 278.5q0 195 -113 295.5t-358 100.5q-75 0 -186 -25 v-512h-310z" horiz-adv-x="1556" unicode="Ӄ"/><glyph d="M160 0v1118h305v-493l434 493h344l-473 -500q229 0 365.5 -146.5t136.5 -403.5q0 -179 -60.5 -307t-172.5 -195.5t-261 -67.5q-142 0 -256 51v263q45 -24 105.5 -39t109.5 -15q116 0 179 82.5t63 231.5q0 148 -79 226.5t-232 78.5q-50 0 -111 -10.5t-92 -22.5v-344h-305z" horiz-adv-x="1354" unicode="ӄ"/><glyph d="M16 2v254q58 -20 109 -20q53 0 84 48.5t58.5 180t73 431t77.5 566.5h923v-1196h334l-178 -692h-344l188 426h-309v1204h-358l-16 -134q-62 -511 -109.5 -717.5t-138.5 -290.5t-246 -82q-84 0 -148 22zM1526 0z" horiz-adv-x="1716" unicode="Ӆ"/><glyph d="M0 12v244q49 -20 98 -20q57 0 95.5 82t69 273.5t52.5 526.5h846v-895h299l-145 -624h-291l137 401h-305v889h-281q-32 -375 -78 -559.5t-122.5 -267t-200.5 -82.5q-106 0 -174 32zM1321 0z" horiz-adv-x="1489" unicode="ӆ"/><glyph d="M184 0v1462h310v-573h579v573h309v-1372q0 -177 -67 -315t-190.5 -212.5t-284.5 -74.5q-191 0 -324 47v272q75 -26 141 -36.5t148 -10.5q126 0 197 96.5t71 268.5v506h-579v-631h-310z" horiz-adv-x="1567" unicode="Ӈ"/><glyph d="M160 0v1118h305v-430h426v430h305v-1095q0 -247 -132 -386t-364 -139q-76 0 -135 12t-123 44v262q112 -58 226 -58q108 0 163.5 74t59.5 215v414h-426v-461h-305z" horiz-adv-x="1356" unicode="ӈ"/><glyph d="M184 0v1462h310v-573h579v573h309v-1196h334l-178 -692h-344l188 426h-309v631h-579v-631h-310zM1567 0z" horiz-adv-x="1757" unicode="Ӊ"/><glyph d="M160 0v1118h305v-430h426v430h305v-895h299l-145 -624h-291l137 401h-305v461h-426v-461h-305zM1356 0z" horiz-adv-x="1524" unicode="ӊ"/><glyph d="M109 858v604h309v-516q0 -106 49 -159.5t166 -53.5q82 0 163.5 16.5t200.5 57.5v655h310v-1462h-258v-426h-299v692h247v299q-154 -52 -256.5 -71t-195.5 -19q-209 0 -322.5 100.5t-113.5 282.5z" horiz-adv-x="1491" unicode="Ӌ"/><glyph d="M123 702v416h305v-409q0 -146 135 -146q88 0 163.5 20t152.5 52v483h305v-1118h-260v-401h-275v624h230v221q-106 -56 -197 -79t-176 -23q-183 0 -283 93.5t-100 266.5z" horiz-adv-x="1343" unicode="ӌ"/><glyph d="M184 0v1462h422l346 -1118h6l367 1118h422v-1196h334l-178 -692h-344l188 426h-289v692q0 49 1.5 113t13.5 340h-9l-377 -1145h-284l-352 1147h-9q19 -350 19 -467v-680h-277zM1931 0z" horiz-adv-x="2122" unicode="Ӎ"/><glyph d="M160 0v1118h420l192 -477q30 -77 55.5 -177t34.5 -171q33 150 51.5 215.5t40.5 120.5t199 489h416v-895h299l-146 -624h-290l137 401h-285v881l-16 -62q-54 -211 -97 -319l-198 -500h-217l-201 504q-43 110 -92 309l-19 68v-881h-284zM1729 0z" horiz-adv-x="1896" unicode="ӎ"/><glyph d="M184 0v1462h310v-1462h-310z" horiz-adv-x="678" unicode="ӏ"/><glyph d="M0 0l516 1468h379l518 -1468h-334l-106 348h-533l-106 -348h-334zM518 608h381q-147 473 -165.5 535t-26.5 98q-33 -128 -189 -633zM221 1937h273q7 -103 51.5 -144.5t159.5 -41.5q101 0 150.5 45.5t60.5 140.5h276q-19 -187 -141 -272.5t-352 -85.5q-237 0 -350.5 82 t-127.5 276z" horiz-adv-x="1413" unicode="Ӑ"/><glyph d="M86 334q0 178 124.5 262.5t375.5 93.5l194 6v49q0 170 -174 170q-134 0 -315 -81l-101 206q193 101 428 101q225 0 345 -98t120 -298v-745h-213l-59 152h-8q-77 -97 -158.5 -134.5t-212.5 -37.5q-161 0 -253.5 92t-92.5 262zM399 332q0 -129 148 -129q106 0 169.5 61 t63.5 162v92l-118 -4q-133 -4 -198 -48t-65 -134zM145 1599h273q7 -103 51.5 -144.5t159.5 -41.5q101 0 150.5 45.5t60.5 140.5h276q-19 -187 -141 -272.5t-352 -85.5q-237 0 -350.5 82t-127.5 276z" horiz-adv-x="1237" unicode="ӑ"/><glyph d="M0 0l516 1468h379l518 -1468h-334l-106 348h-533l-106 -348h-334zM518 608h381q-147 473 -165.5 535t-26.5 98q-33 -128 -189 -633zM365 1743q0 65 37.5 100t101.5 35q66 0 103.5 -37t37.5 -98q0 -60 -38 -96.5t-103 -36.5q-64 0 -101.5 35t-37.5 98zM768 1743 q0 70 40.5 102.5t100.5 32.5q65 0 103.5 -36t38.5 -99q0 -61 -39 -97t-103 -36q-60 0 -100.5 32.5t-40.5 100.5z" horiz-adv-x="1413" unicode="Ӓ"/><glyph d="M86 334q0 178 124.5 262.5t375.5 93.5l194 6v49q0 170 -174 170q-134 0 -315 -81l-101 206q193 101 428 101q225 0 345 -98t120 -298v-745h-213l-59 152h-8q-77 -97 -158.5 -134.5t-212.5 -37.5q-161 0 -253.5 92t-92.5 262zM399 332q0 -129 148 -129q106 0 169.5 61 t63.5 162v92l-118 -4q-133 -4 -198 -48t-65 -134zM274 1405q0 65 37.5 100t101.5 35q66 0 103.5 -37t37.5 -98q0 -60 -38 -96.5t-103 -36.5q-64 0 -101.5 35t-37.5 98zM677 1405q0 70 40.5 102.5t100.5 32.5q65 0 103.5 -36t38.5 -99q0 -61 -39 -97t-103 -36 q-60 0 -100.5 32.5t-40.5 100.5z" horiz-adv-x="1237" unicode="ӓ"/><glyph d="M0 0l655 1462h1174v-254h-563v-321h526v-254h-526v-377h563v-256h-873v348h-491l-150 -348h-315zM578 608h378v590h-127z" horiz-adv-x="1950" unicode="Ӕ"/><glyph d="M86 334q0 178 121 262.5t362 93.5l191 6v84q0 69 -44.5 102t-121.5 33q-140 0 -305 -77l-99 202q189 101 422 101q227 0 342 -131q66 64 152.5 96.5t206.5 32.5q221 0 349 -137.5t128 -370.5v-148h-723q5 -130 77 -203t202 -73q196 0 380 88v-236q-79 -39 -171 -59 t-226 -20q-137 0 -249.5 50.5t-184.5 155.5q-98 -117 -196.5 -161.5t-256.5 -44.5q-161 0 -258.5 94.5t-97.5 259.5zM399 332q0 -129 140 -129q101 0 161 61t60 162v92l-113 -4q-124 -4 -186 -47.5t-62 -134.5zM1073 686h430q-2 112 -55 174t-141 62q-217 0 -234 -236z" horiz-adv-x="1878" unicode="ӕ"/><glyph d="M184 0v1462h842v-254h-532v-321h495v-254h-495v-377h532v-256h-842zM118 1937h273q7 -103 51.5 -144.5t159.5 -41.5q101 0 150.5 45.5t60.5 140.5h276q-19 -187 -141 -272.5t-352 -85.5q-237 0 -350.5 82t-127.5 276z" horiz-adv-x="1147" unicode="Ӗ"/><glyph d="M92 551q0 281 140.5 434.5t388.5 153.5q237 0 369 -135t132 -373v-148h-721q5 -130 77 -203t202 -73q101 0 191 21t188 67v-236q-80 -40 -171 -59.5t-222 -19.5q-270 0 -422 149t-152 422zM408 686h428q-2 113 -59 174.5t-154 61.5t-152 -61.5t-63 -174.5zM133 1599h273 q7 -103 51.5 -144.5t159.5 -41.5q101 0 150.5 45.5t60.5 140.5h276q-19 -187 -141 -272.5t-352 -85.5q-237 0 -350.5 82t-127.5 276z" horiz-adv-x="1210" unicode="ӗ"/><glyph d="M164 762v72h1067q-13 192 -118.5 292.5t-293.5 100.5q-148 0 -307.5 -45.5t-271.5 -116.5v268q139 83 278.5 117.5t302.5 34.5q346 0 539.5 -201t193.5 -555t-182 -551.5t-514 -197.5q-344 0 -519 195.5t-175 586.5zM485 575q0 -175 90 -256t283 -81q163 0 260.5 91 t108.5 246h-742z" horiz-adv-x="1673" unicode="Ә"/><glyph d="M92 487v148h744q-5 130 -80 203t-209 73q-99 0 -191.5 -19t-199.5 -69v236q88 44 183 62t218 18q276 0 431 -149.5t155 -422.5q0 -279 -141.5 -433t-397.5 -154q-241 0 -376.5 133.5t-135.5 373.5zM379 432q2 -110 60 -172.5t163 -62.5q99 0 158 59t69 176h-450z" horiz-adv-x="1231" unicode="ә"/><glyph d="M164 762v72h1067q-13 192 -118.5 292.5t-293.5 100.5q-148 0 -307.5 -45.5t-271.5 -116.5v268q139 83 278.5 117.5t302.5 34.5q346 0 539.5 -201t193.5 -555t-182 -551.5t-514 -197.5q-344 0 -519 195.5t-175 586.5zM485 575q0 -175 90 -256t283 -81q163 0 260.5 91 t108.5 246h-742zM517 1743q0 65 37.5 100t101.5 35q66 0 103.5 -37t37.5 -98q0 -60 -38 -96.5t-103 -36.5q-64 0 -101.5 35t-37.5 98zM920 1743q0 70 40.5 102.5t100.5 32.5q65 0 103.5 -36t38.5 -99q0 -61 -39 -97t-103 -36q-60 0 -100.5 32.5t-40.5 100.5z" horiz-adv-x="1673" unicode="Ӛ"/><glyph d="M92 487v148h744q-5 130 -80 203t-209 73q-99 0 -191.5 -19t-199.5 -69v236q88 44 183 62t218 18q276 0 431 -149.5t155 -422.5q0 -279 -141.5 -433t-397.5 -154q-241 0 -376.5 133.5t-135.5 373.5zM379 432q2 -110 60 -172.5t163 -62.5q99 0 158 59t69 176h-450z M278 1405q0 65 37.5 100t101.5 35q66 0 103.5 -37t37.5 -98q0 -60 -38 -96.5t-103 -36.5q-64 0 -101.5 35t-37.5 98zM681 1405q0 70 40.5 102.5t100.5 32.5q65 0 103.5 -36t38.5 -99q0 -61 -39 -97t-103 -36q-60 0 -100.5 32.5t-40.5 100.5z" horiz-adv-x="1231" unicode="ӛ"/><glyph d="M0 0l520 760l-491 702h319l473 -708v708h289v-708l473 708h320l-492 -702l520 -760h-332l-489 741v-741h-289v741l-489 -741h-332zM623 1743q0 65 37.5 100t101.5 35q66 0 103.5 -37t37.5 -98q0 -60 -38 -96.5t-103 -36.5q-64 0 -101.5 35t-37.5 98zM1026 1743 q0 70 40.5 102.5t100.5 32.5q65 0 103.5 -36t38.5 -99q0 -61 -39 -97t-103 -36q-60 0 -100.5 32.5t-40.5 100.5z" horiz-adv-x="1931" unicode="Ӝ"/><glyph d="M0 0l451 582l-412 536h315l398 -543v543h284v-543l398 543h315l-412 -536l451 -582h-326l-426 567v-567h-284v567l-426 -567h-326zM551 1405q0 65 37.5 100t101.5 35q66 0 103.5 -37t37.5 -98q0 -60 -38 -96.5t-103 -36.5q-64 0 -101.5 35t-37.5 98zM954 1405 q0 70 40.5 102.5t100.5 32.5q65 0 103.5 -36t38.5 -99q0 -61 -39 -97t-103 -36q-60 0 -100.5 32.5t-40.5 100.5z" horiz-adv-x="1788" unicode="ӝ"/><glyph d="M94 1323q125 83 265 121.5t311 38.5q239 0 381.5 -100t142.5 -263q0 -141 -100 -233t-271 -117v-6q201 -20 308.5 -111t107.5 -237q0 -202 -163.5 -319t-452.5 -117q-322 0 -517 79v260q94 -45 220.5 -70.5t236.5 -25.5q369 0 369 215q0 97 -118.5 149t-350.5 52h-137 v242h123q232 0 338 44t106 146q0 75 -66.5 119.5t-199.5 44.5q-206 0 -398 -119zM324 1743q0 65 37.5 100t101.5 35q66 0 103.5 -37t37.5 -98q0 -60 -38 -96.5t-103 -36.5q-64 0 -101.5 35t-37.5 98zM727 1743q0 70 40.5 102.5t100.5 32.5q65 0 103.5 -36t38.5 -99 q0 -61 -39 -97t-103 -36q-60 0 -100.5 32.5t-40.5 100.5z" horiz-adv-x="1327" unicode="Ӟ"/><glyph d="M78 49v252q86 -40 188.5 -63t198.5 -23q149 0 223 33.5t74 95.5q0 68 -78 100.5t-240 32.5h-118v211h112q173 0 245.5 28t72.5 89q0 54 -53 81t-175 27q-77 0 -174.5 -19t-177.5 -52l-90 213q119 45 231 64.5t250 19.5q209 0 335 -80t126 -217q0 -189 -223 -246v-10 q137 -34 195.5 -96.5t58.5 -163.5q0 -102 -66 -181t-191 -122t-294 -43q-280 0 -430 69zM229 1405q0 65 37.5 100t101.5 35q66 0 103.5 -37t37.5 -98q0 -60 -38 -96.5t-103 -36.5q-64 0 -101.5 35t-37.5 98zM632 1405q0 70 40.5 102.5t100.5 32.5q65 0 103.5 -36t38.5 -99 q0 -61 -39 -97t-103 -36q-60 0 -100.5 32.5t-40.5 100.5z" horiz-adv-x="1137" unicode="ӟ"/><glyph d="M57 59v263q93 -44 210.5 -70.5t221.5 -26.5q167 0 249.5 52.5t82.5 166.5q0 102 -104 149.5t-311 47.5h-123v217l360 348h-537v256h959v-198l-432 -412q241 -10 369 -120t128 -306q0 -208 -162.5 -327t-459.5 -119q-259 0 -451 79z" horiz-adv-x="1210" unicode="Ӡ"/><glyph d="M57 -150q92 -45 205.5 -70.5t214.5 -25.5q158 0 241 67.5t83 194.5q0 138 -101 203.5t-299 65.5h-118v217l405 383h-590v233h967v-198l-442 -414q237 -26 362 -153t125 -351q0 -151 -71.5 -262.5t-208.5 -171.5t-330 -60q-251 0 -443 80v262z" horiz-adv-x="1190" unicode="ӡ"/><glyph d="M184 0v1462h279v-706l-4 -189l-10 -215h6l675 1110h371v-1462h-276v702q0 141 18 418h-8l-678 -1120h-373zM502 1579v211h678v-211h-678z" horiz-adv-x="1686" unicode="Ӣ"/><glyph d="M160 0v1118h295v-442q0 -70 -23 -342l516 784h367v-1118h-295v446q0 119 20 336l-514 -782h-366zM400 1241v211h678v-211h-678z" horiz-adv-x="1475" unicode="ӣ"/><glyph d="M184 0v1462h279v-706l-4 -189l-10 -215h6l675 1110h371v-1462h-276v702q0 141 18 418h-8l-678 -1120h-373zM500 1743q0 65 37.5 100t101.5 35q66 0 103.5 -37t37.5 -98q0 -60 -38 -96.5t-103 -36.5q-64 0 -101.5 35t-37.5 98zM903 1743q0 70 40.5 102.5t100.5 32.5 q65 0 103.5 -36t38.5 -99q0 -61 -39 -97t-103 -36q-60 0 -100.5 32.5t-40.5 100.5z" horiz-adv-x="1686" unicode="Ӥ"/><glyph d="M160 0v1118h295v-442q0 -70 -23 -342l516 784h367v-1118h-295v446q0 119 20 336l-514 -782h-366zM396 1405q0 65 37.5 100t101.5 35q66 0 103.5 -37t37.5 -98q0 -60 -38 -96.5t-103 -36.5q-64 0 -101.5 35t-37.5 98zM799 1405q0 70 40.5 102.5t100.5 32.5q65 0 103.5 -36 t38.5 -99q0 -61 -39 -97t-103 -36q-60 0 -100.5 32.5t-40.5 100.5z" horiz-adv-x="1475" unicode="ӥ"/><glyph d="M119 735q0 365 180.5 557.5t517.5 192.5t515.5 -194t178.5 -558q0 -363 -180 -558t-516 -195t-516 195t-180 560zM444 733q0 -245 93 -369t278 -124q371 0 371 493q0 494 -369 494q-185 0 -279 -124.5t-94 -369.5zM474 1743q0 65 37.5 100t101.5 35q66 0 103.5 -37 t37.5 -98q0 -60 -38 -96.5t-103 -36.5q-64 0 -101.5 35t-37.5 98zM877 1743q0 70 40.5 102.5t100.5 32.5q65 0 103.5 -36t38.5 -99q0 -61 -39 -97t-103 -36q-60 0 -100.5 32.5t-40.5 100.5z" horiz-adv-x="1630" unicode="Ӧ"/><glyph d="M92 561q0 274 143 426t402 152q161 0 284 -70t189 -201t66 -307q0 -273 -144 -427t-401 -154q-161 0 -284 70.5t-189 202.5t-66 308zM403 561q0 -166 54.5 -251t177.5 -85q122 0 175.5 84.5t53.5 251.5q0 166 -54 249t-177 83q-122 0 -176 -82.5t-54 -249.5zM293 1405 q0 65 37.5 100t101.5 35q66 0 103.5 -37t37.5 -98q0 -60 -38 -96.5t-103 -36.5q-64 0 -101.5 35t-37.5 98zM696 1405q0 70 40.5 102.5t100.5 32.5q65 0 103.5 -36t38.5 -99q0 -61 -39 -97t-103 -36q-60 0 -100.5 32.5t-40.5 100.5z" horiz-adv-x="1268" unicode="ӧ"/><glyph d="M119 735q0 365 180.5 557.5t517.5 192.5t515.5 -194t178.5 -558q0 -363 -180 -558t-516 -195t-516 195t-180 560zM442 621q20 -180 111.5 -280.5t261.5 -100.5q163 0 257.5 96t113.5 285h-744zM446 879h736q-25 169 -116.5 258.5t-248.5 89.5q-158 0 -251 -87t-120 -261z" horiz-adv-x="1630" unicode="Ө"/><glyph d="M92 561q0 274 143 426t402 152q161 0 284 -70t189 -201t66 -307q0 -273 -144 -427t-401 -154q-161 0 -284 70.5t-189 202.5t-66 308zM408 457q15 -116 70 -174t157 -58q97 0 153 58t70 174h-450zM408 668h450q-14 112 -68.5 168.5t-156.5 56.5q-98 0 -154 -56.5 t-71 -168.5z" horiz-adv-x="1268" unicode="ө"/><glyph d="M119 735q0 365 180.5 557.5t517.5 192.5t515.5 -194t178.5 -558q0 -363 -180 -558t-516 -195t-516 195t-180 560zM442 621q20 -180 111.5 -280.5t261.5 -100.5q163 0 257.5 96t113.5 285h-744zM446 879h736q-25 169 -116.5 258.5t-248.5 89.5q-158 0 -251 -87t-120 -261z M476 1743q0 65 37.5 100t101.5 35q66 0 103.5 -37t37.5 -98q0 -60 -38 -96.5t-103 -36.5q-64 0 -101.5 35t-37.5 98zM879 1743q0 70 40.5 102.5t100.5 32.5q65 0 103.5 -36t38.5 -99q0 -61 -39 -97t-103 -36q-60 0 -100.5 32.5t-40.5 100.5z" horiz-adv-x="1630" unicode="Ӫ"/><glyph d="M92 561q0 274 143 426t402 152q161 0 284 -70t189 -201t66 -307q0 -273 -144 -427t-401 -154q-161 0 -284 70.5t-189 202.5t-66 308zM408 457q15 -116 70 -174t157 -58q97 0 153 58t70 174h-450zM408 668h450q-14 112 -68.5 168.5t-156.5 56.5q-98 0 -154 -56.5 t-71 -168.5zM291 1405q0 65 37.5 100t101.5 35q66 0 103.5 -37t37.5 -98q0 -60 -38 -96.5t-103 -36.5q-64 0 -101.5 35t-37.5 98zM694 1405q0 70 40.5 102.5t100.5 32.5q65 0 103.5 -36t38.5 -99q0 -61 -39 -97t-103 -36q-60 0 -100.5 32.5t-40.5 100.5z" horiz-adv-x="1268" unicode="ӫ"/><glyph d="M72 1380q232 103 487 103q325 0 502.5 -199.5t177.5 -554.5q0 -362 -182.5 -555.5t-526.5 -193.5q-237 0 -432 75v260q243 -77 414 -77q191 0 291.5 93t109.5 279h-634v254h632q-6 170 -102 265.5t-256 95.5q-99 0 -194.5 -28t-188.5 -67zM314 1743q0 65 37.5 100 t101.5 35q66 0 103.5 -37t37.5 -98q0 -60 -38 -96.5t-103 -36.5q-64 0 -101.5 35t-37.5 98zM717 1743q0 70 40.5 102.5t100.5 32.5q65 0 103.5 -36t38.5 -99q0 -61 -39 -97t-103 -36q-60 0 -100.5 32.5t-40.5 100.5z" horiz-adv-x="1358" unicode="Ӭ"/><glyph d="M74 49v238q174 -80 327 -80q110 0 170 64t70 192h-422v203h422q-8 123 -61.5 185t-153.5 62q-119 0 -260 -63l-86 209q75 35 169.5 57.5t188.5 22.5q262 0 390 -142t128 -426q0 -292 -135.5 -441.5t-402.5 -149.5q-210 0 -344 69zM174 1405q0 65 37.5 100t101.5 35 q66 0 103.5 -37t37.5 -98q0 -60 -38 -96.5t-103 -36.5q-64 0 -101.5 35t-37.5 98zM577 1405q0 70 40.5 102.5t100.5 32.5q65 0 103.5 -36t38.5 -99q0 -61 -39 -97t-103 -36q-60 0 -100.5 32.5t-40.5 100.5z" horiz-adv-x="1049" unicode="ӭ"/><glyph d="M0 1462h328l360 -815h10l18 50l302 765h319l-452 -1034q-85 -195 -159.5 -280t-176.5 -126.5t-248 -41.5q-125 0 -233 30v266q88 -36 219 -36q83 0 134 38.5t85 133.5zM332 1579v211h678v-211h-678z" horiz-adv-x="1337" unicode="Ӯ"/><glyph d="M0 1118h334l211 -629q27 -82 37 -194h6q11 103 43 194l207 629h327l-473 -1261q-65 -175 -185.5 -262t-281.5 -87q-79 0 -155 17v242q55 -13 120 -13q81 0 141.5 49.5t94.5 149.5l18 55zM247 1241v211h678v-211h-678z" horiz-adv-x="1165" unicode="ӯ"/><glyph d="M0 1462h328l360 -815h10l18 50l302 765h319l-452 -1034q-85 -195 -159.5 -280t-176.5 -126.5t-248 -41.5q-125 0 -233 30v266q88 -36 219 -36q83 0 134 38.5t85 133.5zM328 1743q0 65 37.5 100t101.5 35q66 0 103.5 -37t37.5 -98q0 -60 -38 -96.5t-103 -36.5 q-64 0 -101.5 35t-37.5 98zM731 1743q0 70 40.5 102.5t100.5 32.5q65 0 103.5 -36t38.5 -99q0 -61 -39 -97t-103 -36q-60 0 -100.5 32.5t-40.5 100.5z" horiz-adv-x="1337" unicode="Ӱ"/><glyph d="M0 1118h334l211 -629q27 -82 37 -194h6q11 103 43 194l207 629h327l-473 -1261q-65 -175 -185.5 -262t-281.5 -87q-79 0 -155 17v242q55 -13 120 -13q81 0 141.5 49.5t94.5 149.5l18 55zM243 1405q0 65 37.5 100t101.5 35q66 0 103.5 -37t37.5 -98q0 -60 -38 -96.5 t-103 -36.5q-64 0 -101.5 35t-37.5 98zM646 1405q0 70 40.5 102.5t100.5 32.5q65 0 103.5 -36t38.5 -99q0 -61 -39 -97t-103 -36q-60 0 -100.5 32.5t-40.5 100.5z" horiz-adv-x="1165" unicode="ӱ"/><glyph d="M0 1462h328l360 -815h10l18 50l302 765h319l-452 -1034q-85 -195 -159.5 -280t-176.5 -126.5t-248 -41.5q-125 0 -233 30v266q88 -36 219 -36q83 0 134 38.5t85 133.5zM340 1579v27q62 85 117.5 172.5t76.5 128.5h301v-21q-32 -53 -146 -153t-188 -154h-161zM737 1579v27 q139 192 195 301h301v-21q-25 -43 -125.5 -134.5t-208.5 -172.5h-162z" horiz-adv-x="1337" unicode="Ӳ"/><glyph d="M0 1118h334l211 -629q27 -82 37 -194h6q11 103 43 194l207 629h327l-473 -1261q-65 -175 -185.5 -262t-281.5 -87q-79 0 -155 17v242q55 -13 120 -13q81 0 141.5 49.5t94.5 149.5l18 55zM238 1241v27q62 85 117.5 172.5t76.5 128.5h301v-21q-32 -53 -146 -153t-188 -154 h-161zM635 1241v27q139 192 195 301h301v-21q-25 -43 -125.5 -134.5t-208.5 -172.5h-162z" horiz-adv-x="1165" unicode="ӳ"/><glyph d="M109 858v604h309v-516q0 -106 49 -159.5t166 -53.5q82 0 163.5 16.5t200.5 57.5v655h310v-1462h-310v565q-154 -52 -256.5 -71t-195.5 -19q-209 0 -322.5 100.5t-113.5 282.5zM365 1743q0 65 37.5 100t101.5 35q66 0 103.5 -37t37.5 -98q0 -60 -38 -96.5t-103 -36.5 q-64 0 -101.5 35t-37.5 98zM768 1743q0 70 40.5 102.5t100.5 32.5q65 0 103.5 -36t38.5 -99q0 -61 -39 -97t-103 -36q-60 0 -100.5 32.5t-40.5 100.5z" horiz-adv-x="1491" unicode="Ӵ"/><glyph d="M123 702v416h305v-409q0 -146 135 -146q88 0 163.5 20t152.5 52v483h305v-1118h-305v444q-106 -56 -197 -79t-176 -23q-183 0 -283 93.5t-100 266.5zM314 1405q0 65 37.5 100t101.5 35q66 0 103.5 -37t37.5 -98q0 -60 -38 -96.5t-103 -36.5q-64 0 -101.5 35t-37.5 98z M717 1405q0 70 40.5 102.5t100.5 32.5q65 0 103.5 -36t38.5 -99q0 -61 -39 -97t-103 -36q-60 0 -100.5 32.5t-40.5 100.5z" horiz-adv-x="1343" unicode="ӵ"/><glyph d="M184 0v1462h924v-256h-614v-940h299v-692h-299v426h-310z" horiz-adv-x="1149" unicode="Ӷ"/><glyph d="M160 0v1118h772v-229h-467v-666h274v-624h-274v401h-305z" horiz-adv-x="979" unicode="ӷ"/><glyph d="M184 0v1462h310v-561h100q281 0 435.5 -116.5t154.5 -327.5q0 -228 -151.5 -342.5t-448.5 -114.5h-400zM494 254h81q153 0 224 50.5t71 152.5t-68.5 146t-240.5 44h-67v-393zM1362 0v1462h309v-1462h-309zM588 1743q0 65 37.5 100t101.5 35q66 0 103.5 -37t37.5 -98 q0 -60 -38 -96.5t-103 -36.5q-64 0 -101.5 35t-37.5 98zM991 1743q0 70 40.5 102.5t100.5 32.5q65 0 103.5 -36t38.5 -99q0 -61 -39 -97t-103 -36q-60 0 -100.5 32.5t-40.5 100.5z" horiz-adv-x="1855" unicode="Ӹ"/><glyph d="M160 0v1118h305v-432h147q256 0 379 -82t123 -248q0 -177 -123 -266.5t-368 -89.5h-463zM465 211h141q203 0 203 141q0 65 -52 94t-155 29h-137v-264zM1276 0v1118h305v-1118h-305zM529 1405q0 65 37.5 100t101.5 35q66 0 103.5 -37t37.5 -98q0 -60 -38 -96.5t-103 -36.5 q-64 0 -101.5 35t-37.5 98zM932 1405q0 70 40.5 102.5t100.5 32.5q65 0 103.5 -36t38.5 -99q0 -61 -39 -97t-103 -36q-60 0 -100.5 32.5t-40.5 100.5z" horiz-adv-x="1741" unicode="ӹ"/><glyph d="M47 596v254h137v612h920v-254h-610v-358h401v-254h-401v-596h-310v596h-137zM252 -231q59 -19 119 -19q123 0 123 170v383h295v-428q0 -177 -91.5 -274t-260.5 -97q-100 0 -185 25v240z" horiz-adv-x="1145" unicode="Ӻ"/><glyph d="M4 418v235h137v465h817v-248h-512v-217h332v-235h-332v-418h-305v418h-137zM204 -231q59 -19 119 -19q123 0 123 170v342h295v-387q0 -177 -91.5 -274t-260.5 -97q-100 0 -185 25v240z" horiz-adv-x="1006" unicode="ӻ"/><glyph d="M0 0l485 754l-454 708h342l315 -526l309 526h334l-459 -725l494 -737h-354l-340 553l-340 -553h-332zM921 -231q59 -19 119 -19q123 0 123 170v383h295v-428q0 -177 -91.5 -274t-260.5 -97q-100 0 -185 25v240z" horiz-adv-x="1499" unicode="Ӽ"/><glyph d="M10 0l379 571l-360 547h346l217 -356l219 356h346l-364 -547l381 -571h-347l-235 383l-236 -383h-346zM755 -231q59 -19 119 -19q123 0 123 170v342h295v-387q0 -177 -91.5 -274t-260.5 -97q-100 0 -185 25v240z" horiz-adv-x="1321" unicode="ӽ"/><glyph d="M0 0l397 618h-284v254h297l-379 590h342l315 -526l309 526h334l-373 -590h295v-254h-301l414 -618h-354l-340 553l-340 -553h-332z" horiz-adv-x="1366" unicode="Ӿ"/><glyph d="M10 0l299 451h-207v229h215l-288 438h346l217 -356l219 356h346l-293 -438h217v-229h-209l302 -451h-347l-235 383l-236 -383h-346z" horiz-adv-x="1184" unicode="ӿ"/><glyph d="M92 457q0 212 156 328t442 116h123v561h309v-1462h-426q-604 0 -604 457zM406 457q0 -102 73 -152.5t230 -50.5h104v393h-80q-180 0 -253.5 -44.5t-73.5 -145.5z" horiz-adv-x="1307" unicode="Ԁ"/><glyph d="M92 557q0 275 114.5 428.5t315.5 153.5q211 0 322 -164h10q-23 125 -23 223v358h306v-1556h-234l-59 145h-13q-104 -165 -317 -165q-197 0 -309.5 153t-112.5 424zM401 553q0 -165 57 -247.5t163 -82.5q117 0 171.5 68t59.5 231v33q0 180 -55.5 258t-180.5 78 q-102 0 -158.5 -86.5t-56.5 -251.5z" horiz-adv-x="1296" unicode="ԁ"/><glyph d="M92 438q0 216 149 339.5t416 123.5h115v561h309v-1095q3 -66 42.5 -98.5t125.5 -32.5q90 0 129 51t39 164v397h305v-467q0 -195 -120 -298t-357 -103q-108 0 -204.5 39t-135.5 100q-43 -63 -130 -100t-212 -37q-232 0 -351.5 117.5t-119.5 338.5zM406 434 q0 -96 46.5 -147t137.5 -51q84 0 133 32.5t49 91.5v287h-72q-157 0 -225.5 -52.5t-68.5 -160.5z" horiz-adv-x="1896" unicode="Ԃ"/><glyph d="M92 557q0 272 108.5 427t303.5 155q203 0 309 -164h10q-7 38 -14.5 109.5t-7.5 113.5v358h305v-1175q0 -75 40 -110t128 -35q87 0 124.5 51t37.5 164v249h301v-319q0 -196 -117.5 -298.5t-349.5 -102.5q-120 0 -196 30.5t-138 106.5q-46 -55 -144 -96t-186 -41 q-247 0 -380.5 148t-133.5 429zM401 553q0 -165 49 -247.5t154 -82.5q111 0 162 68.5t55 230.5v33q0 182 -53 259t-166 77q-201 0 -201 -338z" horiz-adv-x="1890" unicode="ԃ"/><glyph d="M25 1339q200 144 487 144q230 0 365 -93.5t135 -254.5q0 -137 -83 -233t-233 -132v-6q177 -22 268 -107.5t91 -230.5q0 -101 41.5 -145.5t126.5 -44.5q89 0 128.5 51t39.5 164v397h305v-467q0 -197 -120 -299t-353 -102q-234 0 -356 114t-122 332q0 106 -97.5 160.5 t-282.5 54.5h-170v217h170q344 0 344 209q0 78 -53.5 122t-166.5 44q-156 0 -309 -100z" horiz-adv-x="1870" unicode="Ԅ"/><glyph d="M57 1055q120 46 227.5 65t239.5 19q203 0 324 -80t121 -217q0 -189 -209 -246v-10q237 -39 237 -228q0 -122 168 -122q87 0 124.5 51t37.5 164v249h301v-319q0 -197 -117.5 -299t-345.5 -102q-221 0 -347 76.5t-126 217.5q0 101 -73 152t-209 51h-154v211h147 q158 0 225.5 28t67.5 89q0 54 -50.5 81t-164.5 27q-77 0 -166 -18.5t-168 -52.5z" horiz-adv-x="1782" unicode="ԅ"/><glyph d="M25 1339q209 144 507 144q241 0 381 -93.5t140 -254.5q0 -137 -83 -233t-233 -132v-6q177 -22 268 -107.5t91 -230.5v-160h299v-692h-299v426h-310v426q0 106 -104.5 160.5t-304.5 54.5h-182v217h182q373 0 373 209q0 166 -238 166q-167 0 -332 -100z" horiz-adv-x="1436" unicode="Ԇ"/><glyph d="M78 1055q119 45 231 64.5t250 19.5q209 0 335 -80t126 -217q0 -189 -209 -246v-10q129 -34 184.5 -96.5t55.5 -163.5v-103h274v-624h-274v401h-297v326q0 78 -76.5 114.5t-237.5 36.5h-164v211h158q170 0 242 28t72 89q0 54 -53 81t-175 27q-77 0 -174.5 -19t-177.5 -52z" horiz-adv-x="1354" unicode="ԇ"/><glyph d="M16 2v254q58 -20 109 -20q53 0 84 48.5t58.5 180t73 431t77.5 566.5h882v-1087q2 -72 41.5 -105.5t126.5 -33.5q90 0 129 51t39 164v397h306v-467q0 -197 -120 -299t-354 -102q-235 0 -356 100t-121 295v829h-317l-16 -134q-62 -511 -109.5 -717.5t-138.5 -290.5 t-246 -82q-84 0 -148 22z" horiz-adv-x="2116" unicode="Ԉ"/><glyph d="M0 12v244q49 -20 98 -20q57 0 95.5 82t69 273.5t52.5 526.5h815v-741q0 -74 40 -107.5t128 -33.5q87 0 124.5 51t37.5 164v249h301v-319q0 -197 -117.5 -299t-345.5 -102q-235 0 -354 100t-119 297v512h-250q-32 -375 -78 -559.5t-122.5 -267t-200.5 -82.5 q-106 0 -174 32z" horiz-adv-x="1915" unicode="ԉ"/><glyph d="M184 0v1462h310v-573h538v573h309v-1081q0 -75 36.5 -110t121.5 -35t121.5 51t36.5 164v397h305v-467q0 -196 -117.5 -298.5t-345.5 -102.5q-230 0 -347.5 100t-119.5 293v258h-538v-631h-310z" horiz-adv-x="2136" unicode="Ԋ"/><glyph d="M160 0v1118h305v-430h405v430h306v-743q2 -72 41 -105.5t120 -33.5q85 0 121.5 51t36.5 164v249h301v-319q0 -198 -116.5 -299.5t-342.5 -101.5q-231 0 -348 100.5t-119 294.5v86h-405v-461h-305z" horiz-adv-x="1950" unicode="ԋ"/><glyph d="M119 733q0 229 87.5 399t254 260.5t393.5 90.5q276 0 504 -107l-107 -250q-114 57 -209.5 78t-199.5 21q-189 0 -296.5 -132t-107.5 -366q0 -235 108.5 -362t319.5 -127q154 0 241 83.5t87 234.5v7h-373v258h699v-123q0 -358 -168.5 -538t-493.5 -180q-356 0 -547.5 197 t-191.5 556z" horiz-adv-x="1638" unicode="Ԍ"/><glyph d="M92 551q0 284 162.5 436t462.5 152q226 0 422 -86l-92 -234q-75 35 -165.5 54.5t-162.5 19.5q-163 0 -240.5 -83.5t-77.5 -262.5q0 -326 277 -326q129 0 202.5 58t73.5 157h-292v228h604v-93q0 -591 -580 -591q-282 0 -438 149t-156 422z" horiz-adv-x="1358" unicode="ԍ"/><glyph d="M41 1204v258h1104v-258h-397v-823q0 -75 37.5 -110t123.5 -35q88 0 126 51t38 164v397h305v-467q0 -197 -118.5 -299t-348.5 -102q-235 0 -354 101.5t-119 291.5v831h-397z" horiz-adv-x="1552" unicode="Ԏ"/><glyph d="M47 889v229h1038v-229h-366v-508q0 -75 40 -110t128 -35q86 0 124 51t38 164v249h301v-319q0 -197 -117.5 -299t-345.5 -102q-233 0 -352 99.5t-121 295.5v514h-367z" horiz-adv-x="1503" unicode="ԏ"/><glyph d="M88 416q0 146 102 237.5t285 110.5v6q-159 25 -250.5 117.5t-91.5 232.5q0 105 69 188.5t194 129t284 45.5q176 0 305.5 -33.5t247.5 -112.5l-135 -229q-192 119 -398 119q-133 0 -199.5 -40.5t-66.5 -115.5q0 -102 106.5 -146t338.5 -44h122v-242h-137 q-234 0 -351.5 -52t-117.5 -149q0 -103 83 -151.5t253 -48.5q128 0 260.5 24.5t229.5 71.5v-275q-193 -79 -514 -79q-289 0 -454 117t-165 319z" horiz-adv-x="1327" unicode="Ԑ"/><glyph d="M78 309q0 107 64 174t208 95v10q-213 49 -213 258q0 141 128.5 217t363.5 76q111 0 226 -22t206 -62l-82 -213q-169 71 -342 71q-227 0 -227 -104q0 -66 66.5 -93.5t209.5 -27.5h154v-211h-168q-146 0 -219.5 -34t-73.5 -107q0 -121 256 -121q111 0 223.5 23t200.5 63 v-244q-172 -77 -434 -77q-266 0 -406.5 82.5t-140.5 246.5z" horiz-adv-x="1139" unicode="ԑ"/><glyph d="M16 2v254q58 -20 109 -20q53 0 84 48.5t58.5 180t73 431t77.5 566.5h923v-1462h-309v1204h-358l-16 -134q-62 -511 -109.5 -717.5t-138.5 -290.5t-246 -82q-84 0 -148 22zM1097 -231q59 -19 119 -19q123 0 123 170v383h295v-428q0 -177 -91.5 -274t-260.5 -97 q-100 0 -185 25v240z" horiz-adv-x="1675" unicode="Ԓ"/><glyph d="M0 12v244q49 -20 98 -20q57 0 95.5 82t69 273.5t52.5 526.5h846v-1118h-305v889h-281q-32 -375 -78 -559.5t-122.5 -267t-200.5 -82.5q-106 0 -174 32zM917 -231q59 -19 119 -19q123 0 123 170v342h295v-387q0 -177 -91.5 -274t-260.5 -97q-100 0 -185 25v240z" horiz-adv-x="1483" unicode="ԓ"/><glyph d="M0 0l516 1468h379l518 -1468h-334l-106 348h-533l-106 -348h-334zM518 608h381q-147 473 -165.5 535t-26.5 98q-33 -128 -189 -633zM459 -362q0 108 67.5 172.5t180.5 64.5q110 0 182 -66t72 -169q0 -108 -71 -174t-183 -66t-180 64t-68 174zM611 -362q0 -45 24 -71 t72 -26q42 0 69 26t27 71t-27 70.5t-69 25.5t-69 -25.5t-27 -70.5z" horiz-adv-x="1413" unicode="Ḁ"/><glyph d="M86 334q0 178 124.5 262.5t375.5 93.5l194 6v49q0 170 -174 170q-134 0 -315 -81l-101 206q193 101 428 101q225 0 345 -98t120 -298v-745h-213l-59 152h-8q-77 -97 -158.5 -134.5t-212.5 -37.5q-161 0 -253.5 92t-92.5 262zM399 332q0 -129 148 -129q106 0 169.5 61 t63.5 162v92l-118 -4q-133 -4 -198 -48t-65 -134zM344 -362q0 108 67.5 172.5t180.5 64.5q110 0 182 -66t72 -169q0 -108 -71 -174t-183 -66t-180 64t-68 174zM496 -362q0 -45 24 -71t72 -26q42 0 69 26t27 71t-27 70.5t-69 25.5t-69 -25.5t-27 -70.5z" horiz-adv-x="1237" unicode="ḁ"/><glyph d="M184 0v1462h422l346 -1118h6l367 1118h422v-1462h-289v692q0 49 1.5 113t13.5 340h-9l-377 -1145h-284l-352 1147h-9q19 -350 19 -467v-680h-277zM783 1581v27q172 200 235 301h342v-21q-52 -52 -177.5 -154.5t-196.5 -152.5h-203z" horiz-adv-x="1931" unicode="Ḿ"/><glyph d="M160 0v1118h233l41 -143h17q45 77 130 120.5t195 43.5q251 0 340 -164h27q45 78 132.5 121t197.5 43q190 0 287.5 -97.5t97.5 -312.5v-729h-306v653q0 121 -40.5 181.5t-127.5 60.5q-112 0 -167.5 -80t-55.5 -254v-561h-305v653q0 121 -40.5 181.5t-127.5 60.5 q-117 0 -170 -86t-53 -283v-526h-305zM826 1241v27q172 200 235 301h342v-21q-52 -52 -177.5 -154.5t-196.5 -152.5h-203z" horiz-adv-x="2011" unicode="ḿ"/><glyph d="M0 1462h305l187 -798q49 -221 71 -383q6 57 27.5 176.5t40.5 185.5l213 819h293l213 -819q14 -55 35 -168t32 -194q10 78 32 194.5t40 188.5l186 798h305l-372 -1462h-353l-198 768q-11 41 -37.5 169.5t-30.5 172.5q-6 -54 -30 -173.5t-37 -170.5l-197 -766h-352z M584 1886v21h342q63 -101 235 -301v-27h-202q-63 44 -185 142.5t-190 164.5z" horiz-adv-x="1980" unicode="Ẁ"/><glyph d="M20 1118h304l129 -495q31 -133 63 -367h6q4 76 35 241l16 85l138 536h336l131 -536q4 -22 12.5 -65t16.5 -91.5t14.5 -95t7.5 -74.5h6q9 72 32 197.5t33 169.5l134 495h299l-322 -1118h-332l-86 391l-116 494h-7l-204 -885h-328zM467 1548v21h342q63 -101 235 -301v-27 h-202q-63 44 -185 142.5t-190 164.5z" horiz-adv-x="1753" unicode="ẁ"/><glyph d="M0 1462h305l187 -798q49 -221 71 -383q6 57 27.5 176.5t40.5 185.5l213 819h293l213 -819q14 -55 35 -168t32 -194q10 78 32 194.5t40 188.5l186 798h305l-372 -1462h-353l-198 768q-11 41 -37.5 169.5t-30.5 172.5q-6 -54 -30 -173.5t-37 -170.5l-197 -766h-352z M774 1579v27q172 200 235 301h342v-21q-52 -52 -177.5 -154.5t-196.5 -152.5h-203z" horiz-adv-x="1980" unicode="Ẃ"/><glyph d="M20 1118h304l129 -495q31 -133 63 -367h6q4 76 35 241l16 85l138 536h336l131 -536q4 -22 12.5 -65t16.5 -91.5t14.5 -95t7.5 -74.5h6q9 72 32 197.5t33 169.5l134 495h299l-322 -1118h-332l-86 391l-116 494h-7l-204 -885h-328zM688 1241v27q172 200 235 301h342v-21 q-52 -52 -177.5 -154.5t-196.5 -152.5h-203z" horiz-adv-x="1753" unicode="ẃ"/><glyph d="M0 1462h305l187 -798q49 -221 71 -383q6 57 27.5 176.5t40.5 185.5l213 819h293l213 -819q14 -55 35 -168t32 -194q10 78 32 194.5t40 188.5l186 798h305l-372 -1462h-353l-198 768q-11 41 -37.5 169.5t-30.5 172.5q-6 -54 -30 -173.5t-37 -170.5l-197 -766h-352z M646 1743q0 65 37.5 100t101.5 35q66 0 103.5 -37t37.5 -98q0 -60 -38 -96.5t-103 -36.5q-64 0 -101.5 35t-37.5 98zM1049 1743q0 70 40.5 102.5t100.5 32.5q65 0 103.5 -36t38.5 -99q0 -61 -39 -97t-103 -36q-60 0 -100.5 32.5t-40.5 100.5z" horiz-adv-x="1980" unicode="Ẅ"/><glyph d="M20 1118h304l129 -495q31 -133 63 -367h6q4 76 35 241l16 85l138 536h336l131 -536q4 -22 12.5 -65t16.5 -91.5t14.5 -95t7.5 -74.5h6q9 72 32 197.5t33 169.5l134 495h299l-322 -1118h-332l-86 391l-116 494h-7l-204 -885h-328zM533 1405q0 65 37.5 100t101.5 35 q66 0 103.5 -37t37.5 -98q0 -60 -38 -96.5t-103 -36.5q-64 0 -101.5 35t-37.5 98zM936 1405q0 70 40.5 102.5t100.5 32.5q65 0 103.5 -36t38.5 -99q0 -61 -39 -97t-103 -36q-60 0 -100.5 32.5t-40.5 100.5z" horiz-adv-x="1753" unicode="ẅ"/><glyph d="M0 0l516 1468h379l518 -1468h-334l-106 348h-533l-106 -348h-334zM518 608h381q-147 473 -165.5 535t-26.5 98q-33 -128 -189 -633zM541 -281q0 150 166 150t166 -150q0 -71 -42 -110t-124 -39q-166 0 -166 149z" horiz-adv-x="1413" unicode="Ạ"/><glyph d="M86 334q0 178 124.5 262.5t375.5 93.5l194 6v49q0 170 -174 170q-134 0 -315 -81l-101 206q193 101 428 101q225 0 345 -98t120 -298v-745h-213l-59 152h-8q-77 -97 -158.5 -134.5t-212.5 -37.5q-161 0 -253.5 92t-92.5 262zM399 332q0 -129 148 -129q106 0 169.5 61 t63.5 162v92l-118 -4q-133 -4 -198 -48t-65 -134zM416 -281q0 150 166 150t166 -150q0 -71 -42 -110t-124 -39q-166 0 -166 149z" horiz-adv-x="1237" unicode="ạ"/><glyph d="M0 0l516 1468h379l518 -1468h-334l-106 348h-533l-106 -348h-334zM518 608h381q-147 473 -165.5 535t-26.5 98q-33 -128 -189 -633zM508 1847v168q30 10 82.5 16.5t93.5 6.5q140 0 209.5 -55.5t69.5 -157.5q0 -156 -162 -197l-10 -71h-174l-23 147q75 12 102 37.5 t27 62.5q0 32 -21 49t-55 17q-65 0 -139 -23z" horiz-adv-x="1413" unicode="Ả"/><glyph d="M86 334q0 178 124.5 262.5t375.5 93.5l194 6v49q0 170 -174 170q-134 0 -315 -81l-101 206q193 101 428 101q225 0 345 -98t120 -298v-745h-213l-59 152h-8q-77 -97 -158.5 -134.5t-212.5 -37.5q-161 0 -253.5 92t-92.5 262zM399 332q0 -129 148 -129q106 0 169.5 61 t63.5 162v92l-118 -4q-133 -4 -198 -48t-65 -134zM420 1509v168q30 10 82.5 16.5t93.5 6.5q140 0 209.5 -55.5t69.5 -157.5q0 -156 -162 -197l-10 -71h-174l-23 147q75 12 102 37.5t27 62.5q0 32 -21 49t-55 17q-65 0 -139 -23z" horiz-adv-x="1237" unicode="ả"/><glyph d="M0 0l516 1468h379l518 -1468h-334l-106 348h-533l-106 -348h-334zM518 608h381q-147 473 -165.5 535t-26.5 98q-33 -128 -189 -633zM334 1579v27q112 130 215 280h315q53 -78 120.5 -163.5t95.5 -116.5v-27h-162q-112 75 -211 166q-114 -101 -211 -166h-162zM991 1774v26 q85 91 138 201h241v-21q-67 -89 -227 -206h-152z" horiz-adv-x="1413" unicode="Ấ"/><glyph d="M86 334q0 178 124.5 262.5t375.5 93.5l194 6v49q0 170 -174 170q-134 0 -315 -81l-101 206q193 101 428 101q225 0 345 -98t120 -298v-745h-213l-59 152h-8q-77 -97 -158.5 -134.5t-212.5 -37.5q-161 0 -253.5 92t-92.5 262zM399 332q0 -129 148 -129q106 0 169.5 61 t63.5 162v92l-118 -4q-133 -4 -198 -48t-65 -134zM242 1241v27q112 130 215 280h315q53 -78 120.5 -163.5t95.5 -116.5v-27h-162q-112 75 -211 166q-114 -101 -211 -166h-162zM899 1436v26q85 91 138 201h241v-21q-67 -89 -227 -206h-152z" horiz-adv-x="1237" unicode="ấ"/><glyph d="M0 0l516 1468h379l518 -1468h-334l-106 348h-533l-106 -348h-334zM518 608h381q-147 473 -165.5 535t-26.5 98q-33 -128 -189 -633zM43 1980v21h242q54 -112 137 -201v-26h-151q-164 119 -228 206zM334 1579v27q112 130 215 280h316q49 -72 112 -154t103 -126v-27h-162 q-97 65 -211 166q-106 -96 -211 -166h-162z" horiz-adv-x="1413" unicode="Ầ"/></font>
</defs>
</svg>
