<svg xmlns="http://www.w3.org/2000/svg"><metadata>This is a custom SVG webfont generated by Font Squirrel. Copyright : Digitized data copyright 20102011 Google Corporation Foundry : Ascender Corporation Foundry URL : httpwwwascendercorpcom</metadata><defs><font id="OpenSansLight" horiz-adv-x="1169"><font-face ascent="1638" descent="-410" units-per-em="2048"/><glyph d="M29 1001v58l202 37v84q0 200 73.5 293.5t240.5 93.5q90 0 180 -27l-23 -86q-80 25 -159 25q-116 0 -164.5 -68.5t-48.5 -222.5v-101h256v-86h-256v-1001h-99v1001h-202zM643 1001v58l202 37v84q0 200 73.5 293.5t240.5 93.5q90 0 180 -27l-23 -86q-80 25 -159 25 q-116 0 -164.5 -68.5t-48.5 -222.5v-101h256v-86h-256v-1001h-99v1001h-202z" horiz-adv-x="1229" unicode="ﬀ"/><glyph d="M29 1001v58l202 37v84q0 200 73.5 293.5t240.5 93.5q90 0 180 -27l-23 -86q-80 25 -159 25q-116 0 -164.5 -68.5t-48.5 -222.5v-101h256v-86h-256v-1001h-99v1001h-202zM782 1389q0 96 63 96q31 0 48.5 -25t17.5 -71q0 -45 -17.5 -71t-48.5 -26q-63 0 -63 97zM796 0v1087 h99v-1087h-99z" horiz-adv-x="1077" unicode="ﬁ"/><glyph d="M29 1001v58l202 37v84q0 200 73.5 293.5t240.5 93.5q90 0 180 -27l-23 -86q-80 25 -159 25q-116 0 -164.5 -68.5t-48.5 -222.5v-101h256v-86h-256v-1001h-99v1001h-202zM796 0v1556h99v-1556h-99z" horiz-adv-x="1077" unicode="ﬂ"/><glyph d="M29 1001v58l202 37v84q0 200 73.5 293.5t240.5 93.5q90 0 180 -27l-23 -86q-80 25 -159 25q-116 0 -164.5 -68.5t-48.5 -222.5v-101h256v-86h-256v-1001h-99v1001h-202zM643 1001v58l202 37v84q0 200 73.5 293.5t240.5 93.5q90 0 180 -27l-23 -86q-80 25 -159 25 q-116 0 -164.5 -68.5t-48.5 -222.5v-101h256v-86h-256v-1001h-99v1001h-202zM1397 1389q0 96 63 96q31 0 48.5 -25t17.5 -71q0 -45 -17.5 -71t-48.5 -26q-63 0 -63 97zM1411 0v1087h99v-1087h-99z" horiz-adv-x="1692" unicode="ﬃ"/><glyph d="M29 1001v58l202 37v84q0 200 73.5 293.5t240.5 93.5q90 0 180 -27l-23 -86q-80 25 -159 25q-116 0 -164.5 -68.5t-48.5 -222.5v-101h256v-86h-256v-1001h-99v1001h-202zM643 1001v58l202 37v84q0 200 73.5 293.5t240.5 93.5q90 0 180 -27l-23 -86q-80 25 -159 25 q-116 0 -164.5 -68.5t-48.5 -222.5v-101h256v-86h-256v-1001h-99v1001h-202zM1411 0v1556h99v-1556h-99z" horiz-adv-x="1692" unicode="ﬄ"/><glyph horiz-adv-x="532"/><glyph horiz-adv-x="532"/><glyph horiz-adv-x="532"/><glyph d="M164 78q0 98 80 98q82 0 82 -98t-82 -98q-80 0 -80 98zM186 1462h119l-29 -1085h-61z" horiz-adv-x="492" unicode="!"/><glyph d="M133 1462h127l-33 -528h-61zM463 1462h127l-33 -528h-61z" horiz-adv-x="723" unicode="&quot;"/><glyph d="M55 451v79h299l76 398h-297v80h311l86 454h91l-89 -454h365l88 454h86l-88 -454h285v-80h-301l-76 -398h303v-79h-320l-86 -451h-90l88 451h-360l-86 -451h-88l86 451h-283zM440 530h363l78 398h-363z" horiz-adv-x="1323" unicode="#"/><glyph d="M164 186v103q75 -36 179.5 -61t193.5 -25v508q-145 44 -215 88t-102 104t-32 146q0 124 94.5 208.5t254.5 104.5v192h81v-190q197 -9 351 -72l-33 -90q-141 62 -318 72v-486q213 -66 293 -144t80 -204q0 -133 -99 -217t-274 -106v-236h-81v232q-92 2 -200.5 22.5 t-172.5 50.5zM297 1049q0 -86 57 -141t183 -93v453q-119 -16 -179.5 -76t-60.5 -143zM618 209q122 13 192.5 75t70.5 160q0 85 -63 140.5t-200 95.5v-471z" unicode="$"/><glyph d="M113 1026q0 223 72 340t212 117q139 0 215 -120.5t76 -336.5q0 -226 -75 -343.5t-216 -117.5q-133 0 -208.5 120.5t-75.5 340.5zM211 1026q0 -186 45 -279.5t141 -93.5q193 0 193 373q0 184 -49.5 276.5t-143.5 92.5q-96 0 -141 -92.5t-45 -276.5zM373 0l811 1462h96 l-811 -1462h-96zM965 438q0 225 73.5 341t212.5 116q137 0 213 -120t76 -337q0 -226 -74 -343.5t-215 -117.5q-136 0 -211 121.5t-75 339.5zM1063 438q0 -185 45 -277.5t141 -92.5q193 0 193 370q0 369 -193 369q-96 0 -141 -91.5t-45 -277.5z" horiz-adv-x="1653" unicode="%"/><glyph d="M123 371q0 138 73.5 235t274.5 205l-75 82q-66 71 -98 139t-32 142q0 143 95.5 227t256.5 84q155 0 245.5 -81t90.5 -224q0 -105 -70 -192.5t-253 -194.5l452 -457q61 72 104 157t75 201h96q-63 -246 -209 -426l266 -268h-135l-193 197q-92 -90 -164 -131.5t-157.5 -63.5 t-194.5 -22q-209 0 -328.5 103t-119.5 288zM227 375q0 -143 93 -224t258 -81q128 0 234.5 43.5t209.5 146.5l-483 485q-136 -72 -196.5 -122.5t-88 -109.5t-27.5 -138zM373 1176q0 -79 40 -146t152 -174q159 85 221 159t62 169q0 94 -62 152.5t-168 58.5q-114 0 -179.5 -58 t-65.5 -161z" horiz-adv-x="1460" unicode="&amp;"/><glyph d="M133 1462h127l-33 -528h-61z" horiz-adv-x="393" unicode="'"/><glyph d="M82 561q0 265 77.5 496t223.5 405h113q-148 -182 -227 -412.5t-79 -486.5q0 -483 304 -887h-111q-147 170 -224 397t-77 488z" horiz-adv-x="557" unicode="("/><glyph d="M61 1462h113q147 -175 224 -406.5t77 -494.5t-77.5 -490t-223.5 -395h-111q304 404 304 887q0 257 -79 487.5t-227 411.5z" horiz-adv-x="557" unicode=")"/><glyph d="M104 1124l19 131l401 -104l-39 405h146l-37 -405l405 104l21 -131l-395 -39l247 -340l-124 -71l-191 379l-180 -379l-125 71l242 340z" horiz-adv-x="1128" unicode="*"/><glyph d="M111 682v82h432v434h82v-434h434v-82h-434v-432h-82v432h-432z" unicode="+"/><glyph d="M68 -264q77 275 110 502h117l12 -21q-75 -265 -174 -481h-65z" horiz-adv-x="440" unicode=","/><glyph d="M92 512v82h475v-82h-475z" horiz-adv-x="659" unicode="-"/><glyph d="M162 78q0 98 80 98q82 0 82 -98t-82 -98q-80 0 -80 98z" horiz-adv-x="487" unicode="."/><glyph d="M25 0l544 1462h105l-545 -1462h-104z" horiz-adv-x="698" unicode="/"/><glyph d="M115 735q0 382 115.5 566t351.5 184q231 0 352 -190.5t121 -559.5q0 -385 -117.5 -570t-355.5 -185q-229 0 -348 190.5t-119 564.5zM223 735q0 -340 89 -502.5t270 -162.5q189 0 275.5 168t86.5 497q0 324 -86.5 492t-275.5 168t-274 -168t-85 -492z" unicode="0"/><glyph d="M199 1165l397 297h86v-1462h-98v1065q0 145 12 301q-15 -15 -31 -29t-309 -243z" unicode="1"/><glyph d="M113 0v88l389 406q164 170 230 260t97 172t31 172q0 131 -86 213t-223 82q-183 0 -350 -133l-54 69q183 154 406 154q191 0 300.5 -102t109.5 -281q0 -145 -73.5 -280.5t-268.5 -334.5l-375 -385v-4h782v-96h-915z" unicode="2"/><glyph d="M94 63v99q84 -44 188.5 -69t196.5 -25q221 0 332 89.5t111 252.5q0 145 -113.5 223t-333.5 78h-158v96h160q182 0 288.5 86.5t106.5 234.5q0 122 -86.5 195.5t-226.5 73.5q-109 0 -199 -30.5t-202 -104.5l-49 67q85 71 205 112.5t243 41.5q202 0 312 -95.5t110 -269.5 q0 -136 -85.5 -229t-229.5 -119v-6q176 -22 268 -112t92 -242q0 -205 -139.5 -317.5t-401.5 -112.5q-223 0 -389 83z" unicode="3"/><glyph d="M43 373v67l725 1030h121v-1011h252v-86h-252v-373h-94v373h-752zM162 459h633v418q0 302 14 507h-8q-20 -37 -123 -188z" unicode="4"/><glyph d="M143 63v103q108 -55 192 -76.5t179 -21.5q192 0 308 101.5t116 274.5q0 163 -113 256t-307 93q-130 0 -272 -39l-60 39l58 669h704v-96h-610l-45 -516q156 29 244 29q234 0 368.5 -113t134.5 -311q0 -225 -140 -350t-386 -125q-109 0 -207 21.5t-164 61.5z" unicode="5"/><glyph d="M131 623q0 285 77.5 479.5t220 288.5t343.5 94q94 0 172 -23v-88q-73 27 -176 27q-247 0 -384.5 -178t-154.5 -518h13q76 98 174 148t207 50q205 0 320.5 -117t115.5 -323q0 -224 -121.5 -353.5t-327.5 -129.5q-222 0 -350.5 169.5t-128.5 473.5zM240 504 q0 -111 49.5 -213.5t134 -162.5t186.5 -60q164 0 255 103t91 294q0 168 -90 262t-245 94q-102 0 -189.5 -45t-139.5 -119.5t-52 -152.5z" unicode="6"/><glyph d="M109 1366v96h946v-73l-604 -1389h-117l602 1366h-827z" unicode="7"/><glyph d="M121 375q0 131 83 230t257 169q-161 76 -227 160.5t-66 202.5q0 105 53 184.5t148.5 122.5t212.5 43q186 0 299.5 -95t113.5 -257q0 -112 -70.5 -198t-228.5 -159q192 -79 270 -173t78 -228q0 -181 -126.5 -289t-339.5 -108q-221 0 -339 101t-118 294zM223 360 q0 -138 93.5 -214t261.5 -76q164 0 264 80.5t100 218.5q0 124 -78.5 201.5t-302.5 162.5q-184 -71 -261 -157t-77 -216zM268 1137q0 -70 31.5 -123.5t91 -97t199.5 -101.5q163 63 234 139t71 183q0 120 -84.5 190t-230.5 70q-141 0 -226.5 -69.5t-85.5 -190.5z" unicode="8"/><glyph d="M111 993q0 220 124.5 356t323.5 136q144 0 252 -75.5t166.5 -221.5t58.5 -346q0 -288 -75.5 -482t-220 -287t-349.5 -93q-104 0 -192 26v86q43 -14 103.5 -21.5t92.5 -7.5q247 0 387 178.5t156 520.5h-12q-73 -96 -174 -147.5t-211 -51.5q-203 0 -316.5 112t-113.5 318z M213 999q0 -174 87 -264t249 -90q101 0 188.5 45t139 119.5t51.5 151.5q0 117 -46.5 219t-130 159.5t-192.5 57.5q-158 0 -252 -106.5t-94 -291.5z" unicode="9"/><glyph d="M162 78q0 98 80 98q82 0 82 -98t-82 -98q-80 0 -80 98zM162 971q0 98 80 98q82 0 82 -98q0 -53 -23.5 -76t-58.5 -23q-34 0 -57 23t-23 76z" horiz-adv-x="487" unicode=":"/><glyph d="M76 -264q29 97 62 245.5t48 256.5h117l12 -21q-75 -265 -174 -481h-65zM162 971q0 98 80 98q82 0 82 -98q0 -53 -23.5 -76t-58.5 -23q-34 0 -57 23t-23 76z" horiz-adv-x="487" unicode=";"/><glyph d="M111 682v61l948 474v-95l-823 -405l823 -355v-96z" unicode="&lt;"/><glyph d="M111 477v82h948v-82h-948zM111 885v82h948v-82h-948z" unicode="="/><glyph d="M111 266v96l823 355l-823 405v95l948 -474v-61z" unicode="&gt;"/><glyph d="M57 1403q110 48 184.5 64t153.5 16q183 0 288 -98.5t105 -270.5q0 -68 -18 -119t-50.5 -94.5t-78.5 -84t-102 -87.5q-64 -54 -98.5 -98.5t-50 -93.5t-15.5 -146v-14h-82v37q0 123 37.5 201t138.5 167l91 79q72 61 103 121t31 138q0 127 -83.5 202t-219.5 75 q-79 0 -148 -17.5t-149 -56.5zM260 78q0 98 80 98q82 0 82 -98t-82 -98q-80 0 -80 98z" horiz-adv-x="862" unicode="?"/><glyph d="M113 561q0 256 108.5 460.5t307 317.5t448.5 113q215 0 380.5 -89t255 -254.5t89.5 -383.5q0 -228 -90.5 -366t-245.5 -138q-89 0 -144.5 54t-64.5 147h-4q-43 -100 -124 -150.5t-189 -50.5q-148 0 -229 96.5t-81 270.5q0 202 120.5 330.5t314.5 128.5q138 0 286 -41 l-22 -464v-30q0 -104 35 -156.5t116 -52.5q103 0 168.5 116.5t65.5 303.5q0 194 -79 340t-225.5 224.5t-334.5 78.5q-230 0 -405.5 -99.5t-270 -281.5t-94.5 -418q0 -322 167 -497.5t474 -175.5q93 0 188.5 18t231.5 70v-99q-203 -80 -414 -80q-349 0 -544 200.5t-195 557.5 zM633 590q0 -143 55 -215t174 -72q255 0 273 346l16 291q-79 27 -193 27q-149 0 -237 -102.5t-88 -274.5z" horiz-adv-x="1815" unicode="@"/><glyph d="M0 0l588 1468h65l576 -1468h-115l-203 516h-594l-204 -516h-113zM354 608h523l-199 527q-25 62 -60 172q-27 -96 -59 -174z" horiz-adv-x="1229" unicode="A"/><glyph d="M207 0v1462h401q271 0 398 -92t127 -278q0 -127 -77.5 -211.5t-226.5 -108.5v-6q175 -26 257.5 -110.5t82.5 -235.5q0 -202 -134 -311t-380 -109h-448zM309 90h344q406 0 406 330q0 301 -428 301h-322v-631zM309 811h322q206 0 299.5 68.5t93.5 214.5t-105.5 212 t-314.5 66h-295v-561z" horiz-adv-x="1284" unicode="B"/><glyph d="M129 735q0 223 84.5 393t243 262.5t368.5 92.5q214 0 383 -80l-41 -92q-160 80 -336 80q-275 0 -433 -176t-158 -482q0 -313 149 -486t426 -173q184 0 338 47v-90q-145 -51 -362 -51q-308 0 -485 199t-177 556z" horiz-adv-x="1272" unicode="C"/><glyph d="M207 0v1462h395q350 0 532.5 -183t182.5 -534q0 -368 -193 -556.5t-567 -188.5h-350zM309 90h242q655 0 655 651q0 314 -159.5 472.5t-468.5 158.5h-269v-1282z" horiz-adv-x="1446" unicode="D"/><glyph d="M207 0v1462h799v-94h-697v-553h658v-94h-658v-627h697v-94h-799z" horiz-adv-x="1130" unicode="E"/><glyph d="M207 0v1462h801v-94h-699v-620h660v-95h-660v-653h-102z" horiz-adv-x="1028" unicode="F"/><glyph d="M129 729q0 223 91.5 395.5t262 266.5t391.5 94q239 0 429 -88l-41 -92q-190 88 -394 88q-289 0 -458.5 -178.5t-169.5 -481.5q0 -330 161 -496.5t473 -166.5q202 0 343 57v514h-435v96h539v-667q-212 -90 -477 -90q-346 0 -530.5 195.5t-184.5 553.5z" horiz-adv-x="1481" unicode="G"/><glyph d="M207 0v1462h102v-649h854v649h103v-1462h-103v719h-854v-719h-102z" horiz-adv-x="1473" unicode="H"/><glyph d="M207 0v1462h102v-1462h-102z" horiz-adv-x="516" unicode="I"/><glyph d="M-184 -254q78 -20 149 -20q242 0 242 264v1472h102v-1462q0 -369 -342 -369q-92 0 -151 27v88z" horiz-adv-x="506" unicode="J"/><glyph d="M207 0v1462h102v-760l162 162l573 598h130l-599 -618l615 -844h-125l-561 772l-195 -172v-600h-102z" horiz-adv-x="1190" unicode="K"/><glyph d="M207 0v1462h102v-1366h697v-96h-799z" horiz-adv-x="1051" unicode="L"/><glyph d="M207 0v1462h158l518 -1286h6l518 1286h154v-1462h-103v1108q0 116 12 240h-8l-547 -1348h-65l-545 1350h-8q8 -124 8 -254v-1096h-98z" horiz-adv-x="1767" unicode="M"/><glyph d="M207 0v1462h102l865 -1296h6q-9 180 -9 342v954h99v-1462h-103l-866 1298h-8q12 -232 12 -350v-948h-98z" horiz-adv-x="1477" unicode="N"/><glyph d="M129 735q0 349 175.5 549.5t479.5 200.5q306 0 479 -201.5t173 -550.5q0 -348 -174 -550.5t-480 -202.5q-305 0 -479 202.5t-174 552.5zM240 733q0 -314 140 -485.5t402 -171.5q264 0 403.5 170t139.5 487q0 316 -139.5 484.5t-401.5 168.5q-261 0 -402.5 -170 t-141.5 -483z" horiz-adv-x="1565" unicode="O"/><glyph d="M207 0v1462h358q522 0 522 -420q0 -212 -144 -325t-408 -113h-226v-604h-102zM309 692h201q247 0 357 81.5t110 264.5q0 169 -104 250.5t-322 81.5h-242v-678z" horiz-adv-x="1198" unicode="P"/><glyph d="M129 735q0 349 175.5 549.5t479.5 200.5q306 0 479 -201.5t173 -550.5q0 -294 -126 -486.5t-349 -246.5l333 -348h-166l-282 330l-33 -2h-31q-305 0 -479 202.5t-174 552.5zM240 733q0 -314 140 -485.5t402 -171.5q264 0 403.5 170t139.5 487q0 316 -139.5 484.5 t-401.5 168.5q-261 0 -402.5 -170t-141.5 -483z" horiz-adv-x="1565" unicode="Q"/><glyph d="M207 0v1462h348q272 0 402 -100.5t130 -302.5q0 -147 -77.5 -248t-235.5 -145l397 -666h-122l-377 637h-363v-637h-102zM309 725h279q185 0 287 82.5t102 243.5q0 167 -100 243t-326 76h-242v-645z" horiz-adv-x="1217" unicode="R"/><glyph d="M111 39v102q158 -67 403 -67q180 0 285.5 82.5t105.5 216.5q0 83 -35 137.5t-114 99.5t-232 97q-224 77 -309.5 166.5t-85.5 238.5q0 164 128.5 267.5t330.5 103.5q206 0 387 -78l-37 -88q-182 76 -348 76q-162 0 -258 -75t-96 -204q0 -81 29.5 -133t96.5 -93.5 t230 -99.5q171 -59 257 -114.5t125.5 -126t39.5 -170.5q0 -183 -134.5 -290t-357.5 -107q-268 0 -411 59z" horiz-adv-x="1116" unicode="S"/><glyph d="M10 1366v96h1053v-96h-475v-1366h-103v1366h-475z" horiz-adv-x="1073" unicode="T"/><glyph d="M190 520v942h103v-946q0 -211 117 -328.5t331 -117.5q209 0 324 115.5t115 320.5v956h102v-946q0 -252 -146 -394t-407 -142q-254 0 -396.5 142.5t-142.5 397.5z" horiz-adv-x="1473" unicode="U"/><glyph d="M0 1462h109l368 -995q84 -225 113 -338q20 75 79 233l402 1100h111l-547 -1462h-90z" horiz-adv-x="1182" unicode="V"/><glyph d="M51 1462h107l256 -942q15 -57 28 -105.5t23.5 -91t19 -82t15.5 -79.5q24 136 102 413l250 887h113l293 -1018q51 -176 73 -284q13 72 33.5 153t308.5 1149h103l-404 -1462h-84l-321 1128q-40 139 -60 228q-16 -87 -45.5 -200t-322.5 -1156h-86z" horiz-adv-x="1827" unicode="W"/><glyph d="M0 0l492 762l-447 700h115l395 -626l401 626h109l-453 -698l490 -764h-117l-432 682l-440 -682h-113z" horiz-adv-x="1102" unicode="X"/><glyph d="M0 1462h117l426 -800l428 800h110l-487 -897v-565h-105v557z" horiz-adv-x="1081" unicode="Y"/><glyph d="M82 0v76l856 1290h-817v96h954v-76l-858 -1290h881v-96h-1016z" horiz-adv-x="1180" unicode="Z"/><glyph d="M174 -324v1786h428v-94h-330v-1597h330v-95h-428z" horiz-adv-x="653" unicode="["/><glyph d="M25 1462h102l547 -1462h-103z" horiz-adv-x="698" unicode="\"/><glyph d="M51 -229h330v1597h-330v94h428v-1786h-428v95z" horiz-adv-x="653" unicode="]"/><glyph d="M88 561l465 912h68l460 -912h-100l-395 791l-398 -791h-100z" unicode="^"/><glyph d="M-4 -184h850v-82h-850v82z" horiz-adv-x="842" unicode="_"/><glyph d="M393 1552v17h142q26 -48 98.5 -142t142.5 -170v-16h-69q-96 79 -188.5 171.5t-125.5 139.5z" horiz-adv-x="1182" unicode="`"/><glyph d="M98 289q0 159 132.5 247t383.5 93l207 6v72q0 155 -63 234t-203 79q-151 0 -313 -84l-37 86q179 84 354 84q179 0 267.5 -93t88.5 -290v-723h-73l-25 172h-8q-82 -105 -168.5 -148.5t-204.5 -43.5q-160 0 -249 82t-89 227zM203 285q0 -102 62.5 -158.5t176.5 -56.5 q174 0 274.5 99.5t100.5 276.5v107l-190 -8q-229 -11 -326.5 -71.5t-97.5 -188.5z" horiz-adv-x="1085" unicode="a"/><glyph d="M182 0v1556h99v-391q0 -88 -4 -162l-3 -85h7q62 98 149.5 144t210.5 46q228 0 343.5 -143.5t115.5 -419.5q0 -271 -121.5 -418t-341.5 -147q-116 0 -209 48t-147 136h-9l-28 -164h-62zM281 528q0 -246 86.5 -353t269.5 -107q178 0 268 124.5t90 354.5q0 471 -356 471 q-192 0 -275 -110t-83 -363v-17z" horiz-adv-x="1219" unicode="b"/><glyph d="M119 537q0 270 137 420.5t375 150.5q141 0 270 -49l-27 -88q-141 47 -245 47q-200 0 -303 -123.5t-103 -355.5q0 -220 103 -344.5t288 -124.5q148 0 275 53v-92q-104 -51 -273 -51q-233 0 -365 147t-132 410z" horiz-adv-x="973" unicode="c"/><glyph d="M119 528q0 282 118 431t343 149q118 0 204 -43t154 -147h6q-6 126 -6 247v391h98v-1556h-65l-25 166h-8q-124 -186 -356 -186q-225 0 -344 140t-119 408zM223 530q0 -462 359 -462q184 0 270 107t86 353v17q0 252 -84.5 362.5t-273.5 110.5q-178 0 -267.5 -125 t-89.5 -363z" horiz-adv-x="1219" unicode="d"/><glyph d="M119 535q0 260 128 416.5t345 156.5q192 0 303 -134t111 -364v-80h-783q2 -224 104.5 -342t293.5 -118q93 0 163.5 13t178.5 56v-90q-92 -40 -170 -54.5t-172 -14.5q-237 0 -369.5 146t-132.5 409zM229 618h672q0 189 -82 295.5t-227 106.5q-157 0 -252 -103.5 t-111 -298.5z" horiz-adv-x="1124" unicode="e"/><glyph d="M29 1001v58l202 37v84q0 200 73.5 293.5t240.5 93.5q90 0 180 -27l-23 -86q-80 25 -159 25q-116 0 -164.5 -68.5t-48.5 -222.5v-101h256v-86h-256v-1001h-99v1001h-202z" horiz-adv-x="614" unicode="f"/><glyph d="M45 -193q0 112 69.5 186t188.5 101q-49 21 -78.5 59.5t-29.5 88.5q0 109 139 192q-95 39 -148 122.5t-53 191.5q0 163 103.5 261.5t279.5 98.5q107 0 166 -21h348v-69l-225 -14q90 -112 90 -246q0 -157 -104.5 -254.5t-280.5 -97.5q-74 0 -104 6q-59 -31 -90 -73t-31 -89 q0 -52 39.5 -76t132.5 -24h190q177 0 271 -71.5t94 -211.5q0 -172 -139.5 -265.5t-397.5 -93.5q-205 0 -317.5 79t-112.5 220zM150 -184q0 -224 333 -224q428 0 428 273q0 98 -67 142t-217 44h-178q-299 0 -299 -235zM233 748q0 -126 76.5 -195.5t204.5 -69.5 q136 0 208.5 69t72.5 200q0 139 -74.5 208.5t-208.5 69.5q-130 0 -204.5 -74.5t-74.5 -207.5z" horiz-adv-x="1071" unicode="g"/><glyph d="M182 0v1556h99v-495l-5 -139h7q61 98 154 142t231 44q370 0 370 -397v-711h-98v705q0 164 -69 238.5t-214 74.5q-195 0 -285.5 -98.5t-90.5 -319.5v-600h-99z" horiz-adv-x="1208" unicode="h"/><glyph d="M168 1389q0 96 63 96q31 0 48.5 -25t17.5 -71q0 -45 -17.5 -71t-48.5 -26q-63 0 -63 97zM182 0v1087h99v-1087h-99z" horiz-adv-x="463" unicode="i"/><glyph d="M-98 -381q69 -20 129 -20q151 0 151 176v1312h99v-1298q0 -135 -63.5 -208t-180.5 -73q-80 0 -135 25v86zM168 1389q0 96 63 96q31 0 48.5 -25t17.5 -71q0 -45 -17.5 -71t-48.5 -26q-63 0 -63 97z" horiz-adv-x="463" unicode="j"/><glyph d="M182 0v1556h99v-780l-7 -299h5l555 610h120l-428 -464l465 -623h-119l-413 549l-178 -162v-387h-99z" horiz-adv-x="991" unicode="k"/><glyph d="M182 0v1556h99v-1556h-99z" horiz-adv-x="463" unicode="l"/><glyph d="M182 0v1087h82l21 -149h6q45 81 128 125.5t183 44.5q257 0 330 -193h4q53 93 142.5 143t203.5 50q178 0 267 -95t89 -302v-711h-98v713q0 159 -62 232t-190 73q-167 0 -247 -92t-80 -289v-637h-101v743q0 275 -252 275q-171 0 -249 -99.5t-78 -318.5v-600h-99z" horiz-adv-x="1808" unicode="m"/><glyph d="M182 0v1087h84l19 -149h6q106 170 377 170q370 0 370 -397v-711h-98v705q0 164 -69 238.5t-214 74.5q-195 0 -285.5 -98.5t-90.5 -319.5v-600h-99z" horiz-adv-x="1208" unicode="n"/><glyph d="M119 545q0 266 129 414.5t354 148.5q224 0 351.5 -150.5t127.5 -412.5q0 -266 -129 -415.5t-356 -149.5q-143 0 -252 69t-167 198t-58 298zM223 545q0 -224 98.5 -349.5t278.5 -125.5t278.5 125.5t98.5 349.5q0 225 -99.5 349t-279.5 124t-277.5 -123.5t-97.5 -349.5z" horiz-adv-x="1200" unicode="o"/><glyph d="M182 -492v1579h84l19 -155h6q112 176 358 176q220 0 335.5 -144.5t115.5 -420.5q0 -268 -121.5 -415.5t-331.5 -147.5q-251 0 -366 188h-7l3 -84q4 -74 4 -162v-414h-99zM281 541q0 -255 85.5 -364t278.5 -109q167 0 258.5 124t91.5 347q0 479 -346 479 q-190 0 -279 -104.5t-89 -340.5v-32z" horiz-adv-x="1219" unicode="p"/><glyph d="M119 532q0 275 118 425.5t338 150.5q236 0 353 -174h6l18 153h84v-1579h-98v414q0 122 6 248h-6q-118 -190 -369 -190q-214 0 -332 142t-118 410zM223 530q0 -229 89.5 -345.5t258.5 -116.5q198 0 282.5 109t84.5 366v12q0 245 -85 354t-271 109q-176 0 -267.5 -124 t-91.5 -364z" horiz-adv-x="1219" unicode="q"/><glyph d="M182 0v1087h84l10 -196h7q67 120 143 168.5t184 48.5q69 0 148 -14l-19 -95q-68 17 -141 17q-139 0 -228 -118t-89 -298v-600h-99z" horiz-adv-x="797" unicode="r"/><glyph d="M84 47v107q164 -82 346 -82q161 0 244.5 53.5t83.5 142.5q0 82 -66.5 138t-218.5 110q-163 59 -229 101.5t-99.5 96t-33.5 130.5q0 122 102.5 193t286.5 71q176 0 334 -66l-37 -90q-160 66 -297 66q-133 0 -211 -44t-78 -122q0 -85 60.5 -136t236.5 -114 q147 -53 214 -95.5t100.5 -96.5t33.5 -127q0 -146 -111 -224.5t-315 -78.5q-218 0 -346 67z" horiz-adv-x="954" unicode="s"/><glyph d="M25 1001v58l161 45l50 246h51v-263h319v-86h-319v-688q0 -125 44 -185t138 -60t164 16v-80q-72 -24 -166 -24q-144 0 -212.5 77t-68.5 242v702h-161z" horiz-adv-x="686" unicode="t"/><glyph d="M170 377v710h98v-704q0 -164 69 -238.5t214 -74.5q194 0 285.5 98t91.5 319v600h98v-1087h-84l-18 150h-6q-106 -170 -377 -170q-371 0 -371 397z" horiz-adv-x="1208" unicode="u"/><glyph d="M0 1087h102l281 -739q56 -142 84 -248h6q41 136 84 250l281 737h102l-420 -1087h-100z" horiz-adv-x="940" unicode="v"/><glyph d="M31 1087h106l174 -630q61 -234 80 -344h6q59 234 86 311l224 663h90l213 -661q72 -235 88 -311h6q8 65 80 348l166 624h100l-295 -1087h-104l-238 727q-23 74 -59 217h-6l-21 -74l-45 -145l-242 -725h-98z" horiz-adv-x="1481" unicode="w"/><glyph d="M55 0l394 559l-379 528h114l324 -458l321 458h109l-373 -528l400 -559h-115l-342 485l-344 -485h-109z" horiz-adv-x="1020" unicode="x"/><glyph d="M0 1087h102l230 -610q105 -281 133 -379h6q42 129 137 385l230 604h102l-487 -1263q-59 -154 -99 -208t-93.5 -81t-129.5 -27q-57 0 -127 21v86q58 -16 125 -16q51 0 90 24t70.5 74.5t73 160t53.5 142.5z" horiz-adv-x="940" unicode="y"/><glyph d="M82 0v63l645 936h-598v88h727v-63l-649 -936h651v-88h-776z" horiz-adv-x="944" unicode="z"/><glyph d="M61 528v80q122 2 176 51t54 148v350q0 299 360 305v-90q-138 -5 -200 -58t-62 -157v-305q0 -130 -44 -194t-142 -85v-8q97 -20 141.5 -83.5t44.5 -186.5v-322q0 -102 59.5 -152.5t202.5 -53.5v-91q-195 0 -277.5 75t-82.5 231v337q0 205 -230 209z" horiz-adv-x="723" unicode="{"/><glyph d="M508 -506v2067h92v-2067h-92z" horiz-adv-x="1108" unicode="|"/><glyph d="M72 -233q141 2 201.5 52.5t60.5 153.5v322q0 123 44.5 186.5t141.5 83.5v8q-97 20 -141.5 84t-44.5 195v305q0 103 -61.5 156.5t-200.5 58.5v90q174 0 267 -77.5t93 -227.5v-350q0 -100 54.5 -148.5t175.5 -50.5v-80q-230 -4 -230 -209v-337q0 -155 -82.5 -230.5 t-277.5 -75.5v91z" horiz-adv-x="723" unicode="}"/><glyph d="M111 625v94q108 110 233 110q61 0 115 -13.5t155 -57.5q126 -58 220 -58q56 0 109.5 30.5t115.5 94.5v-96q-48 -49 -104.5 -81t-129.5 -32q-116 0 -270 72q-124 57 -221 57q-49 0 -108 -30.5t-115 -89.5z" unicode="~"/><glyph d="M166 1010q0 98 80 98q82 0 82 -98q0 -53 -23.5 -76t-58.5 -23q-34 0 -57 23t-23 76zM186 -375l29 1086h61l29 -1086h-119z" horiz-adv-x="492" unicode="¡"/><glyph d="M211 745q0 232 102.5 381.5t288.5 182.5v174h82v-166h14q131 0 275 -55l-31 -84q-134 51 -237 51q-187 0 -288.5 -122.5t-101.5 -358.5q0 -225 100.5 -349.5t280.5 -124.5q131 0 267 58v-92q-110 -56 -267 -56h-12v-204h-82v210q-186 30 -288.5 175t-102.5 380z" unicode="¢"/><glyph d="M78 0v84q110 21 171.5 110t61.5 224v258h-211v82h211v297q0 204 98 315t281 111q175 0 330 -68l-35 -86q-157 66 -295 66q-141 0 -209.5 -81t-68.5 -253v-301h411v-82h-411v-256q0 -116 -35 -196t-113 -128h809v-96h-995z" unicode="£"/><glyph d="M127 326l139 141q-90 106 -90 256q0 147 90 258l-139 141l59 60l138 -142q103 93 260 93q155 0 260 -93l137 142l59 -60l-139 -141q90 -111 90 -258q0 -151 -90 -256l139 -141l-59 -60l-137 142q-110 -93 -260 -93q-153 0 -260 93l-138 -142zM260 723q0 -136 94.5 -232 t229.5 -96q134 0 228.5 95.5t94.5 232.5q0 136 -95 233t-228 97q-134 0 -229 -97t-95 -233z" unicode="¤"/><glyph d="M43 1462h117l426 -796l428 796h110l-432 -788h283v-82h-338v-205h338v-82h-338v-305h-105v305h-337v82h337v205h-337v82h278z" unicode="¥"/><glyph d="M508 258h92v-764h-92v764zM508 797v764h92v-764h-92z" horiz-adv-x="1108" unicode="¦"/><glyph d="M129 63v95q182 -78 332 -78q162 0 247 49.5t85 140.5q0 55 -25 87.5t-88.5 65.5t-190.5 79q-200 73 -272 141.5t-72 169.5q0 83 50.5 152.5t138.5 107.5q-86 47 -125 102t-39 136q0 117 101.5 183.5t275.5 66.5q175 0 336 -64l-35 -80q-91 34 -158.5 47t-144.5 13 q-134 0 -205.5 -44.5t-71.5 -119.5q0 -54 25.5 -88.5t85.5 -65.5t188 -74q192 -64 264 -132.5t72 -170.5q0 -173 -186 -274q86 -42 129 -96t43 -136q0 -135 -113 -207.5t-311 -72.5q-92 0 -171 15t-165 52zM246 825q0 -65 31.5 -104t105.5 -75t250 -99q82 41 126 98t44 121 q0 62 -32 102t-108.5 77t-236.5 87q-81 -23 -130.5 -79t-49.5 -128z" horiz-adv-x="1057" unicode="§"/><glyph d="M336 1389q0 46 15.5 66t47.5 20q64 0 64 -86t-64 -86q-63 0 -63 86zM717 1389q0 46 15.5 66t47.5 20q64 0 64 -86t-64 -86q-63 0 -63 86z" horiz-adv-x="1182" unicode="¨"/><glyph d="M100 731q0 200 100 375t275 276t377 101q200 0 375 -100t276 -275t101 -377q0 -197 -97 -370t-272 -277t-383 -104q-207 0 -382 103.5t-272.5 276.5t-97.5 371zM193 731q0 -178 88.5 -329.5t240.5 -240.5t330 -89t329.5 88.5t240.5 240.5t89 330q0 174 -85.5 325 t-239 243t-334.5 92q-176 0 -328.5 -88.5t-241.5 -242.5t-89 -329zM489 725q0 208 111 332.5t297 124.5q119 0 227 -52l-37 -83q-98 45 -190 45q-142 0 -222.5 -94.5t-80.5 -264.5q0 -186 74.5 -275t220.5 -89q84 0 198 43v-88q-102 -45 -208 -45q-187 0 -288.5 115 t-101.5 331z" horiz-adv-x="1704" unicode="©"/><glyph d="M78 989q0 100 80 151.5t241 59.5l95 4v43q0 77 -38 114.5t-106 37.5q-87 0 -196 -49l-33 73q117 56 231 56q228 0 228 -215v-451h-68l-25 72q-84 -84 -202 -84q-95 0 -151 49t-56 139zM168 993q0 -54 35 -85t96 -31q90 0 142.5 50t52.5 142v64l-88 -5q-116 -6 -177 -36.5 t-61 -98.5z" horiz-adv-x="686" unicode="ª"/><glyph d="M82 516v27l309 393l62 -43l-254 -363l254 -362l-62 -43zM442 516v27l310 393l61 -43l-254 -363l254 -362l-61 -43z" horiz-adv-x="885" unicode="«"/><glyph d="M111 682v82h927v-494h-82v412h-845z" unicode="¬"/><glyph d="M92 512v82h475v-82h-475z" horiz-adv-x="659" unicode="­"/><glyph d="M100 731q0 200 100 375t275 276t377 101q200 0 375 -100t276 -275t101 -377q0 -197 -97 -370t-272 -277t-383 -104q-207 0 -382 103.5t-272.5 276.5t-97.5 371zM193 731q0 -178 88.5 -329.5t240.5 -240.5t330 -89t329.5 88.5t240.5 240.5t89 330q0 174 -85.5 325 t-239 243t-334.5 92q-176 0 -328.5 -88.5t-241.5 -242.5t-89 -329zM608 291v880h211q143 0 222 -62t79 -191q0 -79 -38.5 -139.5t-110.5 -94.5l237 -393h-121l-210 360h-168v-360h-101zM709 731h112q91 0 143 46.5t52 135.5q0 172 -197 172h-110v-354z" horiz-adv-x="1704" unicode="®"/><glyph d="M-6 1556v82h1036v-82h-1036z" horiz-adv-x="1024" unicode="¯"/><glyph d="M139 1184q0 132 86.5 215.5t212.5 83.5t212.5 -83.5t86.5 -215.5t-86.5 -215.5t-212.5 -83.5q-130 0 -214.5 83t-84.5 216zM229 1184q0 -91 61 -154t148 -63q86 0 147.5 62t61.5 155q0 92 -60 154.5t-149 62.5q-90 0 -149.5 -64t-59.5 -153z" horiz-adv-x="877" unicode="°"/><glyph d="M111 1v82h948v-82h-948zM111 682v82h432v434h82v-434h434v-82h-434v-432h-82v432h-432z" unicode="±"/><glyph d="M53 586v78l242 237q125 121 172 193t47 149q0 71 -46.5 112.5t-123.5 41.5q-108 0 -217 -82l-49 65q119 103 270 103q124 0 194 -63.5t70 -174.5q0 -47 -13 -89t-40 -85.5t-68.5 -90t-308.5 -306.5h447v-88h-576z" horiz-adv-x="688" unicode="²"/><glyph d="M41 629v88q136 -62 266 -62q115 0 174.5 49t59.5 136q0 83 -59.5 122t-178.5 39h-131v84h135q105 0 158 43.5t53 120.5q0 67 -47 107.5t-127 40.5q-128 0 -246 -78l-47 70q130 94 293 94q127 0 199.5 -60t72.5 -163q0 -78 -44 -131.5t-117 -75.5q186 -45 186 -211 q0 -130 -88.5 -201.5t-247.5 -71.5q-144 0 -264 60z" horiz-adv-x="688" unicode="³"/><glyph d="M393 1241v16q73 79 144.5 171.5t97.5 140.5h141v-17q-36 -52 -122.5 -138t-190.5 -173h-70z" horiz-adv-x="1182" unicode="´"/><glyph d="M182 -492v1579h99v-704q0 -164 69 -238.5t213 -74.5q194 0 285.5 98t91.5 319v600h98v-1087h-84l-18 150h-6q-50 -77 -150 -123.5t-217 -46.5q-99 0 -167.5 27.5t-119.5 84.5q5 -92 5 -170v-414h-99z" horiz-adv-x="1221" unicode="µ"/><glyph d="M113 1042q0 260 109 387t341 127h543v-1816h-100v1722h-228v-1722h-100v819q-64 -18 -146 -18q-216 0 -317.5 125t-101.5 376z" horiz-adv-x="1341" unicode="¶"/><glyph d="M162 721q0 98 80 98q82 0 82 -98t-82 -98q-80 0 -80 98z" horiz-adv-x="487" unicode="·"/><glyph d="M43 -393q30 -10 92 -10q78 0 119 28t41 80q0 94 -193 121l93 174h96l-66 -117q168 -37 168 -174q0 -100 -67.5 -150.5t-188.5 -50.5q-68 0 -94 11v88z" horiz-adv-x="420" unicode="¸"/><glyph d="M76 1298l274 164h92v-876h-98v547q0 99 12 233q-26 -23 -233 -145z" horiz-adv-x="688" unicode="¹"/><glyph d="M70 1141q0 162 78 250t223 88q142 0 220.5 -87t78.5 -251q0 -161 -80 -250.5t-223 -89.5t-220 86t-77 254zM160 1141q0 -264 209 -264t209 264q0 131 -50 194.5t-159 63.5t-159 -63.5t-50 -194.5z" horiz-adv-x="739" unicode="º"/><glyph d="M72 168l254 362l-254 363l61 43l309 -391v-27l-309 -393zM432 168l254 362l-254 363l62 43l309 -391v-27l-309 -393z" horiz-adv-x="885" unicode="»"/><glyph d="M59 1298l274 164h92v-876h-98v547q0 99 12 233q-26 -23 -233 -145zM243 0l811 1462h94l-811 -1462h-94zM760 242v60l407 581h96v-563h129v-78h-129v-241h-90v241h-413zM864 320h309v221q0 132 8 232q-6 -12 -21.5 -35.5t-295.5 -417.5z" horiz-adv-x="1516" unicode="¼"/><glyph d="M11 1298l274 164h92v-876h-98v547q0 99 12 233q-26 -23 -233 -145zM168 0l811 1462h94l-811 -1462h-94zM827 1v78l242 237q125 121 172 193t47 149q0 71 -46.5 112.5t-123.5 41.5q-108 0 -217 -82l-49 65q119 103 270 103q124 0 194 -63.5t70 -174.5q0 -47 -13 -89 t-40 -85.5t-68.5 -90t-308.5 -306.5h447v-88h-576z" horiz-adv-x="1516" unicode="½"/><glyph d="M41 629v88q136 -62 266 -62q115 0 174.5 49t59.5 136q0 83 -59.5 122t-178.5 39h-131v84h135q105 0 158 43.5t53 120.5q0 67 -47 107.5t-127 40.5q-128 0 -246 -78l-47 70q130 94 293 94q127 0 199.5 -60t72.5 -163q0 -78 -44 -131.5t-117 -75.5q186 -45 186 -211 q0 -130 -88.5 -201.5t-247.5 -71.5q-144 0 -264 60zM395 0l811 1462h94l-811 -1462h-94zM863 242v60l407 581h96v-563h129v-78h-129v-241h-90v241h-413zM967 320h309v221q0 132 8 232q-6 -12 -21.5 -35.5t-295.5 -417.5z" horiz-adv-x="1516" unicode="¾"/><glyph d="M74 -27q0 70 20 124t58.5 102t171.5 159q64 53 98.5 98.5t49.5 94t15 145.5v15h82v-37q0 -125 -39.5 -204.5t-136.5 -164.5l-90 -79q-73 -61 -104 -120.5t-31 -138.5q0 -124 82 -200t221 -76q125 0 233 46l64 27l37 -79q-111 -48 -185.5 -64t-152.5 -16q-184 0 -288.5 99 t-104.5 269zM440 1010q0 98 80 98q82 0 82 -98q0 -53 -23.5 -76t-58.5 -23q-34 0 -57 23t-23 76z" horiz-adv-x="862" unicode="¿"/><glyph d="M0 0l588 1468h65l576 -1468h-115l-203 516h-594l-204 -516h-113zM354 608h523l-199 527q-25 62 -60 172q-27 -96 -59 -174zM337 1890v17h142q26 -48 98.5 -142t142.5 -170v-16h-69q-96 79 -188.5 171.5t-125.5 139.5z" horiz-adv-x="1229" unicode="À"/><glyph d="M0 0l588 1468h65l576 -1468h-115l-203 516h-594l-204 -516h-113zM354 608h523l-199 527q-25 62 -60 172q-27 -96 -59 -174zM504 1579v16q73 79 144.5 171.5t97.5 140.5h141v-17q-36 -52 -122.5 -138t-190.5 -173h-70z" horiz-adv-x="1229" unicode="Á"/><glyph d="M0 0l588 1468h65l576 -1468h-115l-203 516h-594l-204 -516h-113zM354 608h523l-199 527q-25 62 -60 172q-27 -96 -59 -174zM328 1579v16q62 67 131.5 156t110.5 156h98q68 -120 242 -312v-16h-70q-122 101 -221 207q-108 -114 -221 -207h-70z" horiz-adv-x="1229" unicode="Â"/><glyph d="M0 0l588 1468h65l576 -1468h-115l-203 516h-594l-204 -516h-113zM354 608h523l-199 527q-25 62 -60 172q-27 -96 -59 -174zM287 1581q10 111 63 174.5t137 63.5q48 0 88 -25t82 -59q34 -28 66 -50t61 -22q46 0 77 36.5t48 119.5h76q-16 -116 -69 -177t-132 -61 q-36 0 -75 18.5t-101 71.5q-32 26 -62.5 46t-62.5 20q-45 0 -75 -34.5t-48 -121.5h-73z" horiz-adv-x="1229" unicode="Ã"/><glyph d="M0 0l588 1468h65l576 -1468h-115l-203 516h-594l-204 -516h-113zM354 608h523l-199 527q-25 62 -60 172q-27 -96 -59 -174zM367 1727q0 46 15.5 66t47.5 20q64 0 64 -86t-64 -86q-63 0 -63 86zM748 1727q0 46 15.5 66t47.5 20q64 0 64 -86t-64 -86q-63 0 -63 86z" horiz-adv-x="1229" unicode="Ä"/><glyph d="M0 0l588 1468h65l576 -1468h-115l-203 516h-594l-204 -516h-113zM354 608h523l-199 527q-25 62 -60 172q-27 -96 -59 -174zM402 1610q0 94 60 152.5t157 58.5t157 -59t60 -152q0 -97 -60 -155t-157 -58t-157 58t-60 155zM482 1610q0 -66 37.5 -103.5t99.5 -37.5 t99.5 37.5t37.5 103.5q0 64 -39 101.5t-98 37.5q-62 0 -99.5 -38t-37.5 -101z" horiz-adv-x="1229" unicode="Å"/><glyph d="M-2 0l653 1462h877v-94h-615v-553h576v-94h-576v-627h615v-94h-717v516h-475l-227 -516h-111zM377 608h434v760h-100z" horiz-adv-x="1653" unicode="Æ"/><glyph d="M129 735q0 223 84.5 393t243 262.5t368.5 92.5q214 0 383 -80l-41 -92q-160 80 -336 80q-275 0 -433 -176t-158 -482q0 -313 149 -486t426 -173q184 0 338 47v-90q-145 -51 -362 -51q-308 0 -485 199t-177 556zM561 -393q30 -10 92 -10q78 0 119 28t41 80q0 94 -193 121 l93 174h96l-66 -117q168 -37 168 -174q0 -100 -67.5 -150.5t-188.5 -50.5q-68 0 -94 11v88z" horiz-adv-x="1272" unicode="Ç"/><glyph d="M207 0v1462h799v-94h-697v-553h658v-94h-658v-627h697v-94h-799zM314 1890v17h142q26 -48 98.5 -142t142.5 -170v-16h-69q-96 79 -188.5 171.5t-125.5 139.5z" horiz-adv-x="1130" unicode="È"/><glyph d="M207 0v1462h799v-94h-697v-553h658v-94h-658v-627h697v-94h-799zM463 1579v16q73 79 144.5 171.5t97.5 140.5h141v-17q-36 -52 -122.5 -138t-190.5 -173h-70z" horiz-adv-x="1130" unicode="É"/><glyph d="M207 0v1462h799v-94h-697v-553h658v-94h-658v-627h697v-94h-799zM315 1579v16q62 67 131.5 156t110.5 156h98q68 -120 242 -312v-16h-70q-122 101 -221 207q-108 -114 -221 -207h-70z" horiz-adv-x="1130" unicode="Ê"/><glyph d="M207 0v1462h799v-94h-697v-553h658v-94h-658v-627h697v-94h-799zM354 1727q0 46 15.5 66t47.5 20q64 0 64 -86t-64 -86q-63 0 -63 86zM735 1727q0 46 15.5 66t47.5 20q64 0 64 -86t-64 -86q-63 0 -63 86z" horiz-adv-x="1130" unicode="Ë"/><glyph d="M207 0v1462h102v-1462h-102zM-63 1890v17h142q26 -48 98.5 -142t142.5 -170v-16h-69q-96 79 -188.5 171.5t-125.5 139.5z" horiz-adv-x="516" unicode="Ì"/><glyph d="M207 0v1462h102v-1462h-102zM191 1579v16q73 79 144.5 171.5t97.5 140.5h141v-17q-36 -52 -122.5 -138t-190.5 -173h-70z" horiz-adv-x="516" unicode="Í"/><glyph d="M207 0v1462h102v-1462h-102zM-32 1579v16q62 67 131.5 156t110.5 156h98q68 -120 242 -312v-16h-70q-122 101 -221 207q-108 -114 -221 -207h-70z" horiz-adv-x="516" unicode="Î"/><glyph d="M207 0v1462h102v-1462h-102zM5 1727q0 46 15.5 66t47.5 20q64 0 64 -86t-64 -86q-63 0 -63 86zM386 1727q0 46 15.5 66t47.5 20q64 0 64 -86t-64 -86q-63 0 -63 86z" horiz-adv-x="516" unicode="Ï"/><glyph d="M47 678v94h160v690h395q350 0 532.5 -183t182.5 -534q0 -368 -193 -556.5t-567 -188.5h-350v678h-160zM309 90h242q655 0 655 651q0 314 -159.5 472.5t-468.5 158.5h-269v-600h406v-94h-406v-588z" horiz-adv-x="1466" unicode="Ð"/><glyph d="M207 0v1462h102l865 -1296h6q-9 180 -9 342v954h99v-1462h-103l-866 1298h-8q12 -232 12 -350v-948h-98zM400 1581q10 111 63 174.5t137 63.5q48 0 88 -25t82 -59q34 -28 66 -50t61 -22q46 0 77 36.5t48 119.5h76q-16 -116 -69 -177t-132 -61q-36 0 -75 18.5t-101 71.5 q-32 26 -62.5 46t-62.5 20q-45 0 -75 -34.5t-48 -121.5h-73z" horiz-adv-x="1477" unicode="Ñ"/><glyph d="M129 735q0 349 175.5 549.5t479.5 200.5q306 0 479 -201.5t173 -550.5q0 -348 -174 -550.5t-480 -202.5q-305 0 -479 202.5t-174 552.5zM240 733q0 -314 140 -485.5t402 -171.5q264 0 403.5 170t139.5 487q0 316 -139.5 484.5t-401.5 168.5q-261 0 -402.5 -170 t-141.5 -483zM502 1890v17h142q26 -48 98.5 -142t142.5 -170v-16h-69q-96 79 -188.5 171.5t-125.5 139.5z" horiz-adv-x="1565" unicode="Ò"/><glyph d="M129 735q0 349 175.5 549.5t479.5 200.5q306 0 479 -201.5t173 -550.5q0 -348 -174 -550.5t-480 -202.5q-305 0 -479 202.5t-174 552.5zM240 733q0 -314 140 -485.5t402 -171.5q264 0 403.5 170t139.5 487q0 316 -139.5 484.5t-401.5 168.5q-261 0 -402.5 -170 t-141.5 -483zM686 1579v16q73 79 144.5 171.5t97.5 140.5h141v-17q-36 -52 -122.5 -138t-190.5 -173h-70z" horiz-adv-x="1565" unicode="Ó"/><glyph d="M129 735q0 349 175.5 549.5t479.5 200.5q306 0 479 -201.5t173 -550.5q0 -348 -174 -550.5t-480 -202.5q-305 0 -479 202.5t-174 552.5zM240 733q0 -314 140 -485.5t402 -171.5q264 0 403.5 170t139.5 487q0 316 -139.5 484.5t-401.5 168.5q-261 0 -402.5 -170 t-141.5 -483zM492 1579v16q62 67 131.5 156t110.5 156h98q68 -120 242 -312v-16h-70q-122 101 -221 207q-108 -114 -221 -207h-70z" horiz-adv-x="1565" unicode="Ô"/><glyph d="M129 735q0 349 175.5 549.5t479.5 200.5q306 0 479 -201.5t173 -550.5q0 -348 -174 -550.5t-480 -202.5q-305 0 -479 202.5t-174 552.5zM240 733q0 -314 140 -485.5t402 -171.5q264 0 403.5 170t139.5 487q0 316 -139.5 484.5t-401.5 168.5q-261 0 -402.5 -170 t-141.5 -483zM443 1581q10 111 63 174.5t137 63.5q48 0 88 -25t82 -59q34 -28 66 -50t61 -22q46 0 77 36.5t48 119.5h76q-16 -116 -69 -177t-132 -61q-36 0 -75 18.5t-101 71.5q-32 26 -62.5 46t-62.5 20q-45 0 -75 -34.5t-48 -121.5h-73z" horiz-adv-x="1565" unicode="Õ"/><glyph d="M129 735q0 349 175.5 549.5t479.5 200.5q306 0 479 -201.5t173 -550.5q0 -348 -174 -550.5t-480 -202.5q-305 0 -479 202.5t-174 552.5zM240 733q0 -314 140 -485.5t402 -171.5q264 0 403.5 170t139.5 487q0 316 -139.5 484.5t-401.5 168.5q-261 0 -402.5 -170 t-141.5 -483zM529 1727q0 46 15.5 66t47.5 20q64 0 64 -86t-64 -86q-63 0 -63 86zM910 1727q0 46 15.5 66t47.5 20q64 0 64 -86t-64 -86q-63 0 -63 86z" horiz-adv-x="1565" unicode="Ö"/><glyph d="M119 1130l57 58l408 -408l409 408l58 -58l-408 -407l406 -408l-58 -57l-407 408l-406 -408l-57 57l405 408z" unicode="×"/><glyph d="M129 735q0 349 175.5 549.5t479.5 200.5q232 0 392 -121l108 152l72 -60l-111 -153q191 -207 191 -570q0 -348 -174 -550.5t-480 -202.5q-236 0 -395 120l-86 -120l-74 59l90 127q-188 200 -188 569zM240 733q0 -312 139 -483l739 1034q-133 102 -334 102 q-261 0 -402.5 -170t-141.5 -483zM444 182q133 -106 338 -106q264 0 403.5 170t139.5 487q0 315 -139 486z" horiz-adv-x="1565" unicode="Ø"/><glyph d="M190 520v942h103v-946q0 -211 117 -328.5t331 -117.5q209 0 324 115.5t115 320.5v956h102v-946q0 -252 -146 -394t-407 -142q-254 0 -396.5 142.5t-142.5 397.5zM450 1890v17h142q26 -48 98.5 -142t142.5 -170v-16h-69q-96 79 -188.5 171.5t-125.5 139.5z" horiz-adv-x="1473" unicode="Ù"/><glyph d="M190 520v942h103v-946q0 -211 117 -328.5t331 -117.5q209 0 324 115.5t115 320.5v956h102v-946q0 -252 -146 -394t-407 -142q-254 0 -396.5 142.5t-142.5 397.5zM633 1579v16q73 79 144.5 171.5t97.5 140.5h141v-17q-36 -52 -122.5 -138t-190.5 -173h-70z" horiz-adv-x="1473" unicode="Ú"/><glyph d="M190 520v942h103v-946q0 -211 117 -328.5t331 -117.5q209 0 324 115.5t115 320.5v956h102v-946q0 -252 -146 -394t-407 -142q-254 0 -396.5 142.5t-142.5 397.5zM444 1579v16q62 67 131.5 156t110.5 156h98q68 -120 242 -312v-16h-70q-122 101 -221 207 q-108 -114 -221 -207h-70z" horiz-adv-x="1473" unicode="Û"/><glyph d="M190 520v942h103v-946q0 -211 117 -328.5t331 -117.5q209 0 324 115.5t115 320.5v956h102v-946q0 -252 -146 -394t-407 -142q-254 0 -396.5 142.5t-142.5 397.5zM481 1727q0 46 15.5 66t47.5 20q64 0 64 -86t-64 -86q-63 0 -63 86zM862 1727q0 46 15.5 66t47.5 20 q64 0 64 -86t-64 -86q-63 0 -63 86z" horiz-adv-x="1473" unicode="Ü"/><glyph d="M0 1462h117l426 -800l428 800h110l-487 -897v-565h-105v557zM434 1579v16q73 79 144.5 171.5t97.5 140.5h141v-17q-36 -52 -122.5 -138t-190.5 -173h-70z" horiz-adv-x="1081" unicode="Ý"/><glyph d="M207 0v1462h102v-264h256q522 0 522 -420q0 -212 -144 -325t-408 -113h-226v-340h-102zM309 428h201q247 0 357 81.5t110 264.5q0 169 -104 250.5t-322 81.5h-242v-678z" horiz-adv-x="1198" unicode="Þ"/><glyph d="M182 0v1206q0 173 103.5 267t292.5 94q188 0 285.5 -72.5t97.5 -210.5q0 -139 -139 -250q-81 -64 -110.5 -100.5t-29.5 -75.5q0 -44 14.5 -68t51.5 -57t102 -78q106 -75 151.5 -124.5t68 -103t22.5 -120.5q0 -156 -88 -241.5t-246 -85.5q-95 0 -174.5 18.5t-126.5 48.5 v107q65 -38 148.5 -62t152.5 -24q114 0 174.5 54.5t60.5 160.5q0 83 -39 144t-149 136q-127 87 -175 147t-48 146q0 60 32.5 110t106.5 108q74 57 106.5 105.5t32.5 106.5q0 93 -70 143t-202 50q-145 0 -226 -69t-81 -196v-1214h-99z" horiz-adv-x="1194" unicode="ß"/><glyph d="M98 289q0 159 132.5 247t383.5 93l207 6v72q0 155 -63 234t-203 79q-151 0 -313 -84l-37 86q179 84 354 84q179 0 267.5 -93t88.5 -290v-723h-73l-25 172h-8q-82 -105 -168.5 -148.5t-204.5 -43.5q-160 0 -249 82t-89 227zM203 285q0 -102 62.5 -158.5t176.5 -56.5 q174 0 274.5 99.5t100.5 276.5v107l-190 -8q-229 -11 -326.5 -71.5t-97.5 -188.5zM255 1552v17h142q26 -48 98.5 -142t142.5 -170v-16h-69q-96 79 -188.5 171.5t-125.5 139.5z" horiz-adv-x="1085" unicode="à"/><glyph d="M98 289q0 159 132.5 247t383.5 93l207 6v72q0 155 -63 234t-203 79q-151 0 -313 -84l-37 86q179 84 354 84q179 0 267.5 -93t88.5 -290v-723h-73l-25 172h-8q-82 -105 -168.5 -148.5t-204.5 -43.5q-160 0 -249 82t-89 227zM203 285q0 -102 62.5 -158.5t176.5 -56.5 q174 0 274.5 99.5t100.5 276.5v107l-190 -8q-229 -11 -326.5 -71.5t-97.5 -188.5zM422 1241v16q73 79 144.5 171.5t97.5 140.5h141v-17q-36 -52 -122.5 -138t-190.5 -173h-70z" horiz-adv-x="1085" unicode="á"/><glyph d="M98 289q0 159 132.5 247t383.5 93l207 6v72q0 155 -63 234t-203 79q-151 0 -313 -84l-37 86q179 84 354 84q179 0 267.5 -93t88.5 -290v-723h-73l-25 172h-8q-82 -105 -168.5 -148.5t-204.5 -43.5q-160 0 -249 82t-89 227zM203 285q0 -102 62.5 -158.5t176.5 -56.5 q174 0 274.5 99.5t100.5 276.5v107l-190 -8q-229 -11 -326.5 -71.5t-97.5 -188.5zM251 1241v16q62 67 131.5 156t110.5 156h98q68 -120 242 -312v-16h-70q-122 101 -221 207q-108 -114 -221 -207h-70z" horiz-adv-x="1085" unicode="â"/><glyph d="M98 289q0 159 132.5 247t383.5 93l207 6v72q0 155 -63 234t-203 79q-151 0 -313 -84l-37 86q179 84 354 84q179 0 267.5 -93t88.5 -290v-723h-73l-25 172h-8q-82 -105 -168.5 -148.5t-204.5 -43.5q-160 0 -249 82t-89 227zM203 285q0 -102 62.5 -158.5t176.5 -56.5 q174 0 274.5 99.5t100.5 276.5v107l-190 -8q-229 -11 -326.5 -71.5t-97.5 -188.5zM200 1243q10 111 63 174.5t137 63.5q48 0 88 -25t82 -59q34 -28 66 -50t61 -22q46 0 77 36.5t48 119.5h76q-16 -116 -69 -177t-132 -61q-36 0 -75 18.5t-101 71.5q-32 26 -62.5 46t-62.5 20 q-45 0 -75 -34.5t-48 -121.5h-73z" horiz-adv-x="1085" unicode="ã"/><glyph d="M98 289q0 159 132.5 247t383.5 93l207 6v72q0 155 -63 234t-203 79q-151 0 -313 -84l-37 86q179 84 354 84q179 0 267.5 -93t88.5 -290v-723h-73l-25 172h-8q-82 -105 -168.5 -148.5t-204.5 -43.5q-160 0 -249 82t-89 227zM203 285q0 -102 62.5 -158.5t176.5 -56.5 q174 0 274.5 99.5t100.5 276.5v107l-190 -8q-229 -11 -326.5 -71.5t-97.5 -188.5zM282 1389q0 46 15.5 66t47.5 20q64 0 64 -86t-64 -86q-63 0 -63 86zM663 1389q0 46 15.5 66t47.5 20q64 0 64 -86t-64 -86q-63 0 -63 86z" horiz-adv-x="1085" unicode="ä"/><glyph d="M98 289q0 159 132.5 247t383.5 93l207 6v72q0 155 -63 234t-203 79q-151 0 -313 -84l-37 86q179 84 354 84q179 0 267.5 -93t88.5 -290v-723h-73l-25 172h-8q-82 -105 -168.5 -148.5t-204.5 -43.5q-160 0 -249 82t-89 227zM203 285q0 -102 62.5 -158.5t176.5 -56.5 q174 0 274.5 99.5t100.5 276.5v107l-190 -8q-229 -11 -326.5 -71.5t-97.5 -188.5zM325 1456q0 94 60 152.5t157 58.5t157 -59t60 -152q0 -97 -60 -155t-157 -58t-157 58t-60 155zM405 1456q0 -66 37.5 -103.5t99.5 -37.5t99.5 37.5t37.5 103.5q0 64 -39 101.5t-98 37.5 q-62 0 -99.5 -38t-37.5 -101z" horiz-adv-x="1085" unicode="å"/><glyph d="M98 289q0 154 125 243t377 97l201 6v72q0 155 -61.5 234t-198.5 79q-148 0 -305 -84l-37 86q173 84 346 84q261 0 325 -211q111 213 347 213q184 0 289.5 -134.5t105.5 -363.5v-80h-715q0 -460 348 -460q85 0 150 12t174 57v-90q-92 -41 -165 -55t-161 -14 q-295 0 -397 256q-68 -133 -168 -194.5t-252 -61.5q-156 0 -242 82.5t-86 226.5zM203 285q0 -102 61 -158.5t170 -56.5q169 0 266 99.5t97 276.5v107l-187 -8q-219 -11 -313 -71.5t-94 -188.5zM903 618h604q0 188 -77.5 295t-212.5 107q-284 0 -314 -402z" horiz-adv-x="1731" unicode="æ"/><glyph d="M119 537q0 270 137 420.5t375 150.5q141 0 270 -49l-27 -88q-141 47 -245 47q-200 0 -303 -123.5t-103 -355.5q0 -220 103 -344.5t288 -124.5q148 0 275 53v-92q-104 -51 -273 -51q-233 0 -365 147t-132 410zM373 -393q30 -10 92 -10q78 0 119 28t41 80q0 94 -193 121 l93 174h96l-66 -117q168 -37 168 -174q0 -100 -67.5 -150.5t-188.5 -50.5q-68 0 -94 11v88z" horiz-adv-x="973" unicode="ç"/><glyph d="M119 535q0 260 128 416.5t345 156.5q192 0 303 -134t111 -364v-80h-783q2 -224 104.5 -342t293.5 -118q93 0 163.5 13t178.5 56v-90q-92 -40 -170 -54.5t-172 -14.5q-237 0 -369.5 146t-132.5 409zM229 618h672q0 189 -82 295.5t-227 106.5q-157 0 -252 -103.5 t-111 -298.5zM302 1552v17h142q26 -48 98.5 -142t142.5 -170v-16h-69q-96 79 -188.5 171.5t-125.5 139.5z" horiz-adv-x="1124" unicode="è"/><glyph d="M119 535q0 260 128 416.5t345 156.5q192 0 303 -134t111 -364v-80h-783q2 -224 104.5 -342t293.5 -118q93 0 163.5 13t178.5 56v-90q-92 -40 -170 -54.5t-172 -14.5q-237 0 -369.5 146t-132.5 409zM229 618h672q0 189 -82 295.5t-227 106.5q-157 0 -252 -103.5 t-111 -298.5zM452 1241v16q73 79 144.5 171.5t97.5 140.5h141v-17q-36 -52 -122.5 -138t-190.5 -173h-70z" horiz-adv-x="1124" unicode="é"/><glyph d="M119 535q0 260 128 416.5t345 156.5q192 0 303 -134t111 -364v-80h-783q2 -224 104.5 -342t293.5 -118q93 0 163.5 13t178.5 56v-90q-92 -40 -170 -54.5t-172 -14.5q-237 0 -369.5 146t-132.5 409zM229 618h672q0 189 -82 295.5t-227 106.5q-157 0 -252 -103.5 t-111 -298.5zM290 1241v16q62 67 131.5 156t110.5 156h98q68 -120 242 -312v-16h-70q-122 101 -221 207q-108 -114 -221 -207h-70z" horiz-adv-x="1124" unicode="ê"/><glyph d="M119 535q0 260 128 416.5t345 156.5q192 0 303 -134t111 -364v-80h-783q2 -224 104.5 -342t293.5 -118q93 0 163.5 13t178.5 56v-90q-92 -40 -170 -54.5t-172 -14.5q-237 0 -369.5 146t-132.5 409zM229 618h672q0 189 -82 295.5t-227 106.5q-157 0 -252 -103.5 t-111 -298.5zM331 1389q0 46 15.5 66t47.5 20q64 0 64 -86t-64 -86q-63 0 -63 86zM712 1389q0 46 15.5 66t47.5 20q64 0 64 -86t-64 -86q-63 0 -63 86z" horiz-adv-x="1124" unicode="ë"/><glyph d="M182 0v1087h99v-1087h-99zM-34 1552v17h142q26 -48 98.5 -142t142.5 -170v-16h-69q-96 79 -188.5 171.5t-125.5 139.5z" horiz-adv-x="463" unicode="ì"/><glyph d="M182 0v1087h99v-1087h-99zM107 1241v16q73 79 144.5 171.5t97.5 140.5h141v-17q-36 -52 -122.5 -138t-190.5 -173h-70z" horiz-adv-x="463" unicode="í"/><glyph d="M182 0v1087h99v-1087h-99zM-58 1241v16q62 67 131.5 156t110.5 156h98q68 -120 242 -312v-16h-70q-122 101 -221 207q-108 -114 -221 -207h-70z" horiz-adv-x="463" unicode="î"/><glyph d="M182 0v1087h99v-1087h-99zM-21 1389q0 46 15.5 66t47.5 20q64 0 64 -86t-64 -86q-63 0 -63 86zM360 1389q0 46 15.5 66t47.5 20q64 0 64 -86t-64 -86q-63 0 -63 86z" horiz-adv-x="463" unicode="ï"/><glyph d="M117 471q0 228 126.5 357.5t342.5 129.5q108 0 187.5 -33t148.5 -96l4 2q-64 270 -269 459l-270 -157l-49 77l244 146q-86 62 -199 119l45 81q147 -69 248 -145l225 137l49 -84l-202 -121q154 -151 230.5 -353t76.5 -431q0 -276 -124 -427.5t-349 -151.5 q-214 0 -339.5 130t-125.5 361zM221 463q0 -186 94.5 -289.5t268.5 -103.5q179 0 272.5 123t93.5 364q0 146 -97 228.5t-267 82.5q-185 0 -275 -100.5t-90 -304.5z" horiz-adv-x="1174" unicode="ð"/><glyph d="M182 0v1087h84l19 -149h6q106 170 377 170q370 0 370 -397v-711h-98v705q0 164 -69 238.5t-214 74.5q-195 0 -285.5 -98.5t-90.5 -319.5v-600h-99zM282 1243q10 111 63 174.5t137 63.5q48 0 88 -25t82 -59q34 -28 66 -50t61 -22q46 0 77 36.5t48 119.5h76 q-16 -116 -69 -177t-132 -61q-36 0 -75 18.5t-101 71.5q-32 26 -62.5 46t-62.5 20q-45 0 -75 -34.5t-48 -121.5h-73z" horiz-adv-x="1208" unicode="ñ"/><glyph d="M119 545q0 266 129 414.5t354 148.5q224 0 351.5 -150.5t127.5 -412.5q0 -266 -129 -415.5t-356 -149.5q-143 0 -252 69t-167 198t-58 298zM223 545q0 -224 98.5 -349.5t278.5 -125.5t278.5 125.5t98.5 349.5q0 225 -99.5 349t-279.5 124t-277.5 -123.5t-97.5 -349.5z M335 1552v17h142q26 -48 98.5 -142t142.5 -170v-16h-69q-96 79 -188.5 171.5t-125.5 139.5z" horiz-adv-x="1200" unicode="ò"/><glyph d="M119 545q0 266 129 414.5t354 148.5q224 0 351.5 -150.5t127.5 -412.5q0 -266 -129 -415.5t-356 -149.5q-143 0 -252 69t-167 198t-58 298zM223 545q0 -224 98.5 -349.5t278.5 -125.5t278.5 125.5t98.5 349.5q0 225 -99.5 349t-279.5 124t-277.5 -123.5t-97.5 -349.5z M499 1241v16q73 79 144.5 171.5t97.5 140.5h141v-17q-36 -52 -122.5 -138t-190.5 -173h-70z" horiz-adv-x="1200" unicode="ó"/><glyph d="M119 545q0 266 129 414.5t354 148.5q224 0 351.5 -150.5t127.5 -412.5q0 -266 -129 -415.5t-356 -149.5q-143 0 -252 69t-167 198t-58 298zM223 545q0 -224 98.5 -349.5t278.5 -125.5t278.5 125.5t98.5 349.5q0 225 -99.5 349t-279.5 124t-277.5 -123.5t-97.5 -349.5z M309 1241v16q62 67 131.5 156t110.5 156h98q68 -120 242 -312v-16h-70q-122 101 -221 207q-108 -114 -221 -207h-70z" horiz-adv-x="1200" unicode="ô"/><glyph d="M119 545q0 266 129 414.5t354 148.5q224 0 351.5 -150.5t127.5 -412.5q0 -266 -129 -415.5t-356 -149.5q-143 0 -252 69t-167 198t-58 298zM223 545q0 -224 98.5 -349.5t278.5 -125.5t278.5 125.5t98.5 349.5q0 225 -99.5 349t-279.5 124t-277.5 -123.5t-97.5 -349.5z M264 1243q10 111 63 174.5t137 63.5q48 0 88 -25t82 -59q34 -28 66 -50t61 -22q46 0 77 36.5t48 119.5h76q-16 -116 -69 -177t-132 -61q-36 0 -75 18.5t-101 71.5q-32 26 -62.5 46t-62.5 20q-45 0 -75 -34.5t-48 -121.5h-73z" horiz-adv-x="1200" unicode="õ"/><glyph d="M119 545q0 266 129 414.5t354 148.5q224 0 351.5 -150.5t127.5 -412.5q0 -266 -129 -415.5t-356 -149.5q-143 0 -252 69t-167 198t-58 298zM223 545q0 -224 98.5 -349.5t278.5 -125.5t278.5 125.5t98.5 349.5q0 225 -99.5 349t-279.5 124t-277.5 -123.5t-97.5 -349.5z M346 1389q0 46 15.5 66t47.5 20q64 0 64 -86t-64 -86q-63 0 -63 86zM727 1389q0 46 15.5 66t47.5 20q64 0 64 -86t-64 -86q-63 0 -63 86z" horiz-adv-x="1200" unicode="ö"/><glyph d="M111 682v82h948v-82h-948zM504 371q0 98 80 98q82 0 82 -98q0 -53 -23.5 -76t-58.5 -23q-34 0 -57 23t-23 76zM504 1075q0 99 80 99q82 0 82 -99q0 -52 -23.5 -75t-58.5 -23q-34 0 -57 23t-23 75z" unicode="÷"/><glyph d="M119 545q0 266 129 414.5t354 148.5q179 0 301 -104l96 124l74 -55l-104 -137q112 -147 112 -391q0 -266 -129 -415.5t-356 -149.5q-173 0 -291 98l-86 -113l-72 58l93 120q-121 153 -121 402zM223 545q0 -200 78 -322l543 705q-98 90 -246 90q-180 0 -277.5 -123.5 t-97.5 -349.5zM362 152q94 -82 238 -82q180 0 278.5 125.5t98.5 349.5q0 190 -72 309z" horiz-adv-x="1200" unicode="ø"/><glyph d="M170 377v710h98v-704q0 -164 69 -238.5t214 -74.5q194 0 285.5 98t91.5 319v600h98v-1087h-84l-18 150h-6q-106 -170 -377 -170q-371 0 -371 397zM304 1552v17h142q26 -48 98.5 -142t142.5 -170v-16h-69q-96 79 -188.5 171.5t-125.5 139.5z" horiz-adv-x="1208" unicode="ù"/><glyph d="M170 377v710h98v-704q0 -164 69 -238.5t214 -74.5q194 0 285.5 98t91.5 319v600h98v-1087h-84l-18 150h-6q-106 -170 -377 -170q-371 0 -371 397zM495 1241v16q73 79 144.5 171.5t97.5 140.5h141v-17q-36 -52 -122.5 -138t-190.5 -173h-70z" horiz-adv-x="1208" unicode="ú"/><glyph d="M170 377v710h98v-704q0 -164 69 -238.5t214 -74.5q194 0 285.5 98t91.5 319v600h98v-1087h-84l-18 150h-6q-106 -170 -377 -170q-371 0 -371 397zM313 1241v16q62 67 131.5 156t110.5 156h98q68 -120 242 -312v-16h-70q-122 101 -221 207q-108 -114 -221 -207h-70z" horiz-adv-x="1208" unicode="û"/><glyph d="M170 377v710h98v-704q0 -164 69 -238.5t214 -74.5q194 0 285.5 98t91.5 319v600h98v-1087h-84l-18 150h-6q-106 -170 -377 -170q-371 0 -371 397zM350 1389q0 46 15.5 66t47.5 20q64 0 64 -86t-64 -86q-63 0 -63 86zM731 1389q0 46 15.5 66t47.5 20q64 0 64 -86t-64 -86 q-63 0 -63 86z" horiz-adv-x="1208" unicode="ü"/><glyph d="M0 1087h102l230 -610q105 -281 133 -379h6q42 129 137 385l230 604h102l-487 -1263q-59 -154 -99 -208t-93.5 -81t-129.5 -27q-57 0 -127 21v86q58 -16 125 -16q51 0 90 24t70.5 74.5t73 160t53.5 142.5zM361 1241v16q73 79 144.5 171.5t97.5 140.5h141v-17 q-36 -52 -122.5 -138t-190.5 -173h-70z" horiz-adv-x="940" unicode="ý"/><glyph d="M182 -492v2048h99v-391l-7 -247h7q114 190 368 190q220 0 335.5 -144.5t115.5 -420.5q0 -268 -121.5 -415.5t-331.5 -147.5q-251 0 -366 188h-7l3 -84q4 -74 4 -162v-414h-99zM281 541q0 -255 85.5 -364t278.5 -109q167 0 258.5 124t91.5 347q0 479 -348 479 q-193 0 -279.5 -105t-86.5 -354v-18z" horiz-adv-x="1219" unicode="þ"/><glyph d="M0 1087h102l230 -610q105 -281 133 -379h6q42 129 137 385l230 604h102l-487 -1263q-59 -154 -99 -208t-93.5 -81t-129.5 -27q-57 0 -127 21v86q58 -16 125 -16q51 0 90 24t70.5 74.5t73 160t53.5 142.5zM214 1389q0 46 15.5 66t47.5 20q64 0 64 -86t-64 -86 q-63 0 -63 86zM595 1389q0 46 15.5 66t47.5 20q64 0 64 -86t-64 -86q-63 0 -63 86z" horiz-adv-x="940" unicode="ÿ"/><glyph d="M0 0l588 1468h65l576 -1468h-115l-203 516h-594l-204 -516h-113zM354 608h523l-199 527q-25 62 -60 172q-27 -96 -59 -174zM342 1589v82h555v-82h-555z" horiz-adv-x="1229" unicode="Ā"/><glyph d="M98 289q0 159 132.5 247t383.5 93l207 6v72q0 155 -63 234t-203 79q-151 0 -313 -84l-37 86q179 84 354 84q179 0 267.5 -93t88.5 -290v-723h-73l-25 172h-8q-82 -105 -168.5 -148.5t-204.5 -43.5q-160 0 -249 82t-89 227zM203 285q0 -102 62.5 -158.5t176.5 -56.5 q174 0 274.5 99.5t100.5 276.5v107l-190 -8q-229 -11 -326.5 -71.5t-97.5 -188.5zM274 1251v82h555v-82h-555z" horiz-adv-x="1085" unicode="ā"/><glyph d="M0 0l588 1468h65l576 -1468h-115l-203 516h-594l-204 -516h-113zM354 608h523l-199 527q-25 62 -60 172q-27 -96 -59 -174zM342 1825h82q14 -87 60.5 -124.5t134.5 -37.5t134.5 37.5t61.5 124.5h80q-30 -246 -278 -246q-253 0 -275 246z" horiz-adv-x="1229" unicode="Ă"/><glyph d="M98 289q0 159 132.5 247t383.5 93l207 6v72q0 155 -63 234t-203 79q-151 0 -313 -84l-37 86q179 84 354 84q179 0 267.5 -93t88.5 -290v-723h-73l-25 172h-8q-82 -105 -168.5 -148.5t-204.5 -43.5q-160 0 -249 82t-89 227zM203 285q0 -102 62.5 -158.5t176.5 -56.5 q174 0 274.5 99.5t100.5 276.5v107l-190 -8q-229 -11 -326.5 -71.5t-97.5 -188.5zM277 1487h82q14 -87 60.5 -124.5t134.5 -37.5t134.5 37.5t61.5 124.5h80q-30 -246 -278 -246q-253 0 -275 246z" horiz-adv-x="1085" unicode="ă"/><glyph d="M0 0l588 1468h65l576 -1468h-115l-203 516h-594l-204 -516h-113zM354 608h523l-199 527q-25 62 -60 172q-27 -96 -59 -174zM962 -264q0 70 40 139t112 125h90q-72 -63 -107.5 -119.5t-35.5 -128.5q0 -110 106 -110q49 0 82 12v-84q-40 -16 -104 -16q-84 0 -133.5 47.5 t-49.5 134.5z" horiz-adv-x="1229" unicode="Ą"/><glyph d="M98 289q0 159 132.5 247t383.5 93l207 6v72q0 155 -63 234t-203 79q-151 0 -313 -84l-37 86q179 84 354 84q179 0 267.5 -93t88.5 -290v-723q-72 -63 -107.5 -119.5t-35.5 -128.5q0 -110 106 -110q49 0 82 12v-84q-40 -16 -104 -16q-84 0 -133.5 47.5t-49.5 134.5 q0 70 40 139q38 67 127 138l-23 159h-8q-82 -105 -168.5 -148.5t-204.5 -43.5q-160 0 -249 82t-89 227zM203 285q0 -102 62.5 -158.5t176.5 -56.5q174 0 274.5 99.5t100.5 276.5v107l-190 -8q-229 -11 -326.5 -71.5t-97.5 -188.5z" horiz-adv-x="1085" unicode="ą"/><glyph d="M129 735q0 223 84.5 393t243 262.5t368.5 92.5q214 0 383 -80l-41 -92q-160 80 -336 80q-275 0 -433 -176t-158 -482q0 -313 149 -486t426 -173q184 0 338 47v-90q-145 -51 -362 -51q-308 0 -485 199t-177 556zM657 1579v16q73 79 144.5 171.5t97.5 140.5h141v-17 q-36 -52 -122.5 -138t-190.5 -173h-70z" horiz-adv-x="1272" unicode="Ć"/><glyph d="M119 537q0 270 137 420.5t375 150.5q141 0 270 -49l-27 -88q-141 47 -245 47q-200 0 -303 -123.5t-103 -355.5q0 -220 103 -344.5t288 -124.5q148 0 275 53v-92q-104 -51 -273 -51q-233 0 -365 147t-132 410zM444 1241v16q73 79 144.5 171.5t97.5 140.5h141v-17 q-36 -52 -122.5 -138t-190.5 -173h-70z" horiz-adv-x="973" unicode="ć"/><glyph d="M129 735q0 223 84.5 393t243 262.5t368.5 92.5q214 0 383 -80l-41 -92q-160 80 -336 80q-275 0 -433 -176t-158 -482q0 -313 149 -486t426 -173q184 0 338 47v-90q-145 -51 -362 -51q-308 0 -485 199t-177 556zM473 1579v16q62 67 131.5 156t110.5 156h98 q68 -120 242 -312v-16h-70q-122 101 -221 207q-108 -114 -221 -207h-70z" horiz-adv-x="1272" unicode="Ĉ"/><glyph d="M119 537q0 270 137 420.5t375 150.5q141 0 270 -49l-27 -88q-141 47 -245 47q-200 0 -303 -123.5t-103 -355.5q0 -220 103 -344.5t288 -124.5q148 0 275 53v-92q-104 -51 -273 -51q-233 0 -365 147t-132 410zM290 1241v16q62 67 131.5 156t110.5 156h98q68 -120 242 -312 v-16h-70q-122 101 -221 207q-108 -114 -221 -207h-70z" horiz-adv-x="973" unicode="ĉ"/><glyph d="M129 735q0 223 84.5 393t243 262.5t368.5 92.5q214 0 383 -80l-41 -92q-160 80 -336 80q-275 0 -433 -176t-158 -482q0 -313 149 -486t426 -173q184 0 338 47v-90q-145 -51 -362 -51q-308 0 -485 199t-177 556zM717 1727q0 96 64 96q31 0 48 -25t17 -71q0 -45 -17 -71 t-48 -26q-64 0 -64 97z" horiz-adv-x="1272" unicode="Ċ"/><glyph d="M119 537q0 270 137 420.5t375 150.5q141 0 270 -49l-27 -88q-141 47 -245 47q-200 0 -303 -123.5t-103 -355.5q0 -220 103 -344.5t288 -124.5q148 0 275 53v-92q-104 -51 -273 -51q-233 0 -365 147t-132 410zM522 1389q0 96 64 96q31 0 48 -25t17 -71q0 -45 -17 -71 t-48 -26q-64 0 -64 97z" horiz-adv-x="973" unicode="ċ"/><glyph d="M129 735q0 223 84.5 393t243 262.5t368.5 92.5q214 0 383 -80l-41 -92q-160 80 -336 80q-275 0 -433 -176t-158 -482q0 -313 149 -486t426 -173q184 0 338 47v-90q-145 -51 -362 -51q-308 0 -485 199t-177 556zM469 1890v17h70q114 -94 221 -207q108 114 221 207h70v-17 q-170 -188 -242 -311h-98q-76 128 -242 311z" horiz-adv-x="1272" unicode="Č"/><glyph d="M119 537q0 270 137 420.5t375 150.5q141 0 270 -49l-27 -88q-141 47 -245 47q-200 0 -303 -123.5t-103 -355.5q0 -220 103 -344.5t288 -124.5q148 0 275 53v-92q-104 -51 -273 -51q-233 0 -365 147t-132 410zM290 1552v17h70q114 -94 221 -207q108 114 221 207h70v-17 q-170 -188 -242 -311h-98q-76 128 -242 311z" horiz-adv-x="973" unicode="č"/><glyph d="M207 0v1462h395q350 0 532.5 -183t182.5 -534q0 -368 -193 -556.5t-567 -188.5h-350zM309 90h242q655 0 655 651q0 314 -159.5 472.5t-468.5 158.5h-269v-1282zM379 1890v17h70q114 -94 221 -207q108 114 221 207h70v-17q-170 -188 -242 -311h-98q-76 128 -242 311z" horiz-adv-x="1446" unicode="Ď"/><glyph d="M119 528q0 282 118 431t343 149q118 0 204 -43t154 -147h6q-6 126 -6 247v391h98v-1556h-65l-25 166h-8q-124 -186 -356 -186q-225 0 -344 140t-119 408zM223 530q0 -462 359 -462q184 0 270 107t86 353v17q0 252 -84.5 362.5t-273.5 110.5q-178 0 -267.5 -125 t-89.5 -363zM1141 1229v16q21 45 48 139.5t38 171.5h112v-14q-15 -60 -53.5 -147t-91.5 -166h-53z" horiz-adv-x="1219" unicode="ď"/><glyph d="M47 678v94h160v690h395q350 0 532.5 -183t182.5 -534q0 -368 -193 -556.5t-567 -188.5h-350v678h-160zM309 90h242q655 0 655 651q0 314 -159.5 472.5t-468.5 158.5h-269v-600h406v-94h-406v-588z" horiz-adv-x="1466" unicode="Đ"/><glyph d="M119 528q0 282 118 431t343 149q118 0 204 -43t154 -147h6q-6 126 -6 247v107h-473v82h473v202h98v-202h156v-82h-156v-1272h-65l-25 166h-8q-124 -186 -356 -186q-225 0 -344 140t-119 408zM223 530q0 -462 359 -462q184 0 270 107t86 353v17q0 252 -84.5 362.5 t-273.5 110.5q-178 0 -267.5 -125t-89.5 -363z" horiz-adv-x="1219" unicode="đ"/><glyph d="M207 0v1462h799v-94h-697v-553h658v-94h-658v-627h697v-94h-799zM322 1589v82h555v-82h-555z" horiz-adv-x="1130" unicode="Ē"/><glyph d="M119 535q0 260 128 416.5t345 156.5q192 0 303 -134t111 -364v-80h-783q2 -224 104.5 -342t293.5 -118q93 0 163.5 13t178.5 56v-90q-92 -40 -170 -54.5t-172 -14.5q-237 0 -369.5 146t-132.5 409zM229 618h672q0 189 -82 295.5t-227 106.5q-157 0 -252 -103.5 t-111 -298.5zM309 1251v82h555v-82h-555z" horiz-adv-x="1124" unicode="ē"/><glyph d="M207 0v1462h799v-94h-697v-553h658v-94h-658v-627h697v-94h-799zM321 1825h82q14 -87 60.5 -124.5t134.5 -37.5t134.5 37.5t61.5 124.5h80q-30 -246 -278 -246q-253 0 -275 246z" horiz-adv-x="1130" unicode="Ĕ"/><glyph d="M119 535q0 260 128 416.5t345 156.5q192 0 303 -134t111 -364v-80h-783q2 -224 104.5 -342t293.5 -118q93 0 163.5 13t178.5 56v-90q-92 -40 -170 -54.5t-172 -14.5q-237 0 -369.5 146t-132.5 409zM229 618h672q0 189 -82 295.5t-227 106.5q-157 0 -252 -103.5 t-111 -298.5zM306 1487h82q14 -87 60.5 -124.5t134.5 -37.5t134.5 37.5t61.5 124.5h80q-30 -246 -278 -246q-253 0 -275 246z" horiz-adv-x="1124" unicode="ĕ"/><glyph d="M207 0v1462h799v-94h-697v-553h658v-94h-658v-627h697v-94h-799zM543 1698q0 96 64 96q31 0 48 -25t17 -71q0 -45 -17 -71t-48 -26q-64 0 -64 97z" horiz-adv-x="1130" unicode="Ė"/><glyph d="M119 535q0 260 128 416.5t345 156.5q192 0 303 -134t111 -364v-80h-783q2 -224 104.5 -342t293.5 -118q93 0 163.5 13t178.5 56v-90q-92 -40 -170 -54.5t-172 -14.5q-237 0 -369.5 146t-132.5 409zM229 618h672q0 189 -82 295.5t-227 106.5q-157 0 -252 -103.5 t-111 -298.5zM512 1389q0 96 64 96q31 0 48 -25t17 -71q0 -45 -17 -71t-48 -26q-64 0 -64 97z" horiz-adv-x="1124" unicode="ė"/><glyph d="M207 0v1462h799v-94h-697v-553h658v-94h-658v-627h697v-94h-799zM655 -264q0 70 40 139t112 125h90q-72 -63 -107.5 -119.5t-35.5 -128.5q0 -110 106 -110q49 0 82 12v-84q-40 -16 -104 -16q-84 0 -133.5 47.5t-49.5 134.5z" horiz-adv-x="1130" unicode="Ę"/><glyph d="M119 535q0 260 128 416.5t345 156.5q192 0 303 -134t111 -364v-80h-783q2 -224 104.5 -342t293.5 -118q93 0 163.5 13t178.5 56v-90q-92 -40 -170 -54.5t-172 -14.5q-237 0 -369.5 146t-132.5 409zM229 618h672q0 189 -82 295.5t-227 106.5q-157 0 -252 -103.5 t-111 -298.5zM653 -227q0 70 40 139t112 125h90q-72 -63 -107.5 -119.5t-35.5 -128.5q0 -110 106 -110q49 0 82 12v-84q-40 -16 -104 -16q-84 0 -133.5 47.5t-49.5 134.5z" horiz-adv-x="1124" unicode="ę"/><glyph d="M207 0v1462h799v-94h-697v-553h658v-94h-658v-627h697v-94h-799zM307 1890v17h70q114 -94 221 -207q108 114 221 207h70v-17q-170 -188 -242 -311h-98q-76 128 -242 311z" horiz-adv-x="1130" unicode="Ě"/><glyph d="M119 535q0 260 128 416.5t345 156.5q192 0 303 -134t111 -364v-80h-783q2 -224 104.5 -342t293.5 -118q93 0 163.5 13t178.5 56v-90q-92 -40 -170 -54.5t-172 -14.5q-237 0 -369.5 146t-132.5 409zM229 618h672q0 189 -82 295.5t-227 106.5q-157 0 -252 -103.5 t-111 -298.5zM284 1552v17h70q114 -94 221 -207q108 114 221 207h70v-17q-170 -188 -242 -311h-98q-76 128 -242 311z" horiz-adv-x="1124" unicode="ě"/><glyph d="M129 729q0 223 91.5 395.5t262 266.5t391.5 94q239 0 429 -88l-41 -92q-190 88 -394 88q-289 0 -458.5 -178.5t-169.5 -481.5q0 -330 161 -496.5t473 -166.5q202 0 343 57v514h-435v96h539v-667q-212 -90 -477 -90q-346 0 -530.5 195.5t-184.5 553.5zM512 1579v16 q62 67 131.5 156t110.5 156h98q68 -120 242 -312v-16h-70q-122 101 -221 207q-108 -114 -221 -207h-70z" horiz-adv-x="1481" unicode="Ĝ"/><glyph d="M45 -193q0 112 69.5 186t188.5 101q-49 21 -78.5 59.5t-29.5 88.5q0 109 139 192q-95 39 -148 122.5t-53 191.5q0 163 103.5 261.5t279.5 98.5q107 0 166 -21h348v-69l-225 -14q90 -112 90 -246q0 -157 -104.5 -254.5t-280.5 -97.5q-74 0 -104 6q-59 -31 -90 -73t-31 -89 q0 -52 39.5 -76t132.5 -24h190q177 0 271 -71.5t94 -211.5q0 -172 -139.5 -265.5t-397.5 -93.5q-205 0 -317.5 79t-112.5 220zM150 -184q0 -224 333 -224q428 0 428 273q0 98 -67 142t-217 44h-178q-299 0 -299 -235zM233 748q0 -126 76.5 -195.5t204.5 -69.5 q136 0 208.5 69t72.5 200q0 139 -74.5 208.5t-208.5 69.5q-130 0 -204.5 -74.5t-74.5 -207.5zM230 1241v16q62 67 131.5 156t110.5 156h98q68 -120 242 -312v-16h-70q-122 101 -221 207q-108 -114 -221 -207h-70z" horiz-adv-x="1071" unicode="ĝ"/><glyph d="M129 729q0 223 91.5 395.5t262 266.5t391.5 94q239 0 429 -88l-41 -92q-190 88 -394 88q-289 0 -458.5 -178.5t-169.5 -481.5q0 -330 161 -496.5t473 -166.5q202 0 343 57v514h-435v96h539v-667q-212 -90 -477 -90q-346 0 -530.5 195.5t-184.5 553.5zM524 1825h82 q14 -87 60.5 -124.5t134.5 -37.5t134.5 37.5t61.5 124.5h80q-30 -246 -278 -246q-253 0 -275 246z" horiz-adv-x="1481" unicode="Ğ"/><glyph d="M45 -193q0 112 69.5 186t188.5 101q-49 21 -78.5 59.5t-29.5 88.5q0 109 139 192q-95 39 -148 122.5t-53 191.5q0 163 103.5 261.5t279.5 98.5q107 0 166 -21h348v-69l-225 -14q90 -112 90 -246q0 -157 -104.5 -254.5t-280.5 -97.5q-74 0 -104 6q-59 -31 -90 -73t-31 -89 q0 -52 39.5 -76t132.5 -24h190q177 0 271 -71.5t94 -211.5q0 -172 -139.5 -265.5t-397.5 -93.5q-205 0 -317.5 79t-112.5 220zM150 -184q0 -224 333 -224q428 0 428 273q0 98 -67 142t-217 44h-178q-299 0 -299 -235zM233 748q0 -126 76.5 -195.5t204.5 -69.5 q136 0 208.5 69t72.5 200q0 139 -74.5 208.5t-208.5 69.5q-130 0 -204.5 -74.5t-74.5 -207.5zM238 1487h82q14 -87 60.5 -124.5t134.5 -37.5t134.5 37.5t61.5 124.5h80q-30 -246 -278 -246q-253 0 -275 246z" horiz-adv-x="1071" unicode="ğ"/><glyph d="M129 729q0 223 91.5 395.5t262 266.5t391.5 94q239 0 429 -88l-41 -92q-190 88 -394 88q-289 0 -458.5 -178.5t-169.5 -481.5q0 -330 161 -496.5t473 -166.5q202 0 343 57v514h-435v96h539v-667q-212 -90 -477 -90q-346 0 -530.5 195.5t-184.5 553.5zM753 1727 q0 96 64 96q31 0 48 -25t17 -71q0 -45 -17 -71t-48 -26q-64 0 -64 97z" horiz-adv-x="1481" unicode="Ġ"/><glyph d="M45 -193q0 112 69.5 186t188.5 101q-49 21 -78.5 59.5t-29.5 88.5q0 109 139 192q-95 39 -148 122.5t-53 191.5q0 163 103.5 261.5t279.5 98.5q107 0 166 -21h348v-69l-225 -14q90 -112 90 -246q0 -157 -104.5 -254.5t-280.5 -97.5q-74 0 -104 6q-59 -31 -90 -73t-31 -89 q0 -52 39.5 -76t132.5 -24h190q177 0 271 -71.5t94 -211.5q0 -172 -139.5 -265.5t-397.5 -93.5q-205 0 -317.5 79t-112.5 220zM150 -184q0 -224 333 -224q428 0 428 273q0 98 -67 142t-217 44h-178q-299 0 -299 -235zM233 748q0 -126 76.5 -195.5t204.5 -69.5 q136 0 208.5 69t72.5 200q0 139 -74.5 208.5t-208.5 69.5q-130 0 -204.5 -74.5t-74.5 -207.5zM463 1389q0 96 64 96q31 0 48 -25t17 -71q0 -45 -17 -71t-48 -26q-64 0 -64 97z" horiz-adv-x="1071" unicode="ġ"/><glyph d="M129 729q0 223 91.5 395.5t262 266.5t391.5 94q239 0 429 -88l-41 -92q-190 88 -394 88q-289 0 -458.5 -178.5t-169.5 -481.5q0 -330 161 -496.5t473 -166.5q202 0 343 57v514h-435v96h539v-667q-212 -90 -477 -90q-346 0 -530.5 195.5t-184.5 553.5zM682 -436 q25 54 50 145t36 166h113v-14q-23 -82 -63.5 -167.5t-81.5 -146.5h-54v17z" horiz-adv-x="1481" unicode="Ģ"/><glyph d="M45 -193q0 112 69.5 186t188.5 101q-49 21 -78.5 59.5t-29.5 88.5q0 109 139 192q-95 39 -148 122.5t-53 191.5q0 163 103.5 261.5t279.5 98.5q107 0 166 -21h348v-69l-225 -14q90 -112 90 -246q0 -157 -104.5 -254.5t-280.5 -97.5q-74 0 -104 6q-59 -31 -90 -73t-31 -89 q0 -52 39.5 -76t132.5 -24h190q177 0 271 -71.5t94 -211.5q0 -172 -139.5 -265.5t-397.5 -93.5q-205 0 -317.5 79t-112.5 220zM150 -184q0 -224 333 -224q428 0 428 273q0 98 -67 142t-217 44h-178q-299 0 -299 -235zM233 748q0 -126 76.5 -195.5t204.5 -69.5 q136 0 208.5 69t72.5 200q0 139 -74.5 208.5t-208.5 69.5q-130 0 -204.5 -74.5t-74.5 -207.5zM471 1241v14q20 77 61.5 165t83.5 149h53v-17q-27 -58 -53.5 -159t-32.5 -152h-112z" horiz-adv-x="1071" unicode="ģ"/><glyph d="M207 0v1462h102v-649h854v649h103v-1462h-103v719h-854v-719h-102zM444 1579v16q62 67 131.5 156t110.5 156h98q68 -120 242 -312v-16h-70q-122 101 -221 207q-108 -114 -221 -207h-70z" horiz-adv-x="1473" unicode="Ĥ"/><glyph d="M182 0v1556h99v-495l-5 -139h7q61 98 154 142t231 44q370 0 370 -397v-711h-98v705q0 164 -69 238.5t-214 74.5q-195 0 -285.5 -98.5t-90.5 -319.5v-600h-99zM313 1634v16q62 67 131.5 156t110.5 156h98q68 -120 242 -312v-16h-70q-122 101 -221 207q-108 -114 -221 -207 h-70z" horiz-adv-x="1208" unicode="ĥ"/><glyph d="M0 1098v94h207v270h102v-270h854v270h103v-270h207v-94h-207v-1098h-103v719h-854v-719h-102v1098h-207zM309 813h854v285h-854v-285z" horiz-adv-x="1473" unicode="Ħ"/><glyph d="M27 1272v82h155v202h99v-202h473v-82h-473v-242l-5 -139h7q61 98 154 142t231 44q370 0 370 -397v-680h-98v674q0 164 -69 238.5t-214 74.5q-197 0 -286.5 -98t-89.5 -320v-569h-99v1272h-155z" horiz-adv-x="1208" unicode="ħ"/><glyph d="M207 0v1462h102v-1462h-102zM-78 1581q10 111 63 174.5t137 63.5q48 0 88 -25t82 -59q34 -28 66 -50t61 -22q46 0 77 36.5t48 119.5h76q-16 -116 -69 -177t-132 -61q-36 0 -75 18.5t-101 71.5q-32 26 -62.5 46t-62.5 20q-45 0 -75 -34.5t-48 -121.5h-73z" horiz-adv-x="516" unicode="Ĩ"/><glyph d="M182 0v1087h99v-1087h-99zM-107 1243q10 111 63 174.5t137 63.5q48 0 88 -25t82 -59q34 -28 66 -50t61 -22q46 0 77 36.5t48 119.5h76q-16 -116 -69 -177t-132 -61q-36 0 -75 18.5t-101 71.5q-32 26 -62.5 46t-62.5 20q-45 0 -75 -34.5t-48 -121.5h-73z" horiz-adv-x="463" unicode="ĩ"/><glyph d="M207 0v1462h102v-1462h-102zM-17 1589v82h555v-82h-555z" horiz-adv-x="516" unicode="Ī"/><glyph d="M182 0v1087h99v-1087h-99zM-44 1251v82h555v-82h-555z" horiz-adv-x="463" unicode="ī"/><glyph d="M207 0v1462h102v-1462h-102zM-18 1825h82q14 -87 60.5 -124.5t134.5 -37.5t134.5 37.5t61.5 124.5h80q-30 -246 -278 -246q-253 0 -275 246z" horiz-adv-x="516" unicode="Ĭ"/><glyph d="M182 0v1087h99v-1087h-99zM-44 1487h82q14 -87 60.5 -124.5t134.5 -37.5t134.5 37.5t61.5 124.5h80q-30 -246 -278 -246q-253 0 -275 246z" horiz-adv-x="463" unicode="ĭ"/><glyph d="M207 0v1462h102v-1462h-102zM65 -264q0 70 40 139t112 125h90q-72 -63 -107.5 -119.5t-35.5 -128.5q0 -110 106 -110q49 0 82 12v-84q-40 -16 -104 -16q-84 0 -133.5 47.5t-49.5 134.5z" horiz-adv-x="516" unicode="Į"/><glyph d="M168 1389q0 96 63 96q31 0 48.5 -25t17.5 -71q0 -45 -17.5 -71t-48.5 -26q-63 0 -63 97zM182 0v1087h99v-1087h-99zM39 -264q0 70 40 139t112 125h90q-72 -63 -107.5 -119.5t-35.5 -128.5q0 -110 106 -110q49 0 82 12v-84q-40 -16 -104 -16q-84 0 -133.5 47.5 t-49.5 134.5z" horiz-adv-x="463" unicode="į"/><glyph d="M207 0v1462h102v-1462h-102zM194 1727q0 96 64 96q31 0 48 -25t17 -71q0 -45 -17 -71t-48 -26q-64 0 -64 97z" horiz-adv-x="516" unicode="İ"/><glyph d="M182 0v1087h99v-1087h-99z" horiz-adv-x="463" unicode="ı"/><glyph d="M207 0v1462h102v-1462h-102zM332 -254q78 -20 149 -20q242 0 242 264v1472h102v-1462q0 -369 -342 -369q-92 0 -151 27v88z" horiz-adv-x="1022" unicode="Ĳ"/><glyph d="M168 1389q0 96 63 96q31 0 48.5 -25t17.5 -71q0 -45 -17.5 -71t-48.5 -26q-63 0 -63 97zM182 0v1087h99v-1087h-99zM365 -381q69 -20 129 -20q151 0 151 176v1312h99v-1298q0 -135 -63.5 -208t-180.5 -73q-80 0 -135 25v86zM631 1389q0 96 63 96q31 0 48.5 -25t17.5 -71 q0 -45 -17.5 -71t-48.5 -26q-63 0 -63 97z" horiz-adv-x="926" unicode="ĳ"/><glyph d="M-184 -254q78 -20 149 -20q242 0 242 264v1472h102v-1462q0 -369 -342 -369q-92 0 -151 27v88zM-34 1579v16q62 67 131.5 156t110.5 156h98q68 -120 242 -312v-16h-70q-122 101 -221 207q-108 -114 -221 -207h-70z" horiz-adv-x="506" unicode="Ĵ"/><glyph d="M-98 -381q69 -20 129 -20q151 0 151 176v1312h99v-1298q0 -135 -63.5 -208t-180.5 -73q-80 0 -135 25v86zM-58 1241v16q62 67 131.5 156t110.5 156h98q68 -120 242 -312v-16h-70q-122 101 -221 207q-108 -114 -221 -207h-70z" horiz-adv-x="463" unicode="ĵ"/><glyph d="M207 0v1462h102v-760l162 162l573 598h130l-599 -618l615 -844h-125l-561 772l-195 -172v-600h-102zM524 -436q25 54 50 145t36 166h113v-14q-23 -82 -63.5 -167.5t-81.5 -146.5h-54v17z" horiz-adv-x="1190" unicode="Ķ"/><glyph d="M182 0v1556h99v-780l-7 -299h5l555 610h120l-428 -464l465 -623h-119l-413 549l-178 -162v-387h-99zM436 -436q25 54 50 145t36 166h113v-14q-23 -82 -63.5 -167.5t-81.5 -146.5h-54v17z" horiz-adv-x="991" unicode="ķ"/><glyph d="M182 0v1087h99v-311l-7 -299h5l555 610h120l-428 -464l465 -623h-119l-413 549l-178 -162v-387h-99z" horiz-adv-x="991" unicode="ĸ"/><glyph d="M207 0v1462h102v-1366h697v-96h-799zM226 1579v16q73 79 144.5 171.5t97.5 140.5h141v-17q-36 -52 -122.5 -138t-190.5 -173h-70z" horiz-adv-x="1051" unicode="Ĺ"/><glyph d="M182 0v1556h99v-1556h-99zM136 1636v16q73 79 144.5 171.5t97.5 140.5h141v-17q-36 -52 -122.5 -138t-190.5 -173h-70z" horiz-adv-x="463" unicode="ĺ"/><glyph d="M207 0v1462h102v-1366h697v-96h-799zM461 -436q25 54 50 145t36 166h113v-14q-23 -82 -63.5 -167.5t-81.5 -146.5h-54v17z" horiz-adv-x="1051" unicode="Ļ"/><glyph d="M182 0v1556h99v-1556h-99zM97 -436q25 54 50 145t36 166h113v-14q-23 -82 -63.5 -167.5t-81.5 -146.5h-54v17z" horiz-adv-x="463" unicode="ļ"/><glyph d="M207 0v1462h102v-1366h697v-96h-799zM676 1136v16q21 45 48 139.5t38 171.5h112v-14q-15 -60 -53.5 -147t-91.5 -166h-53z" horiz-adv-x="1051" unicode="Ľ"/><glyph d="M182 0v1556h99v-1556h-99zM386 1229v16q21 45 48 139.5t38 171.5h112v-14q-15 -60 -53.5 -147t-91.5 -166h-53z" horiz-adv-x="463" unicode="ľ"/><glyph d="M207 0v1462h102v-1366h697v-96h-799zM692 728q0 96 64 96q31 0 48 -25t17 -71q0 -45 -17 -71t-48 -26q-64 0 -64 97z" horiz-adv-x="1051" unicode="Ŀ"/><glyph d="M182 0v1556h99v-1556h-99zM405 677q0 96 64 96q31 0 48 -25t17 -71q0 -45 -17 -71t-48 -26q-64 0 -64 97z" horiz-adv-x="477" unicode="ŀ"/><glyph d="M29 539l178 112v811h102v-747l324 205l47 -76l-371 -230v-518h697v-96h-799v551l-137 -86z" horiz-adv-x="1051" unicode="Ł"/><glyph d="M8 639l174 115v802h99v-739l153 103l43 -70l-196 -131v-719h-99v653l-129 -86z" horiz-adv-x="463" unicode="ł"/><glyph d="M207 0v1462h102l865 -1296h6q-9 180 -9 342v954h99v-1462h-103l-866 1298h-8q12 -232 12 -350v-948h-98zM618 1579v16q73 79 144.5 171.5t97.5 140.5h141v-17q-36 -52 -122.5 -138t-190.5 -173h-70z" horiz-adv-x="1477" unicode="Ń"/><glyph d="M182 0v1087h84l19 -149h6q106 170 377 170q370 0 370 -397v-711h-98v705q0 164 -69 238.5t-214 74.5q-195 0 -285.5 -98.5t-90.5 -319.5v-600h-99zM489 1241v16q73 79 144.5 171.5t97.5 140.5h141v-17q-36 -52 -122.5 -138t-190.5 -173h-70z" horiz-adv-x="1208" unicode="ń"/><glyph d="M207 0v1462h102l865 -1296h6q-9 180 -9 342v954h99v-1462h-103l-866 1298h-8q12 -232 12 -350v-948h-98zM598 -436q25 54 50 145t36 166h113v-14q-23 -82 -63.5 -167.5t-81.5 -146.5h-54v17z" horiz-adv-x="1477" unicode="Ņ"/><glyph d="M182 0v1087h84l19 -149h6q106 170 377 170q370 0 370 -397v-711h-98v705q0 164 -69 238.5t-214 74.5q-195 0 -285.5 -98.5t-90.5 -319.5v-600h-99zM475 -436q25 54 50 145t36 166h113v-14q-23 -82 -63.5 -167.5t-81.5 -146.5h-54v17z" horiz-adv-x="1208" unicode="ņ"/><glyph d="M207 0v1462h102l865 -1296h6q-9 180 -9 342v954h99v-1462h-103l-866 1298h-8q12 -232 12 -350v-948h-98zM446 1890v17h70q114 -94 221 -207q108 114 221 207h70v-17q-170 -188 -242 -311h-98q-76 128 -242 311z" horiz-adv-x="1477" unicode="Ň"/><glyph d="M182 0v1087h84l19 -149h6q106 170 377 170q370 0 370 -397v-711h-98v705q0 164 -69 238.5t-214 74.5q-195 0 -285.5 -98.5t-90.5 -319.5v-600h-99zM313 1552v17h70q114 -94 221 -207q108 114 221 207h70v-17q-170 -188 -242 -311h-98q-76 128 -242 311z" horiz-adv-x="1208" unicode="ň"/><glyph d="M258 0v1087h84l19 -149h6q106 170 377 170q370 0 370 -397v-711h-98v705q0 164 -69 238.5t-214 74.5q-195 0 -285.5 -98.5t-90.5 -319.5v-600h-99zM1 961q29 96 61 241.5t49 259.5h117l12 -20q-75 -265 -174 -481h-65z" horiz-adv-x="1284" unicode="ŉ"/><glyph d="M207 0v1462h102l865 -1296h6q-9 180 -9 342v954h99v-1462q0 -369 -342 -369q-93 0 -152 27v88q78 -20 150 -20q241 0 241 264v10l-866 1298h-8q12 -232 12 -350v-948h-98z" horiz-adv-x="1477" unicode="Ŋ"/><glyph d="M182 0v1087h84l19 -149h6q54 87 147 128.5t205 41.5q201 0 298 -99t97 -298v-922q0 -134 -62.5 -207.5t-180.5 -73.5q-79 0 -136 25v86q69 -20 129 -20q152 0 152 176v930q0 164 -72.5 238.5t-224.5 74.5q-189 0 -275.5 -99.5t-86.5 -318.5v-600h-99z" horiz-adv-x="1208" unicode="ŋ"/><glyph d="M129 735q0 349 175.5 549.5t479.5 200.5q306 0 479 -201.5t173 -550.5q0 -348 -174 -550.5t-480 -202.5q-305 0 -479 202.5t-174 552.5zM240 733q0 -314 140 -485.5t402 -171.5q264 0 403.5 170t139.5 487q0 316 -139.5 484.5t-401.5 168.5q-261 0 -402.5 -170 t-141.5 -483zM506 1589v82h555v-82h-555z" horiz-adv-x="1565" unicode="Ō"/><glyph d="M119 545q0 266 129 414.5t354 148.5q224 0 351.5 -150.5t127.5 -412.5q0 -266 -129 -415.5t-356 -149.5q-143 0 -252 69t-167 198t-58 298zM223 545q0 -224 98.5 -349.5t278.5 -125.5t278.5 125.5t98.5 349.5q0 225 -99.5 349t-279.5 124t-277.5 -123.5t-97.5 -349.5z M324 1251v82h555v-82h-555z" horiz-adv-x="1200" unicode="ō"/><glyph d="M129 735q0 349 175.5 549.5t479.5 200.5q306 0 479 -201.5t173 -550.5q0 -348 -174 -550.5t-480 -202.5q-305 0 -479 202.5t-174 552.5zM240 733q0 -314 140 -485.5t402 -171.5q264 0 403.5 170t139.5 487q0 316 -139.5 484.5t-401.5 168.5q-261 0 -402.5 -170 t-141.5 -483zM506 1825h82q14 -87 60.5 -124.5t134.5 -37.5t134.5 37.5t61.5 124.5h80q-30 -246 -278 -246q-253 0 -275 246z" horiz-adv-x="1565" unicode="Ŏ"/><glyph d="M119 545q0 266 129 414.5t354 148.5q224 0 351.5 -150.5t127.5 -412.5q0 -266 -129 -415.5t-356 -149.5q-143 0 -252 69t-167 198t-58 298zM223 545q0 -224 98.5 -349.5t278.5 -125.5t278.5 125.5t98.5 349.5q0 225 -99.5 349t-279.5 124t-277.5 -123.5t-97.5 -349.5z M323 1487h82q14 -87 60.5 -124.5t134.5 -37.5t134.5 37.5t61.5 124.5h80q-30 -246 -278 -246q-253 0 -275 246z" horiz-adv-x="1200" unicode="ŏ"/><glyph d="M129 735q0 349 175.5 549.5t479.5 200.5q306 0 479 -201.5t173 -550.5q0 -348 -174 -550.5t-480 -202.5q-305 0 -479 202.5t-174 552.5zM240 733q0 -314 140 -485.5t402 -171.5q264 0 403.5 170t139.5 487q0 316 -139.5 484.5t-401.5 168.5q-261 0 -402.5 -170 t-141.5 -483zM534 1579v16q31 33 67 90t121 222h136v-17q-135 -202 -254 -311h-70zM872 1579v16q31 33 67 90t121 222h136v-17q-135 -202 -254 -311h-70z" horiz-adv-x="1565" unicode="Ő"/><glyph d="M119 545q0 266 129 414.5t354 148.5q224 0 351.5 -150.5t127.5 -412.5q0 -266 -129 -415.5t-356 -149.5q-143 0 -252 69t-167 198t-58 298zM223 545q0 -224 98.5 -349.5t278.5 -125.5t278.5 125.5t98.5 349.5q0 225 -99.5 349t-279.5 124t-277.5 -123.5t-97.5 -349.5z M342 1241v16q31 33 67 90t121 222h136v-17q-135 -202 -254 -311h-70zM680 1241v16q31 33 67 90t121 222h136v-17q-135 -202 -254 -311h-70z" horiz-adv-x="1200" unicode="ő"/><glyph d="M129 735q0 347 174.5 545.5t480.5 198.5q78 0 183 -17h747v-94h-655v-553h616v-94h-616v-627h655v-94h-756q-76 -16 -176 -16q-305 0 -479 200t-174 551zM240 733q0 -315 140.5 -484t401.5 -169q109 0 174 18v1266q-62 16 -172 16q-262 0 -403 -167.5t-141 -479.5z" horiz-adv-x="1839" unicode="Œ"/><glyph d="M119 545q0 266 129 414.5t354 148.5q151 0 251 -70t157 -209q110 279 399 279q192 0 303 -134t111 -364v-80h-762q2 -230 100.5 -345t276.5 -115q93 0 163.5 13t178.5 56v-90q-92 -40 -170 -54.5t-172 -14.5q-156 0 -266.5 67.5t-165.5 198.5q-59 -128 -158 -197 t-252 -69q-143 0 -252 69t-167 198t-58 298zM223 545q0 -224 98.5 -349.5t278.5 -125.5q174 0 265 122.5t91 352.5q0 224 -93 348.5t-265 124.5q-180 0 -277.5 -123.5t-97.5 -349.5zM1065 618h653q0 189 -82 295.5t-227 106.5q-155 0 -242 -104t-102 -298z" horiz-adv-x="1942" unicode="œ"/><glyph d="M207 0v1462h348q272 0 402 -100.5t130 -302.5q0 -147 -77.5 -248t-235.5 -145l397 -666h-122l-377 637h-363v-637h-102zM309 725h279q185 0 287 82.5t102 243.5q0 167 -100 243t-326 76h-242v-645zM491 1579v16q73 79 144.5 171.5t97.5 140.5h141v-17 q-36 -52 -122.5 -138t-190.5 -173h-70z" horiz-adv-x="1217" unicode="Ŕ"/><glyph d="M182 0v1087h84l10 -196h7q67 120 143 168.5t184 48.5q69 0 148 -14l-19 -95q-68 17 -141 17q-139 0 -228 -118t-89 -298v-600h-99zM339 1241v16q73 79 144.5 171.5t97.5 140.5h141v-17q-36 -52 -122.5 -138t-190.5 -173h-70z" horiz-adv-x="797" unicode="ŕ"/><glyph d="M207 0v1462h348q272 0 402 -100.5t130 -302.5q0 -147 -77.5 -248t-235.5 -145l397 -666h-122l-377 637h-363v-637h-102zM309 725h279q185 0 287 82.5t102 243.5q0 167 -100 243t-326 76h-242v-645zM524 -436q25 54 50 145t36 166h113v-14q-23 -82 -63.5 -167.5 t-81.5 -146.5h-54v17z" horiz-adv-x="1217" unicode="Ŗ"/><glyph d="M182 0v1087h84l10 -196h7q67 120 143 168.5t184 48.5q69 0 148 -14l-19 -95q-68 17 -141 17q-139 0 -228 -118t-89 -298v-600h-99zM109 -436q25 54 50 145t36 166h113v-14q-23 -82 -63.5 -167.5t-81.5 -146.5h-54v17z" horiz-adv-x="797" unicode="ŗ"/><glyph d="M207 0v1462h348q272 0 402 -100.5t130 -302.5q0 -147 -77.5 -248t-235.5 -145l397 -666h-122l-377 637h-363v-637h-102zM309 725h279q185 0 287 82.5t102 243.5q0 167 -100 243t-326 76h-242v-645zM313 1890v17h70q114 -94 221 -207q108 114 221 207h70v-17 q-170 -188 -242 -311h-98q-76 128 -242 311z" horiz-adv-x="1217" unicode="Ř"/><glyph d="M182 0v1087h84l10 -196h7q67 120 143 168.5t184 48.5q69 0 148 -14l-19 -95q-68 17 -141 17q-139 0 -228 -118t-89 -298v-600h-99zM163 1552v17h70q114 -94 221 -207q108 114 221 207h70v-17q-170 -188 -242 -311h-98q-76 128 -242 311z" horiz-adv-x="797" unicode="ř"/><glyph d="M111 39v102q158 -67 403 -67q180 0 285.5 82.5t105.5 216.5q0 83 -35 137.5t-114 99.5t-232 97q-224 77 -309.5 166.5t-85.5 238.5q0 164 128.5 267.5t330.5 103.5q206 0 387 -78l-37 -88q-182 76 -348 76q-162 0 -258 -75t-96 -204q0 -81 29.5 -133t96.5 -93.5 t230 -99.5q171 -59 257 -114.5t125.5 -126t39.5 -170.5q0 -183 -134.5 -290t-357.5 -107q-268 0 -411 59zM456 1579v16q73 79 144.5 171.5t97.5 140.5h141v-17q-36 -52 -122.5 -138t-190.5 -173h-70z" horiz-adv-x="1116" unicode="Ś"/><glyph d="M84 47v107q164 -82 346 -82q161 0 244.5 53.5t83.5 142.5q0 82 -66.5 138t-218.5 110q-163 59 -229 101.5t-99.5 96t-33.5 130.5q0 122 102.5 193t286.5 71q176 0 334 -66l-37 -90q-160 66 -297 66q-133 0 -211 -44t-78 -122q0 -85 60.5 -136t236.5 -114 q147 -53 214 -95.5t100.5 -96.5t33.5 -127q0 -146 -111 -224.5t-315 -78.5q-218 0 -346 67zM351 1241v16q73 79 144.5 171.5t97.5 140.5h141v-17q-36 -52 -122.5 -138t-190.5 -173h-70z" horiz-adv-x="954" unicode="ś"/><glyph d="M111 39v102q158 -67 403 -67q180 0 285.5 82.5t105.5 216.5q0 83 -35 137.5t-114 99.5t-232 97q-224 77 -309.5 166.5t-85.5 238.5q0 164 128.5 267.5t330.5 103.5q206 0 387 -78l-37 -88q-182 76 -348 76q-162 0 -258 -75t-96 -204q0 -81 29.5 -133t96.5 -93.5 t230 -99.5q171 -59 257 -114.5t125.5 -126t39.5 -170.5q0 -183 -134.5 -290t-357.5 -107q-268 0 -411 59zM280 1579v16q62 67 131.5 156t110.5 156h98q68 -120 242 -312v-16h-70q-122 101 -221 207q-108 -114 -221 -207h-70z" horiz-adv-x="1116" unicode="Ŝ"/><glyph d="M84 47v107q164 -82 346 -82q161 0 244.5 53.5t83.5 142.5q0 82 -66.5 138t-218.5 110q-163 59 -229 101.5t-99.5 96t-33.5 130.5q0 122 102.5 193t286.5 71q176 0 334 -66l-37 -90q-160 66 -297 66q-133 0 -211 -44t-78 -122q0 -85 60.5 -136t236.5 -114 q147 -53 214 -95.5t100.5 -96.5t33.5 -127q0 -146 -111 -224.5t-315 -78.5q-218 0 -346 67zM196 1241v16q62 67 131.5 156t110.5 156h98q68 -120 242 -312v-16h-70q-122 101 -221 207q-108 -114 -221 -207h-70z" horiz-adv-x="954" unicode="ŝ"/><glyph d="M111 39v102q158 -67 403 -67q180 0 285.5 82.5t105.5 216.5q0 83 -35 137.5t-114 99.5t-232 97q-224 77 -309.5 166.5t-85.5 238.5q0 164 128.5 267.5t330.5 103.5q206 0 387 -78l-37 -88q-182 76 -348 76q-162 0 -258 -75t-96 -204q0 -81 29.5 -133t96.5 -93.5 t230 -99.5q171 -59 257 -114.5t125.5 -126t39.5 -170.5q0 -183 -134.5 -290t-357.5 -107q-268 0 -411 59zM369 -393q30 -10 92 -10q78 0 119 28t41 80q0 94 -193 121l93 174h96l-66 -117q168 -37 168 -174q0 -100 -67.5 -150.5t-188.5 -50.5q-68 0 -94 11v88z" horiz-adv-x="1116" unicode="Ş"/><glyph d="M84 47v107q164 -82 346 -82q161 0 244.5 53.5t83.5 142.5q0 82 -66.5 138t-218.5 110q-163 59 -229 101.5t-99.5 96t-33.5 130.5q0 122 102.5 193t286.5 71q176 0 334 -66l-37 -90q-160 66 -297 66q-133 0 -211 -44t-78 -122q0 -85 60.5 -136t236.5 -114 q147 -53 214 -95.5t100.5 -96.5t33.5 -127q0 -146 -111 -224.5t-315 -78.5q-218 0 -346 67zM279 -393q30 -10 92 -10q78 0 119 28t41 80q0 94 -193 121l93 174h96l-66 -117q168 -37 168 -174q0 -100 -67.5 -150.5t-188.5 -50.5q-68 0 -94 11v88z" horiz-adv-x="954" unicode="ş"/><glyph d="M111 39v102q158 -67 403 -67q180 0 285.5 82.5t105.5 216.5q0 83 -35 137.5t-114 99.5t-232 97q-224 77 -309.5 166.5t-85.5 238.5q0 164 128.5 267.5t330.5 103.5q206 0 387 -78l-37 -88q-182 76 -348 76q-162 0 -258 -75t-96 -204q0 -81 29.5 -133t96.5 -93.5 t230 -99.5q171 -59 257 -114.5t125.5 -126t39.5 -170.5q0 -183 -134.5 -290t-357.5 -107q-268 0 -411 59zM277 1890v17h70q114 -94 221 -207q108 114 221 207h70v-17q-170 -188 -242 -311h-98q-76 128 -242 311z" horiz-adv-x="1116" unicode="Š"/><glyph d="M84 47v107q164 -82 346 -82q161 0 244.5 53.5t83.5 142.5q0 82 -66.5 138t-218.5 110q-163 59 -229 101.5t-99.5 96t-33.5 130.5q0 122 102.5 193t286.5 71q176 0 334 -66l-37 -90q-160 66 -297 66q-133 0 -211 -44t-78 -122q0 -85 60.5 -136t236.5 -114 q147 -53 214 -95.5t100.5 -96.5t33.5 -127q0 -146 -111 -224.5t-315 -78.5q-218 0 -346 67zM177 1552v17h70q114 -94 221 -207q108 114 221 207h70v-17q-170 -188 -242 -311h-98q-76 128 -242 311z" horiz-adv-x="954" unicode="š"/><glyph d="M10 1366v96h1053v-96h-475v-1366h-103v1366h-475zM336 -393q30 -10 92 -10q78 0 119 28t41 80q0 94 -193 121l93 174h96l-66 -117q168 -37 168 -174q0 -100 -67.5 -150.5t-188.5 -50.5q-68 0 -94 11v88z" horiz-adv-x="1073" unicode="Ţ"/><glyph d="M25 1001v58l161 45l50 246h51v-263h319v-86h-319v-688q0 -125 44 -185t138 -60t164 16v-80q-72 -24 -166 -24q-144 0 -212.5 77t-68.5 242v702h-161zM240 -393q30 -10 92 -10q78 0 119 28t41 80q0 94 -193 121l93 174h96l-66 -117q168 -37 168 -174q0 -100 -67.5 -150.5 t-188.5 -50.5q-68 0 -94 11v88z" horiz-adv-x="686" unicode="ţ"/><glyph d="M10 1366v96h1053v-96h-475v-1366h-103v1366h-475zM247 1890v17h70q114 -94 221 -207q108 114 221 207h70v-17q-170 -188 -242 -311h-98q-76 128 -242 311z" horiz-adv-x="1073" unicode="Ť"/><glyph d="M25 1001v58l161 45l50 246h51v-263h319v-86h-319v-688q0 -125 44 -185t138 -60t164 16v-80q-72 -24 -166 -24q-144 0 -212.5 77t-68.5 242v702h-161zM480 1229v16q21 45 48 139.5t38 171.5h112v-14q-15 -60 -53.5 -147t-91.5 -166h-53z" horiz-adv-x="686" unicode="ť"/><glyph d="M10 1366v96h1053v-96h-475v-573h354v-95h-354v-698h-103v698h-358v95h358v573h-475z" horiz-adv-x="1073" unicode="Ŧ"/><glyph d="M25 1001v58l161 45l50 246h51v-263h319v-86h-319v-313h309v-86h-309v-289q0 -125 44 -185t138 -60t164 16v-80q-72 -24 -166 -24q-144 0 -212.5 77t-68.5 242v303h-145v86h145v313h-161z" horiz-adv-x="686" unicode="ŧ"/><glyph d="M190 520v942h103v-946q0 -211 117 -328.5t331 -117.5q209 0 324 115.5t115 320.5v956h102v-946q0 -252 -146 -394t-407 -142q-254 0 -396.5 142.5t-142.5 397.5zM396 1581q10 111 63 174.5t137 63.5q48 0 88 -25t82 -59q34 -28 66 -50t61 -22q46 0 77 36.5t48 119.5h76 q-16 -116 -69 -177t-132 -61q-36 0 -75 18.5t-101 71.5q-32 26 -62.5 46t-62.5 20q-45 0 -75 -34.5t-48 -121.5h-73z" horiz-adv-x="1473" unicode="Ũ"/><glyph d="M170 377v710h98v-704q0 -164 69 -238.5t214 -74.5q194 0 285.5 98t91.5 319v600h98v-1087h-84l-18 150h-6q-106 -170 -377 -170q-371 0 -371 397zM268 1243q10 111 63 174.5t137 63.5q48 0 88 -25t82 -59q34 -28 66 -50t61 -22q46 0 77 36.5t48 119.5h76 q-16 -116 -69 -177t-132 -61q-36 0 -75 18.5t-101 71.5q-32 26 -62.5 46t-62.5 20q-45 0 -75 -34.5t-48 -121.5h-73z" horiz-adv-x="1208" unicode="ũ"/><glyph d="M190 520v942h103v-946q0 -211 117 -328.5t331 -117.5q209 0 324 115.5t115 320.5v956h102v-946q0 -252 -146 -394t-407 -142q-254 0 -396.5 142.5t-142.5 397.5zM459 1589v82h555v-82h-555z" horiz-adv-x="1473" unicode="Ū"/><glyph d="M170 377v710h98v-704q0 -164 69 -238.5t214 -74.5q194 0 285.5 98t91.5 319v600h98v-1087h-84l-18 150h-6q-106 -170 -377 -170q-371 0 -371 397zM328 1251v82h555v-82h-555z" horiz-adv-x="1208" unicode="ū"/><glyph d="M190 520v942h103v-946q0 -211 117 -328.5t331 -117.5q209 0 324 115.5t115 320.5v956h102v-946q0 -252 -146 -394t-407 -142q-254 0 -396.5 142.5t-142.5 397.5zM458 1825h82q14 -87 60.5 -124.5t134.5 -37.5t134.5 37.5t61.5 124.5h80q-30 -246 -278 -246 q-253 0 -275 246z" horiz-adv-x="1473" unicode="Ŭ"/><glyph d="M170 377v710h98v-704q0 -164 69 -238.5t214 -74.5q194 0 285.5 98t91.5 319v600h98v-1087h-84l-18 150h-6q-106 -170 -377 -170q-371 0 -371 397zM327 1487h82q14 -87 60.5 -124.5t134.5 -37.5t134.5 37.5t61.5 124.5h80q-30 -246 -278 -246q-253 0 -275 246z" horiz-adv-x="1208" unicode="ŭ"/><glyph d="M190 520v942h103v-946q0 -211 117 -328.5t331 -117.5q209 0 324 115.5t115 320.5v956h102v-946q0 -252 -146 -394t-407 -142q-254 0 -396.5 142.5t-142.5 397.5zM518 1794q0 94 60 152.5t157 58.5t157 -59t60 -152q0 -97 -60 -155t-157 -58t-157 58t-60 155zM598 1794 q0 -66 37.5 -103.5t99.5 -37.5t99.5 37.5t37.5 103.5q0 64 -39 101.5t-98 37.5q-62 0 -99.5 -38t-37.5 -101z" horiz-adv-x="1473" unicode="Ů"/><glyph d="M170 377v710h98v-704q0 -164 69 -238.5t214 -74.5q194 0 285.5 98t91.5 319v600h98v-1087h-84l-18 150h-6q-106 -170 -377 -170q-371 0 -371 397zM387 1456q0 94 60 152.5t157 58.5t157 -59t60 -152q0 -97 -60 -155t-157 -58t-157 58t-60 155zM467 1456 q0 -66 37.5 -103.5t99.5 -37.5t99.5 37.5t37.5 103.5q0 64 -39 101.5t-98 37.5q-62 0 -99.5 -38t-37.5 -101z" horiz-adv-x="1208" unicode="ů"/><glyph d="M190 520v942h103v-946q0 -211 117 -328.5t331 -117.5q209 0 324 115.5t115 320.5v956h102v-946q0 -252 -146 -394t-407 -142q-254 0 -396.5 142.5t-142.5 397.5zM475 1579v16q31 33 67 90t121 222h136v-17q-135 -202 -254 -311h-70zM813 1579v16q31 33 67 90t121 222h136 v-17q-135 -202 -254 -311h-70z" horiz-adv-x="1473" unicode="Ű"/><glyph d="M170 377v710h98v-704q0 -164 69 -238.5t214 -74.5q194 0 285.5 98t91.5 319v600h98v-1087h-84l-18 150h-6q-106 -170 -377 -170q-371 0 -371 397zM346 1241v16q31 33 67 90t121 222h136v-17q-135 -202 -254 -311h-70zM684 1241v16q31 33 67 90t121 222h136v-17 q-135 -202 -254 -311h-70z" horiz-adv-x="1208" unicode="ű"/><glyph d="M190 520v942h103v-946q0 -211 117 -328.5t331 -117.5q209 0 324 115.5t115 320.5v956h102v-946q0 -252 -146 -394t-407 -142q-254 0 -396.5 142.5t-142.5 397.5zM598 -264q0 70 40 139t112 125h90q-72 -63 -107.5 -119.5t-35.5 -128.5q0 -110 106 -110q49 0 82 12v-84 q-40 -16 -104 -16q-84 0 -133.5 47.5t-49.5 134.5z" horiz-adv-x="1473" unicode="Ų"/><glyph d="M170 377v710h98v-704q0 -164 69 -238.5t214 -74.5q194 0 285.5 98t91.5 319v600h98v-1087q-72 -63 -107.5 -119.5t-35.5 -128.5q0 -110 106 -110q49 0 82 12v-84q-40 -16 -104 -16q-84 0 -133.5 47.5t-49.5 134.5q0 70 40 139q39 69 117 129l-17 146h-6 q-106 -170 -377 -170q-186 0 -278.5 99t-92.5 298z" horiz-adv-x="1208" unicode="ų"/><glyph d="M51 1462h107l256 -942q15 -57 28 -105.5t23.5 -91t19 -82t15.5 -79.5q24 136 102 413l250 887h113l293 -1018q51 -176 73 -284q13 72 33.5 153t308.5 1149h103l-404 -1462h-84l-321 1128q-40 139 -60 228q-16 -87 -45.5 -200t-322.5 -1156h-86zM618 1579v16 q62 67 131.5 156t110.5 156h98q68 -120 242 -312v-16h-70q-122 101 -221 207q-108 -114 -221 -207h-70z" horiz-adv-x="1827" unicode="Ŵ"/><glyph d="M31 1087h106l174 -630q61 -234 80 -344h6q59 234 86 311l224 663h90l213 -661q72 -235 88 -311h6q8 65 80 348l166 624h100l-295 -1087h-104l-238 727q-23 74 -59 217h-6l-21 -74l-45 -145l-242 -725h-98zM459 1241v16q62 67 131.5 156t110.5 156h98q68 -120 242 -312 v-16h-70q-122 101 -221 207q-108 -114 -221 -207h-70z" horiz-adv-x="1481" unicode="ŵ"/><glyph d="M0 1462h117l426 -800l428 800h110l-487 -897v-565h-105v557zM251 1579v16q62 67 131.5 156t110.5 156h98q68 -120 242 -312v-16h-70q-122 101 -221 207q-108 -114 -221 -207h-70z" horiz-adv-x="1081" unicode="Ŷ"/><glyph d="M0 1087h102l230 -610q105 -281 133 -379h6q42 129 137 385l230 604h102l-487 -1263q-59 -154 -99 -208t-93.5 -81t-129.5 -27q-57 0 -127 21v86q58 -16 125 -16q51 0 90 24t70.5 74.5t73 160t53.5 142.5zM179 1241v16q62 67 131.5 156t110.5 156h98q68 -120 242 -312v-16 h-70q-122 101 -221 207q-108 -114 -221 -207h-70z" horiz-adv-x="940" unicode="ŷ"/><glyph d="M0 1462h117l426 -800l428 800h110l-487 -897v-565h-105v557zM288 1727q0 46 15.5 66t47.5 20q64 0 64 -86t-64 -86q-63 0 -63 86zM669 1727q0 46 15.5 66t47.5 20q64 0 64 -86t-64 -86q-63 0 -63 86z" horiz-adv-x="1081" unicode="Ÿ"/><glyph d="M82 0v76l856 1290h-817v96h954v-76l-858 -1290h881v-96h-1016zM481 1579v16q73 79 144.5 171.5t97.5 140.5h141v-17q-36 -52 -122.5 -138t-190.5 -173h-70z" horiz-adv-x="1180" unicode="Ź"/><glyph d="M82 0v63l645 936h-598v88h727v-63l-649 -936h651v-88h-776zM380 1241v16q73 79 144.5 171.5t97.5 140.5h141v-17q-36 -52 -122.5 -138t-190.5 -173h-70z" horiz-adv-x="944" unicode="ź"/><glyph d="M82 0v76l856 1290h-817v96h954v-76l-858 -1290h881v-96h-1016zM526 1727q0 96 64 96q31 0 48 -25t17 -71q0 -45 -17 -71t-48 -26q-64 0 -64 97z" horiz-adv-x="1180" unicode="Ż"/><glyph d="M82 0v63l645 936h-598v88h727v-63l-649 -936h651v-88h-776zM426 1389q0 96 64 96q31 0 48 -25t17 -71q0 -45 -17 -71t-48 -26q-64 0 -64 97z" horiz-adv-x="944" unicode="ż"/><glyph d="M82 0v76l856 1290h-817v96h954v-76l-858 -1290h881v-96h-1016zM309 1890v17h70q114 -94 221 -207q108 114 221 207h70v-17q-170 -188 -242 -311h-98q-76 128 -242 311z" horiz-adv-x="1180" unicode="Ž"/><glyph d="M82 0v63l645 936h-598v88h727v-63l-649 -936h651v-88h-776zM198 1552v17h70q114 -94 221 -207q108 114 221 207h70v-17q-170 -188 -242 -311h-98q-76 128 -242 311z" horiz-adv-x="944" unicode="ž"/><glyph d="M182 0v1180q0 203 74.5 295t239.5 92q90 0 180 -27l-23 -86q-80 25 -159 25q-116 0 -164.5 -68.5t-48.5 -222.5v-1188h-99z" horiz-adv-x="627" unicode="ſ"/><glyph d="M190 -383q78 -18 144 -18q176 0 176 217v1038h-207v59l207 37v146q0 201 76.5 294t240.5 93q82 0 183 -31l-25 -86q-89 29 -160 29q-115 0 -166 -67.5t-51 -223.5v-162h281v-88h-281v-1028q0 -155 -71 -236.5t-207 -81.5q-85 0 -140 19v90z" unicode="ƒ"/><glyph d="M129 735q0 349 175.5 549.5t479.5 200.5q330 0 500 -230q81 21 120.5 92t39.5 209h104l13 -18q-10 -147 -67.5 -232t-164.5 -120q107 -182 107 -453q0 -348 -174 -550.5t-480 -202.5q-305 0 -479 202.5t-174 552.5zM240 733q0 -314 140 -485.5t402 -171.5 q264 0 403.5 170t139.5 487q0 316 -139.5 484.5t-401.5 168.5q-261 0 -402.5 -170t-141.5 -483z" horiz-adv-x="1565" unicode="Ơ"/><glyph d="M119 545q0 266 129 414.5t354 148.5q219 0 348 -147q72 24 107.5 92t38.5 202h100l12 -18q-11 -144 -62 -225t-147 -119q82 -137 82 -348q0 -266 -129 -415.5t-356 -149.5q-143 0 -252 69t-167 198t-58 298zM223 545q0 -224 98.5 -349.5t278.5 -125.5t278.5 125.5 t98.5 349.5q0 225 -99.5 349t-279.5 124t-277.5 -123.5t-97.5 -349.5z" horiz-adv-x="1200" unicode="ơ"/><glyph d="M190 520v942h103v-946q0 -211 117 -328.5t331 -117.5q209 0 324 115.5t115 320.5v956h102v-207q89 19 130.5 89t41.5 212h105l12 -18q-12 -167 -85.5 -254.5t-203.5 -112.5v-655q0 -252 -146 -394t-407 -142q-254 0 -396.5 142.5t-142.5 397.5z" horiz-adv-x="1497" unicode="Ư"/><glyph d="M170 377v710h98v-704q0 -164 72.5 -238.5t224.5 -74.5q189 0 276 99t87 318v600h98v-122q66 11 104.5 44t55 90t16.5 167h101l12 -19q-9 -123 -41 -190t-91.5 -113t-156.5 -63v-881h-84l-18 150h-6q-52 -82 -143.5 -126t-209.5 -44q-201 0 -298 98t-97 299z" horiz-adv-x="1262" unicode="ư"/><glyph d="M-98 -381q69 -20 129 -20q151 0 151 176v1312h99v-1298q0 -135 -63.5 -208t-180.5 -73q-80 0 -135 25v86zM-58 1552v17h70q114 -94 221 -207q108 114 221 207h70v-17q-170 -188 -242 -311h-98q-76 128 -242 311z" horiz-adv-x="463" unicode="ǰ"/><glyph d="M-12 0l565 1206q-68 17 -110 69t-42 136q0 94 60 152.5t157 58.5q98 0 158 -58t60 -153q0 -81 -41 -133t-109 -72l553 -1206h-115l-200 446h-617l-209 -446h-110zM346 539h539l-207 454q-24 52 -60 154q-23 -70 -63 -160zM481 1411q0 -66 38 -103.5t99 -37.5 q62 0 100 37.5t38 103.5q0 64 -39 101.5t-99 37.5t-98.5 -38t-38.5 -101zM561 1673v17q103 111 191 272h141v-16q-44 -61 -121.5 -141t-140.5 -132h-70z" horiz-adv-x="1229" unicode="Ǻ"/><glyph d="M98 289q0 159 132.5 247t383.5 93l207 6v72q0 155 -63 234t-203 79q-151 0 -313 -84l-37 86q179 84 354 84q179 0 267.5 -93t88.5 -290v-723h-73l-25 172h-8q-82 -105 -168.5 -148.5t-204.5 -43.5q-160 0 -249 82t-89 227zM203 285q0 -102 62.5 -158.5t176.5 -56.5 q174 0 274.5 99.5t100.5 276.5v107l-190 -8q-229 -11 -326.5 -71.5t-97.5 -188.5zM324 1413q0 94 60 152.5t157 58.5t157 -59t60 -152q0 -97 -60 -155t-157 -58t-157 58t-60 155zM403 1413q0 -66 38 -103.5t100 -37.5t99.5 37.5t37.5 103.5q0 64 -39 101.5t-98 37.5 q-60 0 -99 -37.5t-39 -101.5zM467 1700v12q48 50 101.5 123t86.5 127h138v-14q-35 -45 -112.5 -120t-145.5 -128h-68z" horiz-adv-x="1085" unicode="ǻ"/><glyph d="M-2 0l653 1462h877v-94h-615v-553h576v-94h-576v-627h615v-94h-717v516h-475l-227 -516h-111zM377 608h434v760h-100zM891 1579v16q73 79 144.5 171.5t97.5 140.5h141v-17q-36 -52 -122.5 -138t-190.5 -173h-70z" horiz-adv-x="1653" unicode="Ǽ"/><glyph d="M98 289q0 154 125 243t377 97l201 6v72q0 155 -61.5 234t-198.5 79q-148 0 -305 -84l-37 86q173 84 346 84q261 0 325 -211q111 213 347 213q184 0 289.5 -134.5t105.5 -363.5v-80h-715q0 -460 348 -460q85 0 150 12t174 57v-90q-92 -41 -165 -55t-161 -14 q-295 0 -397 256q-68 -133 -168 -194.5t-252 -61.5q-156 0 -242 82.5t-86 226.5zM203 285q0 -102 61 -158.5t170 -56.5q169 0 266 99.5t97 276.5v107l-187 -8q-219 -11 -313 -71.5t-94 -188.5zM903 618h604q0 188 -77.5 295t-212.5 107q-284 0 -314 -402zM774 1241v16 q73 79 144.5 171.5t97.5 140.5h141v-17q-36 -52 -122.5 -138t-190.5 -173h-70z" horiz-adv-x="1731" unicode="ǽ"/><glyph d="M129 735q0 349 175.5 549.5t479.5 200.5q232 0 392 -121l108 152l72 -60l-111 -153q191 -207 191 -570q0 -348 -174 -550.5t-480 -202.5q-236 0 -395 120l-86 -120l-74 59l90 127q-188 200 -188 569zM240 733q0 -312 139 -483l739 1034q-133 102 -334 102 q-261 0 -402.5 -170t-141.5 -483zM444 182q133 -106 338 -106q264 0 403.5 170t139.5 487q0 315 -139 486zM686 1579v16q73 79 144.5 171.5t97.5 140.5h141v-17q-36 -52 -122.5 -138t-190.5 -173h-70z" horiz-adv-x="1565" unicode="Ǿ"/><glyph d="M119 545q0 266 129 414.5t354 148.5q179 0 301 -104l96 124l74 -55l-104 -137q112 -147 112 -391q0 -266 -129 -415.5t-356 -149.5q-173 0 -291 98l-86 -113l-72 58l93 120q-121 153 -121 402zM223 545q0 -200 78 -322l543 705q-98 90 -246 90q-180 0 -277.5 -123.5 t-97.5 -349.5zM362 152q94 -82 238 -82q180 0 278.5 125.5t98.5 349.5q0 190 -72 309zM499 1241v16q73 79 144.5 171.5t97.5 140.5h141v-17q-36 -52 -122.5 -138t-190.5 -173h-70z" horiz-adv-x="1200" unicode="ǿ"/><glyph d="M111 39v102q158 -67 403 -67q180 0 285.5 82.5t105.5 216.5q0 83 -35 137.5t-114 99.5t-232 97q-224 77 -309.5 166.5t-85.5 238.5q0 164 128.5 267.5t330.5 103.5q206 0 387 -78l-37 -88q-182 76 -348 76q-162 0 -258 -75t-96 -204q0 -81 29.5 -133t96.5 -93.5 t230 -99.5q171 -59 257 -114.5t125.5 -126t39.5 -170.5q0 -183 -134.5 -290t-357.5 -107q-268 0 -411 59zM428 -436q25 54 50 145t36 166h113v-14q-23 -82 -63.5 -167.5t-81.5 -146.5h-54v17z" horiz-adv-x="1116" unicode="Ș"/><glyph d="M84 47v107q164 -82 346 -82q161 0 244.5 53.5t83.5 142.5q0 82 -66.5 138t-218.5 110q-163 59 -229 101.5t-99.5 96t-33.5 130.5q0 122 102.5 193t286.5 71q176 0 334 -66l-37 -90q-160 66 -297 66q-133 0 -211 -44t-78 -122q0 -85 60.5 -136t236.5 -114 q147 -53 214 -95.5t100.5 -96.5t33.5 -127q0 -146 -111 -224.5t-315 -78.5q-218 0 -346 67zM326 -436q25 54 50 145t36 166h113v-14q-23 -82 -63.5 -167.5t-81.5 -146.5h-54v17z" horiz-adv-x="954" unicode="ș"/><glyph d="M10 1366v96h1053v-96h-475v-1366h-103v1366h-475zM403 -436q25 54 50 145t36 166h113v-14q-23 -82 -63.5 -167.5t-81.5 -146.5h-54v17z" horiz-adv-x="1073" unicode="Ț"/><glyph d="M25 1001v58l161 45l50 246h51v-263h319v-86h-319v-688q0 -125 44 -185t138 -60t164 16v-80q-72 -24 -166 -24q-144 0 -212.5 77t-68.5 242v702h-161zM263 -436q25 54 50 145t36 166h113v-14q-23 -82 -63.5 -167.5t-81.5 -146.5h-54v17z" horiz-adv-x="686" unicode="ț"/><glyph d="M-98 -381q69 -20 129 -20q151 0 151 176v1312h99v-1298q0 -135 -63.5 -208t-180.5 -73q-80 0 -135 25v86z" horiz-adv-x="463" unicode="ȷ"/><glyph d="M29 961q29 96 61 241.5t49 259.5h117l12 -20q-75 -265 -174 -481h-65z" horiz-adv-x="297" unicode="ʼ"/><glyph d="M299 1241v16q62 67 131.5 156t110.5 156h98q68 -120 242 -312v-16h-70q-122 101 -221 207q-108 -114 -221 -207h-70z" horiz-adv-x="1182" unicode="ˆ"/><glyph d="M299 1552v17h70q114 -94 221 -207q108 114 221 207h70v-17q-170 -188 -242 -311h-98q-76 128 -242 311z" horiz-adv-x="1182" unicode="ˇ"/><glyph d="M293 1251v82h555v-82h-555z" horiz-adv-x="1141" unicode="ˉ"/><glyph d="M311 1487h82q14 -87 60.5 -124.5t134.5 -37.5t134.5 37.5t61.5 124.5h80q-30 -246 -278 -246q-253 0 -275 246z" horiz-adv-x="1182" unicode="˘"/><glyph d="M178 1389q0 96 64 96q31 0 48 -25t17 -71q0 -45 -17 -71t-48 -26q-64 0 -64 97z" horiz-adv-x="483" unicode="˙"/><glyph d="M371 1456q0 94 60 152.5t157 58.5t157 -59t60 -152q0 -97 -60 -155t-157 -58t-157 58t-60 155zM451 1456q0 -66 37.5 -103.5t99.5 -37.5t99.5 37.5t37.5 103.5q0 64 -39 101.5t-98 37.5q-62 0 -99.5 -38t-37.5 -101z" horiz-adv-x="1182" unicode="˚"/><glyph d="M63 -264q0 70 40 139t112 125h90q-72 -63 -107.5 -119.5t-35.5 -128.5q0 -110 106 -110q49 0 82 12v-84q-40 -16 -104 -16q-84 0 -133.5 47.5t-49.5 134.5z" horiz-adv-x="356" unicode="˛"/><glyph d="M283 1243q10 111 63 174.5t137 63.5q48 0 88 -25t82 -59q34 -28 66 -50t61 -22q46 0 77 36.5t48 119.5h76q-16 -116 -69 -177t-132 -61q-36 0 -75 18.5t-101 71.5q-32 26 -62.5 46t-62.5 20q-45 0 -75 -34.5t-48 -121.5h-73z" horiz-adv-x="1182" unicode="˜"/><glyph d="M258 1241v16q31 33 67 90t121 222h136v-17q-135 -202 -254 -311h-70zM596 1241v16q31 33 67 90t121 222h136v-17q-135 -202 -254 -311h-70z" horiz-adv-x="1182" unicode="˝"/><glyph d="M123 -338q0 94 60 152.5t157 58.5t157 -59t60 -152q0 -97 -60 -155t-157 -58t-157 58t-60 155zM203 -338q0 -66 37.5 -103.5t99.5 -37.5t99.5 37.5t37.5 103.5q0 64 -39 101.5t-98 37.5q-62 0 -99.5 -38t-37.5 -101z" horiz-adv-x="682" unicode="˳"/><glyph d="M-884 1552v17h142q26 -48 98.5 -142t142.5 -170v-16h-69q-96 79 -188.5 171.5t-125.5 139.5z" horiz-adv-x="0" unicode="̀"/><glyph d="M-708 1241v16q73 79 144.5 171.5t97.5 140.5h141v-17q-36 -52 -122.5 -138t-190.5 -173h-70z" horiz-adv-x="0" unicode="́"/><glyph d="M-943 1243q10 111 63 174.5t137 63.5q48 0 88 -25t82 -59q34 -28 66 -50t61 -22q46 0 77 36.5t48 119.5h76q-16 -116 -69 -177t-132 -61q-36 0 -75 18.5t-101 71.5q-32 26 -62.5 46t-62.5 20q-45 0 -75 -34.5t-48 -121.5h-73z" horiz-adv-x="0" unicode="̃"/><glyph d="M-748 1589v78q52 12 107 12q108 0 168.5 -45.5t60.5 -128.5q0 -140 -168 -176l-10 -121h-80l-10 178q89 15 129.5 43t40.5 72q0 48 -33.5 72t-111.5 24q-48 0 -93 -8z" horiz-adv-x="0" unicode="̉"/><glyph d="M-1012 1552v17h135q76 -148 115.5 -212t73.5 -100v-16h-70q-57 50 -131.5 142.5t-122.5 168.5zM-674 1552v17h135q79 -154 118 -216t71 -96v-16h-70q-57 50 -131.5 142.5t-122.5 168.5z" horiz-adv-x="0" unicode="̏"/><glyph d="M-662 -227q0 96 64 96q31 0 48.5 -25t17.5 -71q0 -45 -17.5 -71t-48.5 -26q-64 0 -64 97z" horiz-adv-x="0" unicode="̣"/><glyph d="M530 1241v16q29 75 57 184t42 210h119v-17q-18 -77 -63 -191t-97 -202h-58z" horiz-adv-x="1182" unicode="΄"/><glyph d="M309 1389q0 86 64 86q63 0 63 -86t-63 -86q-64 0 -64 86zM526 1389v16q75 164 115 311h117v-18q-21 -52 -72.5 -145t-101.5 -164h-58zM745 1389q0 86 64 86q63 0 63 -86t-63 -86q-64 0 -64 86z" horiz-adv-x="1182" unicode="΅"/><glyph d="M0 0l588 1468h65l576 -1468h-115l-203 516h-594l-204 -516h-113zM354 608h523l-199 527q-25 62 -60 172q-27 -96 -59 -174zM76 1136v16q29 75 57 184t42 210h119v-17q-18 -77 -63 -191t-97 -202h-58z" horiz-adv-x="1229" unicode="Ά"/><glyph d="M162 721q0 98 80 98q82 0 82 -98t-82 -98q-80 0 -80 98z" horiz-adv-x="487" unicode="·"/><glyph d="M297 0v1462h799v-94h-697v-553h658v-94h-658v-627h697v-94h-799zM-40 1136v16q29 75 57 184t42 210h119v-17q-18 -77 -63 -191t-97 -202h-58z" horiz-adv-x="1221" unicode="Έ"/><glyph d="M297 0v1462h102v-649h854v649h103v-1462h-103v719h-854v-719h-102zM-40 1136v16q29 75 57 184t42 210h119v-17q-18 -77 -63 -191t-97 -202h-58z" horiz-adv-x="1563" unicode="Ή"/><glyph d="M293 0v1462h102v-1462h-102zM-40 1136v16q29 75 57 184t42 210h119v-17q-18 -77 -63 -191t-97 -202h-58z" horiz-adv-x="602" unicode="Ί"/><glyph d="M141 735q0 349 175.5 549.5t479.5 200.5q306 0 479 -201.5t173 -550.5q0 -348 -174 -550.5t-480 -202.5q-305 0 -479 202.5t-174 552.5zM252 733q0 -314 140 -485.5t402 -171.5q264 0 403.5 170t139.5 487q0 316 -139.5 484.5t-401.5 168.5q-261 0 -402.5 -170 t-141.5 -483zM-40 1136v16q29 75 57 184t42 210h119v-17q-18 -77 -63 -191t-97 -202h-58z" horiz-adv-x="1577" unicode="Ό"/><glyph d="M240 1462h117l426 -800l428 800h110l-487 -897v-565h-105v557zM-40 1136v16q29 75 57 184t42 210h119v-17q-18 -77 -63 -191t-97 -202h-58z" horiz-adv-x="1321" unicode="Ύ"/><glyph d="M102 0v94h407q-133 118 -205.5 224.5t-110.5 232t-38 270.5q0 200 80 351t229.5 232t348.5 81q311 0 485 -174t174 -488q0 -209 -80.5 -384t-269.5 -345h403v-94h-565v72q215 175 308 350t93 405q0 262 -146 414t-402 152q-251 0 -399 -151.5t-148 -412.5 q0 -226 90.5 -397.5t312.5 -359.5v-72h-567zM-40 1136v16q29 75 57 184t42 210h119v-17q-18 -77 -63 -191t-97 -202h-58z" horiz-adv-x="1608" unicode="Ώ"/><glyph d="M166 303v784h98v-774q0 -134 46.5 -189.5t152.5 -55.5q65 0 129 16v-84q-20 -7 -61 -13.5t-78 -6.5q-152 0 -219.5 80t-67.5 243zM-50 1389q0 86 64 86q63 0 63 -86t-63 -86q-64 0 -64 86zM167 1389v16q75 164 115 311h117v-18q-21 -52 -72.5 -145t-101.5 -164h-58z M386 1389q0 86 64 86q63 0 63 -86t-63 -86q-64 0 -64 86z" horiz-adv-x="629" unicode="ΐ"/><glyph d="M0 0l588 1468h65l576 -1468h-115l-203 516h-594l-204 -516h-113zM354 608h523l-199 527q-25 62 -60 172q-27 -96 -59 -174z" horiz-adv-x="1229" unicode="Α"/><glyph d="M207 0v1462h401q271 0 398 -92t127 -278q0 -127 -77.5 -211.5t-226.5 -108.5v-6q175 -26 257.5 -110.5t82.5 -235.5q0 -202 -134 -311t-380 -109h-448zM309 90h344q406 0 406 330q0 301 -428 301h-322v-631zM309 811h322q206 0 299.5 68.5t93.5 214.5t-105.5 212 t-314.5 66h-295v-561z" horiz-adv-x="1284" unicode="Β"/><glyph d="M207 0v1462h801v-94h-699v-1368h-102z" horiz-adv-x="1028" unicode="Γ"/><glyph d="M20 0v59l521 1403h80l528 -1405v-57h-1129zM139 96h889q-391 1054 -448 1219q-53 -153 -441 -1219z" unicode="Δ"/><glyph d="M207 0v1462h799v-94h-697v-553h658v-94h-658v-627h697v-94h-799z" horiz-adv-x="1130" unicode="Ε"/><glyph d="M82 0v76l856 1290h-817v96h954v-76l-858 -1290h881v-96h-1016z" horiz-adv-x="1180" unicode="Ζ"/><glyph d="M207 0v1462h102v-649h854v649h103v-1462h-103v719h-854v-719h-102z" horiz-adv-x="1473" unicode="Η"/><glyph d="M129 735q0 349 175.5 549.5t479.5 200.5q306 0 479 -201.5t173 -550.5q0 -348 -174 -550.5t-480 -202.5q-305 0 -479 202.5t-174 552.5zM240 733q0 -314 140 -485.5t402 -171.5q264 0 403.5 170t139.5 487q0 316 -139.5 484.5t-401.5 168.5q-261 0 -402.5 -170 t-141.5 -483zM449 698v95h665v-95h-665z" horiz-adv-x="1565" unicode="Θ"/><glyph d="M207 0v1462h102v-1462h-102z" horiz-adv-x="516" unicode="Ι"/><glyph d="M207 0v1462h102v-760l162 162l573 598h130l-599 -618l615 -844h-125l-561 772l-195 -172v-600h-102z" horiz-adv-x="1190" unicode="Κ"/><glyph d="M0 0l596 1468h49l584 -1468h-115l-436 1120q-23 60 -60 172q-29 -100 -59 -174l-446 -1118h-113z" horiz-adv-x="1229" unicode="Λ"/><glyph d="M207 0v1462h158l518 -1286h6l518 1286h154v-1462h-103v1108q0 116 12 240h-8l-547 -1348h-65l-545 1350h-8q8 -124 8 -254v-1096h-98z" horiz-adv-x="1767" unicode="Μ"/><glyph d="M207 0v1462h102l865 -1296h6q-9 180 -9 342v954h99v-1462h-103l-866 1298h-8q12 -232 12 -350v-948h-98z" horiz-adv-x="1477" unicode="Ν"/><glyph d="M41 0v94h1006v-94h-1006zM82 1368v94h924v-94h-924zM164 721v94h760v-94h-760z" horiz-adv-x="1087" unicode="Ξ"/><glyph d="M129 735q0 349 175.5 549.5t479.5 200.5q306 0 479 -201.5t173 -550.5q0 -348 -174 -550.5t-480 -202.5q-305 0 -479 202.5t-174 552.5zM240 733q0 -314 140 -485.5t402 -171.5q264 0 403.5 170t139.5 487q0 316 -139.5 484.5t-401.5 168.5q-261 0 -402.5 -170 t-141.5 -483z" horiz-adv-x="1565" unicode="Ο"/><glyph d="M207 0v1462h1048v-1462h-102v1366h-844v-1366h-102z" horiz-adv-x="1462" unicode="Π"/><glyph d="M207 0v1462h358q522 0 522 -420q0 -212 -144 -325t-408 -113h-226v-604h-102zM309 692h201q247 0 357 81.5t110 264.5q0 169 -104 250.5t-322 81.5h-242v-678z" horiz-adv-x="1198" unicode="Ρ"/><glyph d="M61 0v84l533 676l-520 620v82h964v-94h-647l-182 2l514 -604l-530 -672h905v-94h-1037z" horiz-adv-x="1128" unicode="Σ"/><glyph d="M10 1366v96h1053v-96h-475v-1366h-103v1366h-475z" horiz-adv-x="1073" unicode="Τ"/><glyph d="M0 1462h117l426 -800l428 800h110l-487 -897v-565h-105v557z" horiz-adv-x="1081" unicode="Υ"/><glyph d="M111 758q0 156 70 281.5t201 194.5t310 69h37v180h102v-180h43q275 0 425.5 -141t150.5 -392q0 -174 -69.5 -301t-206 -195.5t-332.5 -68.5h-11v-225h-102v225h-18q-193 0 -327.5 68t-203.5 191t-69 294zM221 764q0 -227 128.5 -351t363.5 -124h16v930h-41 q-219 0 -343 -122t-124 -333zM831 289h15q236 0 364.5 124.5t128.5 352.5q0 219 -120 336t-345 117h-43v-930z" horiz-adv-x="1561" unicode="Φ"/><glyph d="M0 0l492 762l-447 700h115l395 -626l401 626h109l-453 -698l490 -764h-117l-432 682l-440 -682h-113z" horiz-adv-x="1102" unicode="Χ"/><glyph d="M123 979v483h102v-479q0 -226 117 -333t356 -107h23v919h102v-919h23q239 0 356 107t117 333v479h102v-483q0 -265 -146 -395.5t-425 -130.5h-27v-453h-102v453h-27q-280 0 -425.5 130.5t-145.5 395.5z" horiz-adv-x="1565" unicode="Ψ"/><glyph d="M82 0v94h407q-133 118 -205.5 224.5t-110.5 232t-38 270.5q0 200 80 351t229.5 232t348.5 81q311 0 485 -174t174 -488q0 -209 -80.5 -384t-269.5 -345h403v-94h-565v72q215 175 308 350t93 405q0 262 -146 414t-402 152q-251 0 -399 -151.5t-148 -412.5 q0 -226 90.5 -397.5t312.5 -359.5v-72h-567z" horiz-adv-x="1587" unicode="Ω"/><glyph d="M207 0v1462h102v-1462h-102zM5 1727q0 46 15.5 66t47.5 20q64 0 64 -86t-64 -86q-63 0 -63 86zM386 1727q0 46 15.5 66t47.5 20q64 0 64 -86t-64 -86q-63 0 -63 86z" horiz-adv-x="516" unicode="Ϊ"/><glyph d="M0 1462h117l426 -800l428 800h110l-487 -897v-565h-105v557zM288 1727q0 46 15.5 66t47.5 20q64 0 64 -86t-64 -86q-63 0 -63 86zM669 1727q0 46 15.5 66t47.5 20q64 0 64 -86t-64 -86q-63 0 -63 86z" horiz-adv-x="1081" unicode="Ϋ"/><glyph d="M119 539q0 275 120.5 422t346.5 147q128 0 216 -56.5t142 -177.5h6q4 52 18.5 119.5t24.5 93.5h74q-41 -134 -41 -391v-495q0 -142 90 -142q37 0 64 11v-72q-29 -18 -82 -18q-146 0 -164 188h-8q-63 -98 -148 -143t-200 -45q-226 0 -342.5 143t-116.5 416zM223 541 q0 -473 355 -473q180 0 265 108.5t85 353.5v35q0 237 -85.5 345t-267.5 108q-169 0 -260.5 -123.5t-91.5 -353.5zM567 1241v16q29 75 57 184t42 210h119v-17q-18 -77 -63 -191t-97 -202h-58z" horiz-adv-x="1208" unicode="ά"/><glyph d="M94 287q0 224 248 284v9q-215 63 -215 239q0 133 103 211t282 78q96 0 174.5 -15.5t165.5 -52.5l-37 -84q-148 64 -303 64q-142 0 -211.5 -53t-69.5 -150q0 -199 326 -199h115v-86h-140q-169 0 -251 -62.5t-82 -174.5q0 -105 87 -165t244 -60q76 0 140 14t174 66v-93 q-135 -77 -322 -77q-202 0 -315 81t-113 226zM451 1241v16q29 75 57 184t42 210h119v-17q-18 -77 -63 -191t-97 -202h-58z" horiz-adv-x="928" unicode="έ"/><glyph d="M182 0v1087h84l19 -149h6q54 87 147 128.5t205 41.5q201 0 298 -99t97 -298v-1203h-98v1197q0 164 -72.5 238.5t-224.5 74.5q-189 0 -275.5 -99.5t-86.5 -318.5v-600h-99zM561 1241v16q29 75 57 184t42 210h119v-17q-18 -77 -63 -191t-97 -202h-58z" horiz-adv-x="1208" unicode="ή"/><glyph d="M166 303v784h98v-774q0 -134 46.5 -189.5t152.5 -55.5q65 0 129 16v-84q-20 -7 -61 -13.5t-78 -6.5q-152 0 -219.5 80t-67.5 243zM171 1241v16q29 75 57 184t42 210h119v-17q-18 -77 -63 -191t-97 -202h-58z" horiz-adv-x="629" unicode="ί"/><glyph d="M166 492v595h98v-606q0 -201 82.5 -307t263.5 -106q189 0 282 132t93 404q0 127 -13 237t-46 246h98q31 -116 46 -231.5t15 -259.5q0 -318 -121.5 -467t-361.5 -149q-219 0 -327.5 125t-108.5 387zM325 1389q0 86 64 86q63 0 63 -86t-63 -86q-64 0 -64 86zM542 1389v16 q75 164 115 311h117v-18q-21 -52 -72.5 -145t-101.5 -164h-58zM761 1389q0 86 64 86q63 0 63 -86t-63 -86q-64 0 -64 86z" horiz-adv-x="1219" unicode="ΰ"/><glyph d="M119 539q0 275 120.5 422t346.5 147q128 0 216 -56.5t142 -177.5h6q4 52 18.5 119.5t24.5 93.5h74q-41 -134 -41 -391v-495q0 -142 90 -142q37 0 64 11v-72q-29 -18 -82 -18q-146 0 -164 188h-8q-63 -98 -148 -143t-200 -45q-226 0 -342.5 143t-116.5 416zM223 541 q0 -473 355 -473q180 0 265 108.5t85 353.5v35q0 237 -85.5 345t-267.5 108q-169 0 -260.5 -123.5t-91.5 -353.5z" horiz-adv-x="1208" unicode="α"/><glyph d="M182 -492v1586q0 224 121 348.5t346 124.5q204 0 319 -102t115 -283q0 -140 -72.5 -232.5t-213.5 -118.5v-6q176 -24 261 -124t85 -287q0 -201 -132 -313.5t-358 -112.5q-183 0 -372 100v-580h-99zM281 170q109 -58 194 -81t176 -23q187 0 292.5 91t105.5 255 q0 364 -392 364h-118v88h106q164 0 249 81.5t85 238.5q0 139 -87 217t-245 78q-182 0 -274 -97t-92 -284v-928z" horiz-adv-x="1245" unicode="β"/><glyph d="M10 1087h103l268 -645l125 -313h6l86 238l272 720h103l-404 -1040q-44 -116 -74.5 -269t-35.5 -270h-99q0 92 30 238.5t73 265.5z" horiz-adv-x="983" unicode="γ"/><glyph d="M117 434q0 195 109.5 319t346.5 187q-158 89 -220 169.5t-62 180.5q0 122 93.5 199.5t242.5 77.5q97 0 187.5 -20.5t213.5 -80.5l-45 -86q-112 57 -191.5 78t-162.5 21q-109 0 -172.5 -50.5t-63.5 -134.5t53 -141.5t238 -165.5q166 -95 241 -165.5t110.5 -153.5 t35.5 -197q0 -229 -126.5 -360t-350.5 -131q-217 0 -347 124.5t-130 329.5zM221 434q0 -166 101.5 -266t273.5 -100q177 0 274 104.5t97 300.5q0 135 -70.5 232t-237.5 182q-148 -36 -222.5 -75.5t-120.5 -92t-70.5 -123t-24.5 -162.5z" horiz-adv-x="1190" unicode="δ"/><glyph d="M94 287q0 224 248 284v9q-215 63 -215 239q0 133 103 211t282 78q96 0 174.5 -15.5t165.5 -52.5l-37 -84q-148 64 -303 64q-142 0 -211.5 -53t-69.5 -150q0 -199 326 -199h115v-86h-140q-169 0 -251 -62.5t-82 -174.5q0 -105 87 -165t244 -60q76 0 140 14t174 66v-93 q-135 -77 -322 -77q-202 0 -315 81t-113 226z" horiz-adv-x="928" unicode="ε"/><glyph d="M119 459q0 100 25.5 192t71.5 179.5t112.5 175t154 181.5t293.5 290q-105 -7 -364 -7h-230v86h717v-75q-256 -236 -401.5 -407.5t-210 -313.5t-64.5 -297q0 -113 29 -176.5t95 -103t198 -68.5q153 -33 216.5 -62t92.5 -72t29 -110q0 -60 -25 -123t-88 -149h-96 q114 155 114 258q0 49 -26 76.5t-85 49.5t-165 42q-209 38 -301 142t-92 292z" horiz-adv-x="956" unicode="ζ"/><glyph d="M182 0v1087h84l19 -149h6q54 87 147 128.5t205 41.5q201 0 298 -99t97 -298v-1203h-98v1197q0 164 -72.5 238.5t-224.5 74.5q-189 0 -275.5 -99.5t-86.5 -318.5v-600h-99z" horiz-adv-x="1208" unicode="η"/><glyph d="M119 780q0 392 119.5 595.5t347.5 203.5q463 0 463 -797q0 -399 -118 -600.5t-351 -201.5q-461 0 -461 800zM217 760q12 -692 365 -692t368 692h-733zM217 846h731q-12 328 -103 486.5t-265 158.5q-176 0 -263.5 -164.5t-99.5 -480.5z" horiz-adv-x="1167" unicode="θ"/><glyph d="M166 303v784h98v-774q0 -134 46.5 -189.5t152.5 -55.5q65 0 129 16v-84q-20 -7 -61 -13.5t-78 -6.5q-152 0 -219.5 80t-67.5 243z" horiz-adv-x="629" unicode="ι"/><glyph d="M182 0v1087h99v-311l-7 -299h5l555 610h120l-428 -464l465 -623h-119l-413 549l-178 -162v-387h-99z" horiz-adv-x="991" unicode="κ"/><glyph d="M-12 0l477 1092l-55 165q-35 107 -60 148.5t-58 62.5t-81 21q-44 0 -102 -12v75q63 17 114 17q68 0 112 -23t78 -76.5t81 -185.5l401 -1139q15 -43 33 -64.5t47 -21.5q31 0 55 11v-74q-30 -16 -78 -16q-52 0 -85.5 32t-59.5 105l-172 489q-96 280 -123 389h-4 q-32 -95 -76.5 -202t-339.5 -793h-104z" horiz-adv-x="1030" unicode="λ"/><glyph d="M182 -492v1579h99v-704q0 -164 69 -238.5t213 -74.5q194 0 285.5 98t91.5 319v600h98v-1087h-84l-18 150h-6q-50 -77 -150 -123.5t-217 -46.5q-99 0 -167.5 27.5t-119.5 84.5q5 -92 5 -170v-414h-99z" horiz-adv-x="1221" unicode="μ"/><glyph d="M-2 1087h102q290 -781 318 -858.5t49 -140.5h6q399 369 399 999h95q0 -352 -110 -607.5t-349 -479.5h-102z" horiz-adv-x="1051" unicode="ν"/><glyph d="M119 422q0 144 80 247.5t225 145.5v10q-121 36 -178.5 107t-57.5 182q0 131 85 226.5t245 138.5q-69 -9 -248 -9h-88v86h670v-79h-16q-155 0 -286 -47t-201 -128.5t-70 -183.5q0 -254 380 -254h150v-84h-150q-200 0 -318 -96.5t-118 -255.5q0 -93 32.5 -152.5t98.5 -97 t230 -72.5q174 -38 236.5 -89t62.5 -148q0 -119 -113 -270h-96q114 157 114 256q0 50 -26.5 79t-85 50t-164.5 41q-207 38 -300 137t-93 260z" horiz-adv-x="940" unicode="ξ"/><glyph d="M119 545q0 266 129 414.5t354 148.5q224 0 351.5 -150.5t127.5 -412.5q0 -266 -129 -415.5t-356 -149.5q-143 0 -252 69t-167 198t-58 298zM223 545q0 -224 98.5 -349.5t278.5 -125.5t278.5 125.5t98.5 349.5q0 225 -99.5 349t-279.5 124t-277.5 -123.5t-97.5 -349.5z" horiz-adv-x="1200" unicode="ο"/><glyph d="M25 1001v58l165 28h1006v-86h-221v-778q0 -155 110 -155q42 0 68 12v-84q-37 -16 -82 -16q-91 0 -142.5 58t-51.5 171v792h-533v-1001h-98v1001h-221z" horiz-adv-x="1253" unicode="π"/><glyph d="M176 -492v1059q0 268 114 404.5t337 136.5q221 0 335.5 -142t114.5 -419q0 -279 -124.5 -423t-366.5 -144q-84 0 -167.5 26.5t-148.5 79.5h-2l3 -94l3 -187v-297h-98zM274 190q68 -61 142.5 -91.5t171.5 -30.5q195 0 290 117.5t95 361.5q0 232 -85.5 351.5t-269.5 119.5 q-179 0 -261.5 -110.5t-82.5 -344.5v-373z" horiz-adv-x="1196" unicode="ρ"/><glyph d="M119 508q0 286 134 443t380 157q138 0 268 -49l-27 -88q-69 23 -136 35t-109 12q-406 0 -406 -504q0 -141 35 -213t114 -120t218 -77q161 -34 227 -86t66 -147q0 -44 -12.5 -85.5t-31 -78.5t-69.5 -108h-96q55 74 84.5 142t29.5 118q0 65 -59 100t-207 64 q-157 31 -241.5 92t-123 160.5t-38.5 232.5z" horiz-adv-x="973" unicode="ς"/><glyph d="M119 514q0 282 149.5 427.5t436.5 145.5h448v-86h-254q174 -200 174 -483q0 -249 -127.5 -393.5t-353.5 -144.5q-222 0 -347.5 142.5t-125.5 391.5zM223 514q0 -209 97 -326.5t276 -117.5q177 0 275 116t98 318q0 297 -181 497h-79q-246 0 -366 -119t-120 -368z" horiz-adv-x="1202" unicode="σ"/><glyph d="M20 1001v58l162 28h666v-86h-430v-677q0 -131 54.5 -194.5t174.5 -63.5q75 0 146 20v-84q-57 -22 -168 -22q-153 0 -230.5 85t-77.5 246v690h-297z" horiz-adv-x="913" unicode="τ"/><glyph d="M166 492v595h98v-606q0 -201 82.5 -307t263.5 -106q189 0 282 132t93 404q0 127 -13 237t-46 246h98q31 -116 46 -231.5t15 -259.5q0 -318 -121.5 -467t-361.5 -149q-219 0 -327.5 125t-108.5 387z" horiz-adv-x="1219" unicode="υ"/><glyph d="M119 553q0 290 200 537l80 -56q-102 -138 -139 -248t-37 -233q0 -221 103 -344t311 -141v682q0 358 283 358q165 0 257.5 -140.5t92.5 -385.5q0 -180 -66 -311.5t-186.5 -205.5t-282.5 -85v-472h-98v472q-256 17 -387 161.5t-131 411.5zM735 68q128 11 226.5 75.5 t151 175.5t52.5 261q0 204 -69.5 321t-182.5 117q-88 0 -133 -69.5t-45 -196.5v-684z" horiz-adv-x="1389" unicode="φ"/><glyph d="M-20 -492l477 826l-228 563q-27 67 -53 96t-61 29q-29 0 -66 -8v71q46 17 94 17q40 0 68 -14.5t50 -43.5t42 -77t217 -545l344 665h111l-406 -765l193 -472q54 -134 79 -178t51 -63t62 -19q42 0 80 9v-76q-37 -15 -96 -15q-58 0 -98.5 24.5t-74 77t-89.5 193.5l-170 428 l-414 -723h-112z" horiz-adv-x="1053" unicode="χ"/><glyph d="M166 549v538h98v-540q0 -221 110 -340.5t316 -132.5v1480h98v-1480q224 17 339.5 147.5t115.5 364.5q0 126 -11.5 236.5t-47.5 264.5h96q63 -226 63 -491q0 -278 -142.5 -437.5t-412.5 -176.5v-474h-98v474q-257 12 -390.5 155.5t-133.5 411.5z" horiz-adv-x="1477" unicode="ψ"/><glyph d="M119 522q0 161 29 295t94 270h102q-66 -154 -93.5 -286.5t-27.5 -282.5q0 -219 67 -333.5t191 -114.5q107 0 164 74.5t57 215.5v324h99v-324q0 -136 58.5 -213t168.5 -77q124 0 188 116t64 332q0 153 -27.5 283.5t-93.5 285.5h103q63 -132 92.5 -266.5t29.5 -298.5 q0 -258 -91 -400t-259 -142q-113 0 -177 51.5t-99 146.5h-10q-39 -103 -104.5 -150.5t-170.5 -47.5q-168 0 -261 140t-93 402z" horiz-adv-x="1503" unicode="ω"/><glyph d="M166 303v784h98v-774q0 -134 46.5 -189.5t152.5 -55.5q65 0 129 16v-84q-20 -7 -61 -13.5t-78 -6.5q-152 0 -219.5 80t-67.5 243zM3 1389q0 46 15.5 66t47.5 20q64 0 64 -86t-64 -86q-63 0 -63 86zM384 1389q0 46 15.5 66t47.5 20q64 0 64 -86t-64 -86q-63 0 -63 86z" horiz-adv-x="629" unicode="ϊ"/><glyph d="M166 492v595h98v-606q0 -201 82.5 -307t263.5 -106q189 0 282 132t93 404q0 127 -13 237t-46 246h98q31 -116 46 -231.5t15 -259.5q0 -318 -121.5 -467t-361.5 -149q-219 0 -327.5 125t-108.5 387zM346 1389q0 46 15.5 66t47.5 20q64 0 64 -86t-64 -86q-63 0 -63 86z M727 1389q0 46 15.5 66t47.5 20q64 0 64 -86t-64 -86q-63 0 -63 86z" horiz-adv-x="1219" unicode="ϋ"/><glyph d="M119 545q0 266 129 414.5t354 148.5q224 0 351.5 -150.5t127.5 -412.5q0 -266 -129 -415.5t-356 -149.5q-143 0 -252 69t-167 198t-58 298zM223 545q0 -224 98.5 -349.5t278.5 -125.5t278.5 125.5t98.5 349.5q0 225 -99.5 349t-279.5 124t-277.5 -123.5t-97.5 -349.5z M553 1241v16q29 75 57 184t42 210h119v-17q-18 -77 -63 -191t-97 -202h-58z" horiz-adv-x="1200" unicode="ό"/><glyph d="M166 492v595h98v-606q0 -201 82.5 -307t263.5 -106q189 0 282 132t93 404q0 127 -13 237t-46 246h98q31 -116 46 -231.5t15 -259.5q0 -318 -121.5 -467t-361.5 -149q-219 0 -327.5 125t-108.5 387zM553 1241v16q29 75 57 184t42 210h119v-17q-18 -77 -63 -191t-97 -202 h-58z" horiz-adv-x="1219" unicode="ύ"/><glyph d="M119 522q0 161 29 295t94 270h102q-66 -154 -93.5 -286.5t-27.5 -282.5q0 -219 67 -333.5t191 -114.5q107 0 164 74.5t57 215.5v324h99v-324q0 -136 58.5 -213t168.5 -77q124 0 188 116t64 332q0 153 -27.5 283.5t-93.5 285.5h103q63 -132 92.5 -266.5t29.5 -298.5 q0 -258 -91 -400t-259 -142q-113 0 -177 51.5t-99 146.5h-10q-39 -103 -104.5 -150.5t-170.5 -47.5q-168 0 -261 140t-93 402zM692 1241v16q29 75 57 184t42 210h119v-17q-18 -77 -63 -191t-97 -202h-58z" horiz-adv-x="1503" unicode="ώ"/><glyph d="M10 825q62 31 135 31q80 0 124 -47.5t44 -140.5q0 -52 -15 -158q-15 -107 -15 -186q0 -254 258 -254q401 0 401 686q0 56 -4 108q-332 3 -511 108t-179 300q0 143 85.5 225t231.5 82q187 0 309 -161.5t162 -465.5h142v-90h-136q5 -65 5 -104q0 -375 -130 -576.5 t-372 -201.5q-179 0 -272 87.5t-93 262.5q0 62 16 182q15 119 15 156q0 55 -22.5 79.5t-57.5 24.5q-39 0 -94 -22zM344 1278q0 -157 151.5 -240.5t434.5 -85.5q-32 252 -127.5 394.5t-231.5 142.5q-108 0 -167.5 -55t-59.5 -156z" horiz-adv-x="1208" unicode="ϑ"/><glyph d="M0 1462h117l426 -800l50 113q140 320 210 461t121 190t118 49q31 0 62 -11v-90q-26 6 -51 6q-42 0 -78.5 -43.5t-96 -162t-130 -274.5t-154.5 -357v-543h-105v557z" horiz-adv-x="1104" unicode="ϒ"/><glyph d="M20 1001v58l168 28h1334v-86h-267q81 -143 116.5 -273t35.5 -296q0 -221 -88.5 -336.5t-259.5 -115.5q-106 0 -174.5 49t-108.5 159h-4q-37 -107 -103 -157.5t-180 -50.5q-171 0 -259.5 114.5t-88.5 337.5q0 142 41.5 271.5t139.5 297.5h-302zM246 432 q0 -185 62.5 -273.5t193.5 -88.5q109 0 166 76t57 208v221h98v-221q0 -134 60.5 -209t167.5 -75q252 0 252 362q0 155 -32.5 296t-115.5 273h-737q-172 -293 -172 -569z" horiz-adv-x="1587" unicode="ϖ"/><glyph d="M207 0v1462h799v-94h-697v-553h658v-94h-658v-627h697v-94h-799zM314 1890v17h142q26 -48 98.5 -142t142.5 -170v-16h-69q-96 79 -188.5 171.5t-125.5 139.5z" horiz-adv-x="1130" unicode="Ѐ"/><glyph d="M207 0v1462h799v-94h-697v-553h658v-94h-658v-627h697v-94h-799zM354 1727q0 46 15.5 66t47.5 20q64 0 64 -86t-64 -86q-63 0 -63 86zM735 1727q0 46 15.5 66t47.5 20q64 0 64 -86t-64 -86q-63 0 -63 86z" horiz-adv-x="1130" unicode="Ё"/><glyph d="M10 1366v96h955v-96h-516v-487h438q190 0 281.5 -88t91.5 -271v-160q0 -183 -86 -281.5t-246 -98.5q-94 0 -142 18v100q58 -18 142 -18q109 0 168 71.5t59 204.5v160q0 146 -69.5 207t-227.5 61h-409v-784h-103v1366h-336z" horiz-adv-x="1425" unicode="Ђ"/><glyph d="M207 0v1462h801v-94h-699v-1368h-102zM483 1579v16q73 79 144.5 171.5t97.5 140.5h141v-17q-36 -52 -122.5 -138t-190.5 -173h-70z" horiz-adv-x="1028" unicode="Ѓ"/><glyph d="M129 735q0 223 84.5 393t243 262.5t368.5 92.5q214 0 383 -80l-41 -92q-160 80 -336 80q-256 0 -412.5 -153t-176.5 -425h776v-94h-780q6 -311 156 -478t421 -167q184 0 338 47v-90q-145 -51 -362 -51q-308 0 -485 199t-177 556z" horiz-adv-x="1272" unicode="Є"/><glyph d="M111 39v102q158 -67 403 -67q180 0 285.5 82.5t105.5 216.5q0 83 -35 137.5t-114 99.5t-232 97q-224 77 -309.5 166.5t-85.5 238.5q0 164 128.5 267.5t330.5 103.5q206 0 387 -78l-37 -88q-182 76 -348 76q-162 0 -258 -75t-96 -204q0 -81 29.5 -133t96.5 -93.5 t230 -99.5q171 -59 257 -114.5t125.5 -126t39.5 -170.5q0 -183 -134.5 -290t-357.5 -107q-268 0 -411 59z" horiz-adv-x="1116" unicode="Ѕ"/><glyph d="M207 0v1462h102v-1462h-102z" horiz-adv-x="516" unicode="І"/><glyph d="M207 0v1462h102v-1462h-102zM5 1727q0 46 15.5 66t47.5 20q64 0 64 -86t-64 -86q-63 0 -63 86zM386 1727q0 46 15.5 66t47.5 20q64 0 64 -86t-64 -86q-63 0 -63 86z" horiz-adv-x="516" unicode="Ї"/><glyph d="M-184 -254q78 -20 149 -20q242 0 242 264v1472h102v-1462q0 -369 -342 -369q-92 0 -151 27v88z" horiz-adv-x="506" unicode="Ј"/><glyph d="M0 2v92q61 -22 109 -22q68 0 107 51t73 184.5t80 415t108 739.5h590v-645h195q250 0 374.5 -94t124.5 -299t-126 -314.5t-355 -109.5h-315v1366h-402q-71 -507 -112 -763.5t-79.5 -385.5t-97.5 -184.5t-157 -55.5q-62 0 -117 25zM1067 90h190q202 0 298 80.5t96 253.5 q0 161 -94 232t-314 71h-176v-637z" horiz-adv-x="1874" unicode="Љ"/><glyph d="M207 0v1462h102v-645h721v645h103v-645h194q249 0 374.5 -94t125.5 -299q0 -204 -126 -314t-355 -110h-316v723h-721v-723h-102zM1133 90h190q201 0 297 79.5t96 254.5q0 161 -94 232t-313 71h-176v-637z" horiz-adv-x="1939" unicode="Њ"/><glyph d="M10 1366v96h981v-96h-542v-487h450q189 0 275 -85t86 -274v-520h-105v526q0 145 -60 201.5t-210 56.5h-436v-784h-103v1366h-336z" horiz-adv-x="1430" unicode="Ћ"/><glyph d="M207 0v1462h102v-708l703 708h135l-707 -708l731 -754h-139l-723 745v-745h-102zM553 1579v16q73 79 144.5 171.5t97.5 140.5h141v-17q-36 -52 -122.5 -138t-190.5 -173h-70z" horiz-adv-x="1171" unicode="Ќ"/><glyph d="M207 0v1462h98v-956q0 -102 -8 -342h6l864 1298h103v-1462h-99v950q0 162 13 350h-8l-867 -1300h-102zM469 1890v17h142q26 -48 98.5 -142t142.5 -170v-16h-69q-96 79 -188.5 171.5t-125.5 139.5z" horiz-adv-x="1477" unicode="Ѝ"/><glyph d="M10 1462h121l447 -854q35 -69 63 -143h4l25 61l420 936h114l-469 -1028q-45 -99 -86 -182.5t-91 -143.5t-117 -94t-165 -34q-119 0 -192 30v103q86 -37 182 -37q72 0 123.5 24.5t95.5 79t107 182.5zM305 1860h88q15 -110 68 -155.5t164 -45.5q110 0 163.5 47t65.5 154h88 q-21 -281 -319 -281q-149 0 -227 66.5t-91 214.5z" horiz-adv-x="1204" unicode="Ў"/><glyph d="M207 0v1462h102v-1366h844v1366h102v-1462h-475v-369h-98v369h-475z" horiz-adv-x="1462" unicode="Џ"/><glyph d="M0 0l588 1468h65l576 -1468h-115l-203 516h-594l-204 -516h-113zM354 608h523l-199 527q-25 62 -60 172q-27 -96 -59 -174z" horiz-adv-x="1229" unicode="А"/><glyph d="M207 0v1462h821v-96h-719v-549h293q252 0 378 -95.5t126 -301.5q0 -202 -124.5 -311t-356.5 -109h-418zM309 90h299q197 0 292 79.5t95 250.5q0 165 -96 236t-311 71h-279v-637z" horiz-adv-x="1219" unicode="Б"/><glyph d="M207 0v1462h401q271 0 398 -92t127 -278q0 -127 -77.5 -211.5t-226.5 -108.5v-6q175 -26 257.5 -110.5t82.5 -235.5q0 -202 -134 -311t-380 -109h-448zM309 90h344q406 0 406 330q0 301 -428 301h-322v-631zM309 811h322q206 0 299.5 68.5t93.5 214.5t-105.5 212 t-314.5 66h-295v-561z" horiz-adv-x="1284" unicode="В"/><glyph d="M207 0v1462h801v-94h-699v-1368h-102z" horiz-adv-x="1028" unicode="Г"/><glyph d="M14 96h105q148 257 260 652.5t125 713.5h622v-1366h150v-465h-98v369h-1065v-369h-99v465zM233 96h789v1270h-430q-24 -315 -126 -679t-233 -591z" horiz-adv-x="1337" unicode="Д"/><glyph d="M207 0v1462h799v-94h-697v-553h658v-94h-658v-627h697v-94h-799z" horiz-adv-x="1130" unicode="Е"/><glyph d="M0 0l625 745l-592 717h127l588 -708v708h102v-708l588 708h127l-594 -710l626 -752h-135l-612 741v-741h-102v741l-613 -741h-135z" horiz-adv-x="1597" unicode="Ж"/><glyph d="M82 66v104q95 -46 203 -71t204 -25q200 0 315.5 86.5t115.5 242.5q0 152 -112.5 230t-336.5 78h-217v96h225q212 0 313 80t101 227q0 125 -92.5 200t-241.5 75q-111 0 -204 -31.5t-201 -108.5l-58 80q202 154 463 154q205 0 323.5 -98t118.5 -265q0 -286 -303 -352v-6 q332 -71 332 -356q0 -201 -141.5 -313.5t-399.5 -112.5q-242 0 -407 86z" horiz-adv-x="1145" unicode="З"/><glyph d="M207 0v1462h98v-956q0 -102 -8 -342h6l864 1298h103v-1462h-99v950q0 162 13 350h-8l-867 -1300h-102z" horiz-adv-x="1477" unicode="И"/><glyph d="M207 0v1462h98v-956q0 -102 -8 -342h6l864 1298h103v-1462h-99v950q0 162 13 350h-8l-867 -1300h-102zM419 1860h88q15 -110 68 -155.5t164 -45.5q110 0 163.5 47t65.5 154h88q-21 -281 -319 -281q-149 0 -227 66.5t-91 214.5z" horiz-adv-x="1477" unicode="Й"/><glyph d="M207 0v1462h102v-708l703 708h135l-707 -708l731 -754h-139l-723 745v-745h-102z" horiz-adv-x="1171" unicode="К"/><glyph d="M0 2v92q61 -22 113 -22q87 0 135.5 108t106 466t114.5 816h719v-1462h-103v1366h-530q-41 -339 -87 -643t-77.5 -433t-66 -191.5t-83.5 -92t-124 -29.5q-67 0 -117 25z" horiz-adv-x="1395" unicode="Л"/><glyph d="M207 0v1462h158l518 -1286h6l518 1286h154v-1462h-103v1108q0 116 12 240h-8l-547 -1348h-65l-545 1350h-8q8 -124 8 -254v-1096h-98z" horiz-adv-x="1767" unicode="М"/><glyph d="M207 0v1462h102v-649h854v649h103v-1462h-103v719h-854v-719h-102z" horiz-adv-x="1473" unicode="Н"/><glyph d="M129 735q0 349 175.5 549.5t479.5 200.5q306 0 479 -201.5t173 -550.5q0 -348 -174 -550.5t-480 -202.5q-305 0 -479 202.5t-174 552.5zM240 733q0 -314 140 -485.5t402 -171.5q264 0 403.5 170t139.5 487q0 316 -139.5 484.5t-401.5 168.5q-261 0 -402.5 -170 t-141.5 -483z" horiz-adv-x="1565" unicode="О"/><glyph d="M207 0v1462h1048v-1462h-102v1366h-844v-1366h-102z" horiz-adv-x="1462" unicode="П"/><glyph d="M207 0v1462h358q522 0 522 -420q0 -212 -144 -325t-408 -113h-226v-604h-102zM309 692h201q247 0 357 81.5t110 264.5q0 169 -104 250.5t-322 81.5h-242v-678z" horiz-adv-x="1198" unicode="Р"/><glyph d="M129 735q0 223 84.5 393t243 262.5t368.5 92.5q214 0 383 -80l-41 -92q-160 80 -336 80q-275 0 -433 -176t-158 -482q0 -313 149 -486t426 -173q184 0 338 47v-90q-145 -51 -362 -51q-308 0 -485 199t-177 556z" horiz-adv-x="1272" unicode="С"/><glyph d="M10 1366v96h1053v-96h-475v-1366h-103v1366h-475z" horiz-adv-x="1073" unicode="Т"/><glyph d="M10 1462h121l447 -854q35 -69 63 -143h4l25 61l420 936h114l-469 -1028q-45 -99 -86 -182.5t-91 -143.5t-117 -94t-165 -34q-119 0 -192 30v103q86 -37 182 -37q72 0 123.5 24.5t95.5 79t107 182.5z" horiz-adv-x="1204" unicode="У"/><glyph d="M111 758q0 156 70 281.5t201 194.5t310 69h37v180h102v-180h43q275 0 425.5 -141t150.5 -392q0 -174 -69.5 -301t-206 -195.5t-332.5 -68.5h-11v-225h-102v225h-18q-193 0 -327.5 68t-203.5 191t-69 294zM221 764q0 -227 128.5 -351t363.5 -124h16v930h-41 q-219 0 -343 -122t-124 -333zM831 289h15q236 0 364.5 124.5t128.5 352.5q0 219 -120 336t-345 117h-43v-930z" horiz-adv-x="1561" unicode="Ф"/><glyph d="M0 0l492 762l-447 700h115l395 -626l401 626h109l-453 -698l490 -764h-117l-432 682l-440 -682h-113z" horiz-adv-x="1102" unicode="Х"/><glyph d="M207 0v1462h102v-1366h844v1366h102v-1366h156v-465h-98v369h-1106z" horiz-adv-x="1473" unicode="Ц"/><glyph d="M182 899v563h103v-567q0 -266 325 -266q96 0 192 17.5t261 76.5v739h102v-1462h-102v635q-261 -103 -461 -103q-204 0 -312 90.5t-108 276.5z" horiz-adv-x="1372" unicode="Ч"/><glyph d="M207 0v1462h102v-1366h670v1366h102v-1366h670v1366h102v-1462h-1646z" horiz-adv-x="2060" unicode="Ш"/><glyph d="M207 0v1462h102v-1366h670v1366h102v-1366h670v1366h102v-1366h156v-465h-98v369h-1704z" horiz-adv-x="2071" unicode="Щ"/><glyph d="M10 1366v96h439v-645h282q252 0 378 -95.5t126 -301.5q0 -202 -124.5 -311t-356.5 -109h-408v1366h-336zM449 90h288q197 0 292 79.5t95 250.5q0 165 -96 236t-311 71h-268v-637z" horiz-adv-x="1348" unicode="Ъ"/><glyph d="M207 0v1462h102v-645h283q251 0 377.5 -95.5t126.5 -301.5q0 -202 -124 -311t-358 -109h-407zM309 90h289q204 0 295.5 83t91.5 247q0 163 -95 235t-312 72h-269v-637zM1360 0v1462h102v-1462h-102z" horiz-adv-x="1669" unicode="Ы"/><glyph d="M207 0v1462h102v-645h295q252 0 378 -95.5t126 -301.5q0 -203 -124 -311.5t-357 -108.5h-420zM309 90h301q197 0 292 79.5t95 250.5q0 165 -96 236t-311 71h-281v-637z" horiz-adv-x="1219" unicode="Ь"/><glyph d="M70 31v94q167 -51 364 -51q270 0 425 169t169 476h-774v94h772q-22 278 -174.5 428t-417.5 150q-80 0 -154.5 -17.5t-162.5 -60.5l-41 92q164 78 368 78q324 0 508.5 -192t184.5 -525q0 -239 -83 -417t-239.5 -273.5t-361.5 -95.5q-238 0 -383 51z" horiz-adv-x="1266" unicode="Э"/><glyph d="M207 0v1462h102v-649h416q19 312 185 492t442 180q293 0 458.5 -201.5t165.5 -550.5q0 -348 -166 -550.5t-460 -202.5q-293 0 -459 199.5t-168 539.5h-414v-719h-102zM834 733q0 -313 133 -485t383 -172t383 170.5t133 486.5q0 315 -132.5 484t-381.5 169 q-248 0 -383 -170t-135 -483z" horiz-adv-x="2105" unicode="Ю"/><glyph d="M31 0l411 657q-153 30 -237 131t-84 254q0 420 526 420h348v-1462h-102v637h-348l-391 -637h-123zM231 1047q0 -160 98 -241t287 -81h277v645h-242q-221 0 -320.5 -76.5t-99.5 -246.5z" horiz-adv-x="1202" unicode="Я"/><glyph d="M98 289q0 159 132.5 247t383.5 93l207 6v72q0 155 -63 234t-203 79q-151 0 -313 -84l-37 86q179 84 354 84q179 0 267.5 -93t88.5 -290v-723h-73l-25 172h-8q-82 -105 -168.5 -148.5t-204.5 -43.5q-160 0 -249 82t-89 227zM203 285q0 -102 62.5 -158.5t176.5 -56.5 q174 0 274.5 99.5t100.5 276.5v107l-190 -8q-229 -11 -326.5 -71.5t-97.5 -188.5z" horiz-adv-x="1085" unicode="а"/><glyph d="M123 653q0 708 399 807q140 35 268.5 59.5t227.5 43.5l18 -86l-120 -23q-297 -56 -392 -86q-135 -39 -211.5 -187t-87.5 -405h6q107 127 208 181.5t208 54.5q200 0 306 -129t106 -367q0 -253 -122 -394.5t-343 -141.5q-224 0 -347.5 175t-123.5 498zM223 649 q0 -179 44.5 -314t129.5 -200t205 -65q171 0 261.5 114t90.5 328q0 203 -80.5 306.5t-236.5 103.5q-116 0 -224.5 -72.5t-189.5 -200.5z" horiz-adv-x="1176" unicode="б"/><glyph d="M182 0v1087h461q186 0 279.5 -67t93.5 -195q0 -103 -51 -161.5t-166 -81.5v-7q131 -15 189.5 -75.5t58.5 -173.5q0 -157 -103.5 -241.5t-302.5 -84.5h-459zM281 94h368q293 0 293 234q0 200 -307 200h-354v-434zM281 621h346q152 0 218 47t66 149q0 95 -68 135.5 t-204 40.5h-358v-372z" horiz-adv-x="1159" unicode="в"/><glyph d="M182 0v1087h639v-86h-540v-1001h-99z" horiz-adv-x="862" unicode="г"/><glyph d="M41 94h72q136 191 210 443t78 550h523v-993h145v-463h-98v369h-832v-369h-98v463zM225 94h600v901h-338q-24 -541 -262 -901z" horiz-adv-x="1118" unicode="д"/><glyph d="M119 535q0 260 128 416.5t345 156.5q192 0 303 -134t111 -364v-80h-783q2 -224 104.5 -342t293.5 -118q93 0 163.5 13t178.5 56v-90q-92 -40 -170 -54.5t-172 -14.5q-237 0 -369.5 146t-132.5 409zM229 618h672q0 189 -82 295.5t-227 106.5q-157 0 -252 -103.5 t-111 -298.5z" horiz-adv-x="1124" unicode="е"/><glyph d="M6 0l506 555l-469 532h121l467 -528v528h100v-528l467 528h121l-471 -528l508 -559h-127l-498 551v-551h-100v551l-498 -551h-127z" horiz-adv-x="1362" unicode="ж"/><glyph d="M68 55v99q103 -49 178 -66.5t160 -17.5q148 0 230.5 62.5t82.5 178.5q0 113 -79 167t-237 54h-151v86h135q295 0 295 203q0 97 -68 148t-194 51q-80 0 -149 -18.5t-148 -53.5l-37 82q174 78 338 78q178 0 270 -74t92 -205q0 -189 -194 -241v-6q121 -30 176 -99.5 t55 -177.5q0 -151 -110.5 -238t-306.5 -87q-106 0 -193.5 20.5t-144.5 54.5z" horiz-adv-x="926" unicode="з"/><glyph d="M182 0v1087h94v-786l-6 -205l645 991h132v-1087h-95v781l4 210l-645 -991h-129z" horiz-adv-x="1229" unicode="и"/><glyph d="M182 0v1087h94v-786l-6 -205l645 991h132v-1087h-95v781l4 210l-645 -991h-129zM297 1522h88q15 -110 68 -155.5t164 -45.5q110 0 163.5 47t65.5 154h88q-21 -281 -319 -281q-149 0 -227 66.5t-91 214.5z" horiz-adv-x="1229" unicode="й"/><glyph d="M182 0v1087h101v-528l489 528h123l-487 -526l522 -561h-133l-514 551v-551h-101z" horiz-adv-x="940" unicode="к"/><glyph d="M20 -2v90q19 -6 54 -6q113 0 182.5 238.5t105.5 766.5h572v-1087h-98v995h-385q-30 -395 -73.5 -602.5t-112 -305t-177.5 -97.5q-39 0 -68 8z" horiz-adv-x="1116" unicode="л"/><glyph d="M182 0v1087h131l314 -800q37 -97 61 -181l62 175l313 806h137v-1087h-94v967q-22 -63 -46.5 -129t-326.5 -838h-88l-301 764q-19 46 -35.5 97t-36.5 110v-971h-90z" horiz-adv-x="1382" unicode="м"/><glyph d="M182 0v1087h99v-477h690v477h98v-1087h-98v524h-690v-524h-99z" horiz-adv-x="1251" unicode="н"/><glyph d="M119 545q0 266 129 414.5t354 148.5q224 0 351.5 -150.5t127.5 -412.5q0 -266 -129 -415.5t-356 -149.5q-143 0 -252 69t-167 198t-58 298zM223 545q0 -224 98.5 -349.5t278.5 -125.5t278.5 125.5t98.5 349.5q0 225 -99.5 349t-279.5 124t-277.5 -123.5t-97.5 -349.5z" horiz-adv-x="1200" unicode="о"/><glyph d="M182 0v1087h867v-1087h-99v993h-669v-993h-99z" horiz-adv-x="1231" unicode="п"/><glyph d="M182 -492v1579h84l19 -155h6q112 176 358 176q220 0 335.5 -144.5t115.5 -420.5q0 -268 -121.5 -415.5t-331.5 -147.5q-251 0 -366 188h-7l3 -84q4 -74 4 -162v-414h-99zM281 541q0 -255 85.5 -364t278.5 -109q167 0 258.5 124t91.5 347q0 479 -346 479 q-190 0 -279 -104.5t-89 -340.5v-32z" horiz-adv-x="1219" unicode="р"/><glyph d="M119 537q0 270 137 420.5t375 150.5q141 0 270 -49l-27 -88q-141 47 -245 47q-200 0 -303 -123.5t-103 -355.5q0 -220 103 -344.5t288 -124.5q148 0 275 53v-92q-104 -51 -273 -51q-233 0 -365 147t-132 410z" horiz-adv-x="973" unicode="с"/><glyph d="M41 1001v86h831v-86h-362v-1001h-98v1001h-371z" horiz-adv-x="913" unicode="т"/><glyph d="M0 1087h102l230 -610q105 -281 133 -379h6q42 129 137 385l230 604h102l-487 -1263q-59 -154 -99 -208t-93.5 -81t-129.5 -27q-57 0 -127 21v86q58 -16 125 -16q51 0 90 24t70.5 74.5t73 160t53.5 142.5z" horiz-adv-x="940" unicode="у"/><glyph d="M119 545q0 251 136 398t384 165v448h98v-448q246 -18 381 -165t135 -398t-135.5 -399t-380.5 -166v-472h-98v472q-244 14 -382 162t-138 403zM223 545q0 -213 108.5 -335.5t307.5 -137.5v944q-205 -17 -310.5 -138.5t-105.5 -332.5zM737 72q200 17 306 142t106 331 q0 209 -107 331.5t-305 139.5v-944z" horiz-adv-x="1372" unicode="ф"/><glyph d="M55 0l394 559l-379 528h114l324 -458l321 458h109l-373 -528l400 -559h-115l-342 485l-344 -485h-109z" horiz-adv-x="1020" unicode="х"/><glyph d="M182 0v1087h99v-993h649v993h98v-993h146v-463h-99v369h-893z" horiz-adv-x="1223" unicode="ц"/><glyph d="M164 711v376h98v-364q0 -138 67 -199t206 -61q98 0 187 35t185 112v477h99v-1087h-99v516q-100 -77 -196.5 -110t-208.5 -33q-167 0 -252.5 87t-85.5 251z" horiz-adv-x="1188" unicode="ч"/><glyph d="M182 0v1087h99v-993h542v993h99v-993h542v993h99v-1087h-1381z" horiz-adv-x="1745" unicode="ш"/><glyph d="M182 0v1087h99v-993h542v993h99v-993h542v993h99v-993h145v-463h-98v369h-1428z" horiz-adv-x="1757" unicode="щ"/><glyph d="M41 1001v86h428v-458h352q383 0 383 -301q0 -155 -107 -241.5t-306 -86.5h-420v1001h-330zM469 94h338q144 0 218.5 62t74.5 176q0 106 -67 154.5t-232 48.5h-332v-441z" horiz-adv-x="1323" unicode="ъ"/><glyph d="M182 0v1087h99v-458h346q383 0 383 -301q0 -155 -107 -241.5t-307 -86.5h-414zM281 94h331q141 0 217 59t76 177q0 108 -67 156.5t-232 48.5h-325v-441zM1200 0v1087h98v-1087h-98z" horiz-adv-x="1481" unicode="ы"/><glyph d="M182 0v1087h99v-458h383q383 0 383 -301q0 -155 -107 -241.5t-307 -86.5h-451zM281 94h368q142 0 217.5 60t75.5 176q0 108 -67 156.5t-232 48.5h-362v-441z" horiz-adv-x="1165" unicode="ь"/><glyph d="M68 31v92q127 -53 284 -53q196 0 313 124.5t119 335.5h-620v88h616q-17 197 -119.5 298.5t-281.5 101.5q-106 0 -266 -60l-29 89q56 23 140 42t153 19q244 0 377 -144t133 -407q0 -269 -141.5 -423t-387.5 -154q-92 0 -171 15t-119 36z" horiz-adv-x="1006" unicode="э"/><glyph d="M182 0v1087h99v-477h352q14 235 130.5 366.5t311.5 131.5q204 0 322.5 -150.5t118.5 -412.5q0 -266 -119.5 -415.5t-327.5 -149.5q-196 0 -315.5 147t-122.5 397h-350v-524h-99zM735 545q0 -224 88.5 -349.5t249.5 -125.5t249.5 126t88.5 349q0 224 -89 348.5t-251 124.5 q-161 0 -248.5 -123.5t-87.5 -349.5z" horiz-adv-x="1634" unicode="ю"/><glyph d="M41 0l328 469q-150 28 -216.5 104t-66.5 195q0 148 99.5 233.5t267.5 85.5h448v-1087h-98v457h-332l-305 -457h-125zM190 772q0 -112 72.5 -166.5t218.5 -54.5h322v442h-352q-124 0 -192.5 -56.5t-68.5 -164.5z" horiz-adv-x="1083" unicode="я"/><glyph d="M119 535q0 260 128 416.5t345 156.5q192 0 303 -134t111 -364v-80h-783q2 -224 104.5 -342t293.5 -118q93 0 163.5 13t178.5 56v-90q-92 -40 -170 -54.5t-172 -14.5q-237 0 -369.5 146t-132.5 409zM229 618h672q0 189 -82 295.5t-227 106.5q-157 0 -252 -103.5 t-111 -298.5zM302 1552v17h142q26 -48 98.5 -142t142.5 -170v-16h-69q-96 79 -188.5 171.5t-125.5 139.5z" horiz-adv-x="1124" unicode="ѐ"/><glyph d="M119 535q0 260 128 416.5t345 156.5q192 0 303 -134t111 -364v-80h-783q2 -224 104.5 -342t293.5 -118q93 0 163.5 13t178.5 56v-90q-92 -40 -170 -54.5t-172 -14.5q-237 0 -369.5 146t-132.5 409zM229 618h672q0 189 -82 295.5t-227 106.5q-157 0 -252 -103.5 t-111 -298.5zM331 1389q0 46 15.5 66t47.5 20q64 0 64 -86t-64 -86q-63 0 -63 86zM712 1389q0 46 15.5 66t47.5 20q64 0 64 -86t-64 -86q-63 0 -63 86z" horiz-adv-x="1124" unicode="ё"/><glyph d="M27 1272v82h155v202h99v-202h473v-82h-473v-242l-5 -139h7q61 98 154 142t231 44q370 0 370 -397v-891q0 -134 -62.5 -207.5t-180.5 -73.5q-79 0 -136 25v86q69 -20 129 -20q152 0 152 176v899q0 164 -68.5 238.5t-214.5 74.5q-197 0 -286.5 -98.5t-89.5 -319.5v-569h-99 v1272h-155z" horiz-adv-x="1208" unicode="ђ"/><glyph d="M182 0v1087h639v-86h-540v-1001h-99zM378 1241v16q73 79 144.5 171.5t97.5 140.5h141v-17q-36 -52 -122.5 -138t-190.5 -173h-70z" horiz-adv-x="862" unicode="ѓ"/><glyph d="M119 537q0 265 140.5 418t381.5 153q62 0 142.5 -13t138.5 -36l-29 -88q-59 21 -132.5 34t-121.5 13q-185 0 -291 -105t-123 -295h625v-88h-629q2 -217 111 -338.5t293 -121.5q157 0 284 53v-92q-46 -23 -121 -37t-161 -14q-237 0 -372.5 149.5t-135.5 407.5z" horiz-adv-x="993" unicode="є"/><glyph d="M84 47v107q164 -82 346 -82q161 0 244.5 53.5t83.5 142.5q0 82 -66.5 138t-218.5 110q-163 59 -229 101.5t-99.5 96t-33.5 130.5q0 122 102.5 193t286.5 71q176 0 334 -66l-37 -90q-160 66 -297 66q-133 0 -211 -44t-78 -122q0 -85 60.5 -136t236.5 -114 q147 -53 214 -95.5t100.5 -96.5t33.5 -127q0 -146 -111 -224.5t-315 -78.5q-218 0 -346 67z" horiz-adv-x="954" unicode="ѕ"/><glyph d="M168 1389q0 96 63 96q31 0 48.5 -25t17.5 -71q0 -45 -17.5 -71t-48.5 -26q-63 0 -63 97zM182 0v1087h99v-1087h-99z" horiz-adv-x="463" unicode="і"/><glyph d="M182 0v1087h99v-1087h-99zM-21 1389q0 46 15.5 66t47.5 20q64 0 64 -86t-64 -86q-63 0 -63 86zM360 1389q0 46 15.5 66t47.5 20q64 0 64 -86t-64 -86q-63 0 -63 86z" horiz-adv-x="463" unicode="ї"/><glyph d="M-98 -381q69 -20 129 -20q151 0 151 176v1312h99v-1298q0 -135 -63.5 -208t-180.5 -73q-80 0 -135 25v86zM168 1389q0 96 63 96q31 0 48.5 -25t17.5 -71q0 -45 -17.5 -71t-48.5 -26q-63 0 -63 97z" horiz-adv-x="463" unicode="ј"/><glyph d="M20 -2v90q20 -6 52 -6q114 0 183 231t107 774h500v-466h285q205 0 297 -71.5t92 -225.5q0 -324 -420 -324h-352v995h-313q-29 -394 -72.5 -603t-113.5 -305.5t-181 -96.5q-37 0 -64 8zM862 94h271q154 0 226.5 57.5t72.5 176.5q0 74 -28 116.5t-86.5 62t-191.5 19.5h-264 v-432z" horiz-adv-x="1655" unicode="љ"/><glyph d="M182 0v1087h99v-466h587v466h99v-466h295q196 0 287 -71t91 -226q0 -161 -104.5 -242.5t-304.5 -81.5h-363v526h-587v-526h-99zM967 94h280q142 0 215.5 54.5t73.5 177.5q0 75 -28 118.5t-86.5 62.5t-180.5 19h-274v-432z" horiz-adv-x="1759" unicode="њ"/><glyph d="M27 1272v82h155v202h99v-202h473v-82h-473v-242l-5 -139h7q61 98 154 142t231 44q370 0 370 -397v-680h-98v674q0 164 -69 238.5t-214 74.5q-197 0 -286.5 -98t-89.5 -320v-569h-99v1272h-155z" horiz-adv-x="1208" unicode="ћ"/><glyph d="M182 0v1087h101v-528l489 528h123l-487 -526l522 -561h-133l-514 551v-551h-101zM422 1241v16q73 79 144.5 171.5t97.5 140.5h141v-17q-36 -52 -122.5 -138t-190.5 -173h-70z" horiz-adv-x="940" unicode="ќ"/><glyph d="M182 0v1087h94v-786l-6 -205l645 991h132v-1087h-95v781l4 210l-645 -991h-129zM337 1552v17h142q26 -48 98.5 -142t142.5 -170v-16h-69q-96 79 -188.5 171.5t-125.5 139.5z" horiz-adv-x="1229" unicode="ѝ"/><glyph d="M0 1087h102l230 -610q105 -281 133 -379h6q42 129 137 385l230 604h102l-487 -1263q-59 -154 -99 -208t-93.5 -81t-129.5 -27q-57 0 -127 21v86q58 -16 125 -16q51 0 90 24t70.5 74.5t73 160t53.5 142.5zM152 1522h88q15 -110 68 -155.5t164 -45.5q110 0 163.5 47 t65.5 154h88q-21 -281 -319 -281q-149 0 -227 66.5t-91 214.5z" horiz-adv-x="940" unicode="ў"/><glyph d="M182 0v1087h99v-993h669v993h99v-1087h-383v-369h-99v369h-385z" horiz-adv-x="1231" unicode="џ"/><glyph d="M129 760q0 340 124 532.5t341 192.5q73 0 131 -14.5t123 -49.5l-43 -94q-72 36 -118 47.5t-93 11.5q-107 0 -187.5 -74t-123.5 -216.5t-43 -337.5q0 -324 114.5 -503t319.5 -179q165 0 268 80v506h102v-504q110 -82 289 -82q196 0 305 180.5t109 501.5q0 193 -41.5 335.5 t-118.5 217.5t-180 75q-63 0 -110.5 -17t-94.5 -42l-43 94q68 36 125.5 50t128.5 14q212 0 328.5 -190.5t116.5 -534.5q0 -367 -135 -573.5t-382 -206.5q-111 0 -189.5 21.5t-156.5 74.5h-4q-76 -53 -153.5 -74.5t-188.5 -21.5q-250 0 -385 205.5t-135 574.5z" horiz-adv-x="1987" unicode="Ѡ"/><glyph d="M0 1087h104l209 -577q39 -106 136 -408h6q34 77 74.5 159.5t187.5 365.5l-166 460h102l209 -577l148 -422h6q178 178 266 422.5t88 576.5h94q0 -367 -99 -618.5t-314 -468.5h-101l-196 526l-30 -65q-37 -82 -46 -101t-184 -360h-103z" horiz-adv-x="1548" unicode="ѡ"/><glyph d="M31 1155v84h336v317h102v-317h481v-84h-481v-338h287q252 0 381 -97.5t129 -299.5q0 -199 -128 -309.5t-364 -110.5h-407v1155h-336zM469 88h289q205 0 301 84t96 248q0 158 -98 231.5t-320 73.5h-268v-637z" horiz-adv-x="1378" unicode="Ѣ"/><glyph d="M31 1006v81h227v232h98v-232h398v-81h-398v-377h383q383 0 383 -301q0 -155 -107 -241.5t-306 -86.5h-451v1006h-227zM356 94h369q142 0 217.5 60t75.5 176q0 108 -69 156.5t-236 48.5h-357v-441z" horiz-adv-x="1241" unicode="ѣ"/><glyph d="M207 0v1462h102v-649h416q23 308 209.5 489t484.5 181q214 0 383 -80l-41 -92q-160 80 -336 80q-256 0 -412.5 -153t-176.5 -425h776v-94h-781q6 -309 155.5 -477t422.5 -168q184 0 338 47v-90q-145 -51 -363 -51q-304 0 -480.5 195t-180.5 544h-414v-719h-102z" horiz-adv-x="1866" unicode="Ѥ"/><glyph d="M182 0v1087h99v-473h356q19 232 153 363t351 131q61 0 141.5 -13.5t132.5 -35.5l-29 -88q-54 21 -123 34t-122 13q-178 0 -281.5 -106t-120.5 -298h584v-88h-588q2 -213 106 -334.5t289 -121.5q148 0 273 53v-92q-45 -23 -118.5 -37t-156.5 -14q-237 0 -365 142.5 t-130 405.5h-352v-528h-99z" horiz-adv-x="1487" unicode="ѥ"/><glyph d="M0 0l627 1468h49l610 -1468h-115l-284 690h-195v-690h-98v690h-191l-292 -690h-111zM442 784h406q-82 198 -126 304t-73 204q-16 -52 -33 -96t-174 -412z" horiz-adv-x="1286" unicode="Ѧ"/><glyph d="M10 0l453 1087h98l451 -1087h-101l-209 500h-143v-500h-98v500h-142l-206 -500h-103zM352 582h318q-116 287 -156 409h-6q-25 -81 -48.5 -147t-107.5 -262z" horiz-adv-x="1022" unicode="ѧ"/><glyph d="M207 0v1462h102v-649h516l279 655h49l610 -1468h-114l-297 719h-183v-719h-98v719h-178l-305 -719h-111l307 719h-475v-719h-102zM932 813h381l-121 293q-34 85 -66 186q-16 -51 -32.5 -94.5t-161.5 -384.5z" horiz-adv-x="1763" unicode="Ѩ"/><glyph d="M182 0v1087h99v-473h358l197 473h98l450 -1087h-100l-221 532h-131v-532h-98v532h-127l-222 -532h-102l221 528h-323v-528h-99zM739 614h291q-114 281 -143 377h-6q-25 -80 -48.5 -145.5t-93.5 -231.5z" horiz-adv-x="1395" unicode="ѩ"/><glyph d="M25 0l139 457q47 158 99 228.5t132.5 106.5t200.5 39l-438 545v86h1102v-86l-439 -545q121 -3 200.5 -38t131.5 -104t98 -218t144 -471h-105l-147 483q-45 148 -118 204t-230 56h-35v-743h-103v743h-34q-109 0 -171 -23.5t-103 -78t-73 -158.5l-147 -483h-104zM285 1368 l424 -526l424 526h-848z" horiz-adv-x="1419" unicode="Ѫ"/><glyph d="M10 0l129 328q48 124 93 181t108.5 86.5t159.5 35.5l-344 373v83h927v-83l-342 -373q93 -7 155.5 -35t107 -81.5t98.5 -186.5l129 -328h-105l-133 344q-44 115 -106.5 157t-179.5 42h-37v-543h-99v543h-34q-119 0 -181.5 -42t-105.5 -155l-135 -346h-105zM274 1001 l347 -380l344 380h-691z" horiz-adv-x="1241" unicode="ѫ"/><glyph d="M207 0v1462h102v-639h805l-446 553v86h1101v-86l-438 -559q126 -4 206.5 -38t132 -104t95.5 -218l140 -457h-105l-147 483q-44 144 -115.5 195t-232.5 51h-35v-729h-103v729h-34q-117 0 -178.5 -22.5t-100.5 -75t-68 -148.5l-147 -483h-104l139 457q28 94 61 161t86 111 h-512v-729h-102zM795 1368l428 -539l419 539h-847z" horiz-adv-x="1929" unicode="Ѭ"/><glyph d="M182 0v1087h99v-473h630l-360 390v83h928v-83l-355 -388q100 0 166.5 -26.5t111 -79t95.5 -182.5l129 -328h-104l-133 344q-42 109 -100 146.5t-181 37.5h-43v-528h-98v528h-43q-124 0 -182 -37.5t-99 -144.5l-135 -346h-102l129 328q24 62 51 112.5t69 87.5h-374v-528 h-99zM670 1001l346 -380l344 380h-690z" horiz-adv-x="1636" unicode="ѭ"/><glyph d="M82 -139q0 118 98.5 181.5t313.5 76.5q236 13 327.5 79.5t91.5 213.5q0 299 -442 299h-217v96h225q212 0 313 80t101 227q0 125 -92.5 200t-241.5 75q-111 0 -204 -31.5t-201 -108.5l-58 80q74 58 175 98.5t200 49.5q-65 75 -235 245v17h75q108 -77 236 -203 q91 113 153.5 156t122.5 43q41 0 76 -13v-84q-26 11 -55 11q-51 0 -103.5 -37t-122.5 -131q181 -17 282 -113t101 -248q0 -286 -303 -352v-6q163 -31 247.5 -115t84.5 -237q0 -193 -126 -285t-415 -109q-157 -9 -226.5 -44t-69.5 -111q0 -146 198 -146q82 0 191 9 q109 8 186 8q127 0 201 -35v-105q-44 26 -98 36t-126 10q-80 0 -171.5 -8.5t-182.5 -8.5q-150 0 -229.5 60.5t-79.5 179.5z" horiz-adv-x="1145" unicode="Ѯ"/><glyph d="M35 -135q0 107 88 160t285 73q175 19 243 72t68 158q0 108 -79 156t-237 48h-151v86h135q295 0 295 203q0 97 -68 148t-194 51q-80 0 -149 -18.5t-148 -53.5l-37 82q145 65 272 76q-25 29 -55 61t-166 168v17h76q115 -84 236 -203q93 116 155 157.5t121 41.5q35 0 76 -13 v-84q-29 11 -56 11q-51 0 -102 -35t-117 -125q260 -44 260 -273q0 -189 -194 -241v-6q123 -28 177 -91t54 -167q0 -145 -99 -221.5t-308 -98.5q-156 -16 -216.5 -45.5t-60.5 -91.5q0 -55 43.5 -79t139.5 -24q64 0 274 13l84 2q70 0 145 -31v-102q-67 39 -166 39l-81 -2 q-215 -13 -265 -13q-136 0 -207 49.5t-71 145.5z" horiz-adv-x="926" unicode="ѯ"/><glyph d="M123 979v483h102v-479q0 -226 117 -333t356 -107h23v919h102v-919h23q239 0 356 107t117 333v479h102v-483q0 -265 -146 -395.5t-425 -130.5h-27v-453h-102v453h-27q-280 0 -425.5 130.5t-145.5 395.5z" horiz-adv-x="1565" unicode="Ѱ"/><glyph d="M166 549v538h98v-540q0 -221 110 -340.5t316 -132.5v1480h98v-1480q224 17 339.5 147.5t115.5 364.5q0 126 -11.5 236.5t-47.5 264.5h96q63 -226 63 -491q0 -278 -142.5 -437.5t-412.5 -176.5v-474h-98v474q-257 12 -390.5 155.5t-133.5 411.5z" horiz-adv-x="1477" unicode="ѱ"/><glyph d="M129 735q0 349 175.5 549.5t479.5 200.5q306 0 479 -201.5t173 -550.5q0 -348 -174 -550.5t-480 -202.5q-305 0 -479 202.5t-174 552.5zM240 698q8 -299 147.5 -460.5t394.5 -161.5q256 0 395.5 160t147.5 462h-1085zM242 793h1081q-13 288 -152.5 440.5t-386.5 152.5 q-250 0 -389 -153.5t-153 -439.5z" horiz-adv-x="1565" unicode="Ѳ"/><glyph d="M119 545q0 266 129 414.5t354 148.5q224 0 351.5 -150.5t127.5 -412.5q0 -266 -129 -415.5t-356 -149.5q-143 0 -252 69t-167 198t-58 298zM223 522q4 -211 103 -331.5t274 -120.5q174 0 272.5 118.5t104.5 333.5h-754zM225 610h750q-16 196 -114.5 302t-262.5 106 q-165 0 -262 -107.5t-111 -300.5z" horiz-adv-x="1200" unicode="ѳ"/><glyph d="M0 1462h109l358 -968q85 -234 121 -355q44 164 125 402l176 532q64 192 104 265t87.5 105t121.5 32q48 0 90 -15v-90q-42 14 -82 14q-49 0 -80 -26t-60.5 -87.5t-80.5 -209.5l-354 -1061h-94z" horiz-adv-x="1210" unicode="Ѵ"/><glyph d="M0 1087h102l279 -733q73 -187 96 -270h6q37 130 115 365l125 372q36 109 70.5 171t72.5 89t97 27q30 0 59 -8v-88q-29 8 -57 8q-45 0 -79 -48.5t-73 -166.5l-272 -805h-121z" horiz-adv-x="973" unicode="ѵ"/><glyph d="M0 1462h109l358 -968q85 -234 121 -355q44 164 125 402l176 532q64 192 104 265t87.5 105t121.5 32q48 0 90 -15v-90q-42 14 -82 14q-49 0 -80 -26t-60.5 -87.5t-80.5 -209.5l-354 -1061h-94zM180 1890v17h135q76 -148 115.5 -212t73.5 -100v-16h-70q-57 50 -131.5 142.5 t-122.5 168.5zM518 1890v17h135q79 -154 118 -216t71 -96v-16h-70q-57 50 -131.5 142.5t-122.5 168.5z" horiz-adv-x="1210" unicode="Ѷ"/><glyph d="M0 1087h102l279 -733q73 -187 96 -270h6q37 130 115 365l125 372q36 109 70.5 171t72.5 89t97 27q30 0 59 -8v-88q-29 8 -57 8q-45 0 -79 -48.5t-73 -166.5l-272 -805h-121zM65 1552v17h135q76 -148 115.5 -212t73.5 -100v-16h-70q-57 50 -131.5 142.5t-122.5 168.5z M403 1552v17h135q79 -154 118 -216t71 -96v-16h-70q-57 50 -131.5 142.5t-122.5 168.5z" horiz-adv-x="973" unicode="ѷ"/><glyph d="M129 735q0 348 156 549t428 201q277 0 428 -200t151 -552q0 -350 -156 -551.5t-427 -201.5q-276 0 -428 198t-152 557zM240 733q0 -317 119.5 -487t349.5 -170q232 0 352.5 167.5t120.5 489.5q0 320 -120 486.5t-349 166.5q-232 0 -352.5 -167t-120.5 -486zM1395 1087 h102q169 -450 256 -679.5t107 -309.5h6q10 35 53.5 156.5t312.5 832.5h103l-488 -1263q-53 -142 -94 -201t-95 -87t-132 -28q-57 0 -127 21v86q58 -16 125 -16q51 0 89.5 23.5t69.5 72t72 155.5l55 150z" horiz-adv-x="2335" unicode="Ѹ"/><glyph d="M119 545q0 266 129 414.5t354 148.5q224 0 351.5 -150.5t127.5 -412.5q0 -266 -129 -415.5t-356 -149.5q-143 0 -252 69t-167 198t-58 298zM223 545q0 -224 98.5 -349.5t278.5 -125.5t278.5 125.5t98.5 349.5q0 225 -99.5 349t-279.5 124t-277.5 -123.5t-97.5 -349.5z M1153 1087h102l230 -610q105 -281 133 -379h6q42 129 137 385l230 604h102l-487 -1263q-59 -154 -99 -208t-93.5 -81t-129.5 -27q-57 0 -127 21v86q58 -16 125 -16q51 0 90 24t70.5 74.5t73 160t53.5 142.5z" horiz-adv-x="2093" unicode="ѹ"/><glyph d="M129 735q0 318 156.5 516.5t433.5 227.5q21 69 94 69q75 0 96 -69q278 -30 433 -228t155 -518q0 -319 -155 -518t-433 -229q-21 -74 -96 -74q-73 0 -94 74q-280 29 -435 228.5t-155 520.5zM240 733q0 -285 123 -454.5t354 -198.5q17 80 96 80t96 -78q234 29 355.5 196.5 t121.5 454.5q0 286 -122 452t-353 195q-9 -42 -36 -61t-62 -19q-79 0 -96 80q-228 -29 -352.5 -194.5t-124.5 -452.5z" horiz-adv-x="1626" unicode="Ѻ"/><glyph d="M119 545q0 237 108 382.5t301 174.5q14 76 90 76q77 0 95 -76q195 -29 302 -176t107 -381q0 -238 -108.5 -383t-302.5 -174q-19 -72 -93 -72q-68 0 -88 70q-190 29 -300.5 177t-110.5 382zM223 545q0 -196 80 -317t225 -150q19 72 90 72q74 0 93 -72q148 30 227.5 152 t79.5 315t-80 314t-229 151q-21 -66 -91 -66q-67 0 -88 66q-149 -28 -228 -148.5t-79 -316.5z" horiz-adv-x="1241" unicode="ѻ"/><glyph d="M129 760q0 340 124 532.5t341 192.5q73 0 131 -14.5t123 -49.5l-43 -94q-72 36 -118 47.5t-93 11.5q-164 0 -258 -166t-94 -462q0 -326 113.5 -504t318.5 -178q94 0 169.5 30t149.5 91q84 -63 164.5 -92t175.5 -29q196 0 304 179t108 503q0 294 -91 461t-247 167 q-63 0 -110.5 -17t-94.5 -42l-43 94q68 36 125.5 50t128.5 14q212 0 328.5 -190.5t116.5 -534.5q0 -367 -135 -573.5t-382 -206.5q-111 0 -189.5 21.5t-156.5 74.5h-4q-76 -53 -153.5 -74.5t-188.5 -21.5q-250 0 -385 205.5t-135 574.5zM686 1866v8q0 104 52.5 161.5 t154.5 57.5q50 0 98 -13t178 -65q117 -47 232 -47v-82h-12q-112 0 -239 49l-67 25q-84 32 -117.5 39.5t-70.5 7.5q-56 0 -87.5 -29t-31.5 -104v-8h-90zM911 1546v56q127 38 127 106q0 24 -14.5 35t-32.5 20t-32.5 20.5t-14.5 37.5q0 31 20 49t52 18q46 0 73 -35t27 -92 q0 -83 -51 -134.5t-154 -80.5z" horiz-adv-x="1987" unicode="Ѽ"/><glyph d="M119 537q0 180 43.5 308t126 195.5t192.5 67.5q123 0 205 -45l-33 -86q-82 43 -157 43q-133 0 -203 -123.5t-70 -357.5q0 -236 90 -352.5t256 -116.5q109 0 215 67q110 -67 220 -67q166 0 254 116.5t88 352.5q0 233 -65 357t-187 124q-78 0 -160 -43l-31 86q82 45 205 45 q104 0 181.5 -67t119 -196t41.5 -308q0 -268 -115 -412.5t-327 -144.5q-128 0 -228 57q-98 -57 -219 -57q-214 0 -328 142.5t-114 414.5zM465 1556v9q0 104 52.5 161.5t154.5 57.5q50 0 98 -13t178 -65q117 -47 232 -47v-82h-13q-113 0 -239 49q-150 57 -184.5 64.5 t-69.5 7.5q-56 0 -87.5 -29t-31.5 -104v-9h-90zM690 1237v55q57 17 92 44.5t35 62.5q0 24 -14.5 35t-32.5 19.5t-32.5 20.5t-14.5 37q0 31 20 49.5t52 18.5q46 0 73 -35t27 -92q0 -84 -51.5 -135t-153.5 -80z" horiz-adv-x="1569" unicode="ѽ"/><glyph d="M129 760q0 340 124 532.5t341 192.5q73 0 131 -14.5t123 -49.5l-43 -94q-72 36 -118 47.5t-93 11.5q-107 0 -187.5 -74t-123.5 -216.5t-43 -337.5q0 -324 114.5 -503t319.5 -179q165 0 268 80v506h102v-504q110 -82 289 -82q196 0 305 180.5t109 501.5q0 193 -41.5 335.5 t-118.5 217.5t-180 75q-63 0 -110.5 -17t-94.5 -42l-43 94q68 36 125.5 50t128.5 14q212 0 328.5 -190.5t116.5 -534.5q0 -367 -135 -573.5t-382 -206.5q-111 0 -189.5 21.5t-156.5 74.5h-4q-76 -53 -153.5 -74.5t-188.5 -21.5q-250 0 -385 205.5t-135 574.5zM584 1769v27 h819v-27l-80 -172h-12l-54 117h-202l-56 -117h-12l-55 117h-203l-53 -117h-12z" horiz-adv-x="1987" unicode="Ѿ"/><glyph d="M0 1087h104l209 -577q39 -106 136 -408h6q34 77 74.5 159.5t187.5 365.5l-166 460h102l209 -577l148 -422h6q178 178 266 422.5t88 576.5h94q0 -367 -99 -618.5t-314 -468.5h-101l-196 526l-30 -65q-37 -82 -46 -101t-184 -360h-103zM360 1417v27h820v-27l-80 -172h-13 l-53 117h-203l-55 -117h-12l-55 117h-203l-53 -117h-13z" horiz-adv-x="1548" unicode="ѿ"/><glyph d="M129 735q0 223 84.5 393t243 262.5t368.5 92.5q214 0 383 -80l-41 -92q-160 80 -336 80q-275 0 -433 -176t-158 -482q0 -316 157 -486.5t441 -170.5q69 0 127 10v-578h-103v472h-33q-338 0 -519 195t-181 560z" horiz-adv-x="1272" unicode="Ҁ"/><glyph d="M119 537q0 270 137 420.5t375 150.5q141 0 270 -49l-27 -88q-141 47 -245 47q-200 0 -303 -123.5t-103 -355.5q0 -223 106.5 -345t305.5 -122q76 0 147 20v-584h-100v469h-43q-249 0 -384.5 143.5t-135.5 416.5z" horiz-adv-x="973" unicode="ҁ"/><glyph d="M115 571l41 74l303 -180l237 407l-307 181l43 73l305 -180l195 334l80 -45l-197 -336l309 -178l-45 -74l-305 180l-233 -407l305 -180l-39 -74l-307 182l-197 -342l-82 45l197 342z" horiz-adv-x="1239" unicode="҂"/><glyph d="M219 1264q0 49 24.5 66.5t73.5 17.5h441q6 51 24.5 71.5t57.5 20.5q40 0 60 -18.5t20 -67.5q0 -46 -22 -64t-77 -18h-440q-6 -51 -25 -72.5t-57 -21.5q-40 0 -60 18t-20 68z" horiz-adv-x="1141" unicode="҃"/><glyph d="M260 1274v82q61 0 122 13t173 58q57 23 108 38.5t105 15.5q100 0 153.5 -56.5t53.5 -162.5v-9h-90v9q0 75 -31.5 104t-87.5 29q-38 0 -74.5 -8.5t-180.5 -63.5q-126 -49 -239 -49h-12z" horiz-adv-x="1182" unicode="҄"/><glyph d="M485 1462q0 57 27 92t74 35q32 0 51.5 -18t19.5 -49q0 -26 -14.5 -37.5t-32.5 -20.5t-32.5 -20t-14.5 -35q0 -68 127 -106v-56q-102 29 -153.5 80.5t-51.5 134.5z" horiz-adv-x="1182" unicode="҅"/><glyph d="M492 1247v56q126 38 126 106q0 24 -14.5 35t-32.5 20t-32.5 20.5t-14.5 37.5q0 31 20 49t52 18q46 0 73 -35t27 -92q0 -83 -51 -134.5t-153 -80.5z" horiz-adv-x="1182" unicode="҆"/><glyph d="M41 459q5 90 55.5 142t153.5 52q92 0 149.5 -51t63.5 -143h-80q-5 51 -39.5 79.5t-93.5 28.5q-62 0 -94.5 -24t-38.5 -84h-76zM219 -41q5 90 55.5 142.5t153.5 52.5q92 0 149.5 -51t63.5 -144h-80q-6 57 -44 83t-89 26q-62 0 -94.5 -24.5t-38.5 -84.5h-76zM219 946 q5 90 55.5 142.5t153.5 52.5q92 0 149.5 -51t63.5 -144h-80q-6 57 -44 83t-89 26q-62 0 -94.5 -24.5t-38.5 -84.5h-76zM793 -319q5 89 55 141.5t153 52.5q92 0 149.5 -51t63.5 -143h-79q-7 57 -45 82.5t-89 25.5q-61 0 -93.5 -24t-39.5 -84h-75zM793 1231q11 194 208 194 q93 0 149.5 -50.5t63.5 -143.5h-79q-7 57 -45 82.5t-89 25.5q-61 0 -93.5 -24t-39.5 -84h-75zM1372 -41q5 90 55.5 142.5t153.5 52.5q92 0 149.5 -51t63.5 -144h-80q-6 57 -44 83t-89 26q-62 0 -94.5 -24.5t-38.5 -84.5h-76zM1372 946q5 90 55.5 142.5t153.5 52.5 q92 0 149.5 -51t63.5 -144h-80q-6 57 -44 83t-89 26q-62 0 -94.5 -24.5t-38.5 -84.5h-76zM1563 459q11 194 209 194q92 0 149.5 -52t63.5 -142h-80q-7 57 -44.5 82.5t-88.5 25.5q-62 0 -94.5 -24t-39.5 -84h-75z" horiz-adv-x="2025" unicode="҈"/><glyph d="M41 575v76q230 -55 350 -71v-117l-14 -8q-171 44 -336 120zM246 -61q208 129 299 196l82 -82l-4 -16q-73 -42 -163.5 -83.5t-160.5 -68.5zM334 1212l53 54q138 -222 197 -299l-82 -82l-19 4q-77 131 -149 323zM881 -385q55 230 71 350h117l10 -14q-40 -156 -123 -336h-75 zM881 1155q43 162 123 336h75q-55 -230 -71 -350h-117zM1331 1010l4 18q134 79 324 150l53 -54q-208 -129 -299 -196zM1376 98l82 82l19 -4q77 -131 149 -323l-53 -54q-124 199 -197 299zM1567 524v117l14 10q86 -23 180.5 -59t155.5 -64v-75q-230 55 -350 71z" horiz-adv-x="1958" unicode="҉"/><glyph d="M207 0v1462h98v-956q0 -102 -8 -342h6l864 1298h103v-1368h127l-142 -463h-116l131 369h-99v950q0 162 13 350h-8l-867 -1300h-102zM420 1860h88q14 -109 66.5 -155t164.5 -46t165 48t65 153h88q-23 -281 -320 -281q-149 0 -227 66.5t-90 214.5z" horiz-adv-x="1477" unicode="Ҋ"/><glyph d="M182 0v1087h94v-786l-6 -205l645 991h132v-993h127l-142 -463h-117l132 369h-95v781l4 210l-645 -991h-129zM297 1522h88q14 -109 66.5 -155t164.5 -46t165 48t65 153h88q-21 -281 -320 -281q-149 0 -227 66.5t-90 214.5z" horiz-adv-x="1229" unicode="ҋ"/><glyph d="M47 1155v84h160v223h102v-223h424v-84h-424v-338h299q250 0 375 -95.5t125 -301.5q0 -203 -124 -311.5t-357 -108.5h-420v1155h-160zM309 90h301q198 0 292.5 79.5t94.5 250.5q0 164 -96.5 235.5t-310.5 71.5h-281v-637z" horiz-adv-x="1219" unicode="Ҍ"/><glyph d="M27 1210v82h155v264h99v-264h352v-82h-352v-581h383q383 0 383 -301q0 -155 -107 -241.5t-307 -86.5h-451v1210h-155zM281 94h368q142 0 217.5 60t75.5 176q0 108 -69 156.5t-236 48.5h-356v-441z" horiz-adv-x="1165" unicode="ҍ"/><glyph d="M207 0v1462h358q522 0 522 -420q0 -128 -56 -222.5t-163 -149.5l121 -168l-69 -53l-136 188q-101 -33 -249 -33h-226v-604h-102zM309 692h205q129 0 217 21l-117 164l70 51l131 -185q82 39 122 110t40 185q0 169 -104 250.5t-322 81.5h-242v-678z" horiz-adv-x="1198" unicode="Ҏ"/><glyph d="M182 -492v1579h84l19 -155h6q112 176 358 176q220 0 335.5 -144.5t115.5 -420.5q0 -319 -172 -465l121 -168l-70 -53l-123 172q-90 -49 -209 -49q-251 0 -366 188h-7l3 -84q4 -74 4 -162v-414h-99zM281 541q0 -255 85.5 -364t278.5 -109q88 0 158 34l-129 183l69 51 l129 -182q123 123 123 385q0 479 -346 479q-190 0 -279 -104.5t-89 -340.5v-32z" horiz-adv-x="1219" unicode="ҏ"/><glyph d="M207 0v1462h702v301h99v-395h-699v-1368h-102z" horiz-adv-x="1028" unicode="Ґ"/><glyph d="M182 0v1087h543v330h96v-416h-540v-1001h-99z" horiz-adv-x="862" unicode="ґ"/><glyph d="M47 678v94h160v690h801v-94h-699v-596h439v-94h-439v-678h-102v678h-160z" horiz-adv-x="1028" unicode="Ғ"/><glyph d="M18 506v86h164v495h639v-86h-540v-409h366v-86h-366v-506h-99v506h-164z" horiz-adv-x="862" unicode="ғ"/><glyph d="M207 0v1462h821v-94h-719v-588q115 23 223 23q203 0 349.5 -79t222.5 -226t76 -344q0 -320 -133.5 -493t-380.5 -173q-144 0 -258 49v101q131 -56 258 -56q193 0 298 151t105 423q0 263 -146.5 409t-410.5 146q-108 0 -203 -23v-688h-102z" horiz-adv-x="1292" unicode="Ҕ"/><glyph d="M182 0v1087h656v-86h-557v-391q93 27 194 27q248 0 377 -149t129 -431q0 -265 -103 -412t-286 -147q-138 0 -225 58v100q112 -68 229 -68q134 0 207.5 124t73.5 347q0 241 -104 364.5t-308 123.5q-98 0 -184 -35v-512h-99z" horiz-adv-x="1049" unicode="ҕ"/><glyph d="M0 0l625 745l-592 717h127l588 -708v708h102v-708l588 708h127l-594 -710l547 -658h94v-463h-99v369h-51l-612 741v-741h-102v741l-613 -741h-135z" horiz-adv-x="1642" unicode="Җ"/><glyph d="M6 0l506 555l-469 532h121l467 -528v528h100v-528l467 528h121l-471 -528l422 -465h110v-463h-98v369h-53l-498 551v-551h-100v551l-498 -551h-127z" horiz-adv-x="1411" unicode="җ"/><glyph d="M82 66v104q95 -46 203 -71t204 -25q200 0 315.5 86.5t115.5 242.5q0 152 -112.5 230t-336.5 78h-217v96h225q212 0 313 80t101 227q0 125 -92.5 200t-241.5 75q-111 0 -204 -31.5t-201 -108.5l-58 80q202 154 463 154q205 0 323.5 -98t118.5 -265q0 -286 -303 -352v-6 q332 -71 332 -356q0 -201 -141.5 -313.5t-399.5 -112.5q-242 0 -407 86zM399 -346q34 -12 82 -12q107 0 107 110q0 72 -35.5 128.5t-108.5 119.5h91q151 -118 151 -260q0 -87 -51 -136.5t-137 -49.5q-56 0 -99 16v84z" horiz-adv-x="1145" unicode="Ҙ"/><glyph d="M68 55v99q103 -49 178 -66.5t160 -17.5q148 0 230.5 62.5t82.5 178.5q0 113 -79 167t-237 54h-151v86h135q295 0 295 203q0 97 -68 148t-194 51q-80 0 -149 -18.5t-148 -53.5l-37 82q174 78 338 78q178 0 270 -74t92 -205q0 -189 -194 -241v-6q121 -30 176 -99.5 t55 -177.5q0 -151 -110.5 -238t-306.5 -87q-106 0 -193.5 20.5t-144.5 54.5zM299 -346q34 -12 82 -12q107 0 107 110q0 72 -35.5 128.5t-108.5 119.5h91q151 -118 151 -260q0 -87 -51 -136.5t-137 -49.5q-56 0 -99 16v84z" horiz-adv-x="926" unicode="ҙ"/><glyph d="M207 0v1462h102v-760l162 162l573 598h130l-599 -618l545 -750h127v-463h-98v369h-84l-561 772l-195 -172v-600h-102z" horiz-adv-x="1278" unicode="Қ"/><glyph d="M182 0v1087h101v-528l489 528h123l-487 -526l434 -467h116v-463h-98v369h-63l-514 551v-551h-101z" horiz-adv-x="989" unicode="қ"/><glyph d="M207 0v1462h102v-760l162 162v355h86v-267l487 510h130l-599 -618l615 -844h-125l-508 700v-389h-86v432l-162 -143v-600h-102z" horiz-adv-x="1190" unicode="Ҝ"/><glyph d="M182 0v1087h101v-528l129 139v316h86v-223l274 296h123l-397 -428v-194l432 -465h-133l-299 322v-216h-86v308l-129 137v-551h-101z" horiz-adv-x="940" unicode="ҝ"/><glyph d="M49 1180v94h158v188h102v-188h250v-94h-250v-478l162 162l573 598h130l-599 -618l615 -844h-125l-561 772l-195 -172v-600h-102v1180h-158z" horiz-adv-x="1190" unicode="Ҟ"/><glyph d="M27 1270v86h155v200h99v-200h385v-86h-385v-494l-7 -299h5l555 610h120l-428 -464l465 -623h-119l-413 549l-178 -162v-387h-99v1270h-155z" horiz-adv-x="991" unicode="ҟ"/><glyph d="M10 1366v96h428v-760l162 162l574 598h129l-598 -618l614 -844h-125l-561 772l-195 -172v-600h-102v1366h-326z" horiz-adv-x="1319" unicode="Ҡ"/><glyph d="M41 1001v86h420v-528l489 528h123l-487 -526l522 -561h-133l-514 551v-551h-101v1001h-319z" horiz-adv-x="1118" unicode="ҡ"/><glyph d="M207 0v1462h102v-649h854v649h103v-1368h118v-463h-98v369h-123v719h-854v-719h-102z" horiz-adv-x="1483" unicode="Ң"/><glyph d="M182 0v1087h99v-477h690v477h98v-993h119v-463h-98v369h-119v524h-690v-524h-99z" horiz-adv-x="1251" unicode="ң"/><glyph d="M207 0v1462h102v-649h854v649h428v-96h-325v-1366h-103v719h-854v-719h-102z" horiz-adv-x="1602" unicode="Ҥ"/><glyph d="M182 0v1087h99v-477h690v477h418v-86h-320v-1001h-98v524h-690v-524h-99z" horiz-adv-x="1430" unicode="ҥ"/><glyph d="M207 0v1462h977v-682q113 23 223 23q194 0 336 -79.5t216.5 -226.5t74.5 -343q0 -321 -136 -493.5t-382 -172.5q-145 0 -259 49v101q134 -56 259 -56q192 0 299.5 150.5t107.5 423.5q0 261 -139 408t-389 147q-116 0 -211 -23v-688h-103v1366h-772v-1366h-102z" horiz-adv-x="2146" unicode="Ҧ"/><glyph d="M182 0v1087h807v-477q93 27 174 27q250 0 378 -146t128 -434q0 -267 -96 -413t-275 -146q-138 0 -225 58v100q114 -68 221 -68q132 0 201.5 123.5t69.5 347.5q0 488 -412 488q-91 0 -164 -27v-520h-98v993h-610v-993h-99z" horiz-adv-x="1737" unicode="ҧ"/><glyph d="M129 725q0 361 163 560.5t460 199.5q130 0 209 -27l-27 -96q-75 24 -186 24q-508 0 -508 -663q0 -311 143.5 -479t404.5 -168q38 0 85.5 5.5t74.5 14.5q-105 98 -163 250t-58 332q0 245 94.5 380.5t257.5 135.5q173 0 265 -132.5t92 -383.5q0 -185 -78.5 -348.5 t-212.5 -251.5q89 -68 196 -68q74 0 129 21v-92q-42 -23 -139 -23t-169.5 30.5t-131.5 73.5q-100 -40 -252 -40q-196 0 -344.5 92.5t-226.5 262t-78 390.5zM831 678q0 -350 224 -543q132 72 203 215t71 330q0 416 -250 416q-115 0 -181.5 -109.5t-66.5 -308.5z" horiz-adv-x="1565" unicode="Ҩ"/><glyph d="M119 535q0 266 117 419.5t329 153.5q82 0 146 -18l-21 -91q-69 19 -129 19q-162 0 -250 -124.5t-88 -358.5q0 -139 47.5 -245t138 -163t218.5 -57q78 0 127 22q-172 154 -172 406q0 178 72 277t202 99q128 0 195 -96t67 -276q0 -132 -53 -241.5t-150 -178.5 q24 -18 68 -32.5t84 -14.5q62 0 107 14v-88q-44 -14 -107 -14q-126 0 -240 76q-86 -43 -227 -43q-145 0 -254 70.5t-168 197.5t-59 287zM686 496q0 -122 39.5 -208t114.5 -151q78 51 126 145t48 220q0 139 -36.5 210.5t-121.5 71.5q-170 0 -170 -288z" horiz-adv-x="1239" unicode="ҩ"/><glyph d="M129 735q0 223 84.5 393t243 262.5t368.5 92.5q214 0 383 -80l-41 -92q-160 80 -336 80q-275 0 -433 -176t-158 -482q0 -313 149 -486t426 -173q184 0 338 47v-90q-145 -51 -362 -51q-308 0 -485 199t-177 556zM606 -346q34 -12 82 -12q107 0 107 110q0 72 -35.5 128.5 t-108.5 119.5h91q151 -118 151 -260q0 -87 -51 -136.5t-137 -49.5q-56 0 -99 16v84z" horiz-adv-x="1272" unicode="Ҫ"/><glyph d="M119 537q0 270 137 420.5t375 150.5q141 0 270 -49l-27 -88q-141 47 -245 47q-200 0 -303 -123.5t-103 -355.5q0 -220 103 -344.5t288 -124.5q148 0 275 53v-92q-104 -51 -273 -51q-233 0 -365 147t-132 410zM432 -346q34 -12 82 -12q107 0 107 110q0 72 -35.5 128.5 t-108.5 119.5h91q151 -118 151 -260q0 -87 -51 -136.5t-137 -49.5q-56 0 -99 16v84z" horiz-adv-x="973" unicode="ҫ"/><glyph d="M10 1366v96h1053v-96h-475v-1272h119v-463h-99v369h-123v1366h-475z" horiz-adv-x="1073" unicode="Ҭ"/><glyph d="M41 1001v86h831v-86h-362v-907h119v-463h-99v369h-118v1001h-371z" horiz-adv-x="913" unicode="ҭ"/><glyph d="M0 1462h117l426 -800l428 800h110l-487 -897v-565h-105v557z" horiz-adv-x="1081" unicode="Ү"/><glyph d="M0 1087h102l281 -739q56 -142 84 -248h6q41 136 84 250l281 737h102l-422 -1091v-488h-98v492z" horiz-adv-x="940" unicode="ү"/><glyph d="M0 1462h117l426 -800l428 800h110l-487 -897v-67h315v-95h-315v-403h-105v403h-317v95h317v59z" horiz-adv-x="1081" unicode="Ұ"/><glyph d="M0 1087h102l281 -739q56 -142 84 -248h6q41 136 84 250l281 737h102l-420 -1087h307v-86h-309v-406h-98v406h-309v86h309z" horiz-adv-x="940" unicode="ұ"/><glyph d="M0 0l492 762l-447 700h115l395 -626l401 626h109l-453 -698l428 -670h101v-463h-99v369h-57l-432 682l-440 -682h-113z" horiz-adv-x="1171" unicode="Ҳ"/><glyph d="M55 0l394 559l-379 528h114l324 -458l321 458h109l-373 -528l332 -465h109v-463h-99v369h-57l-342 485l-344 -485h-109z" horiz-adv-x="1036" unicode="ҳ"/><glyph d="M10 1366v96h1073v-96h-526v-1270h844v1366h102v-1366h156v-465h-98v369h-1106v1366h-445z" horiz-adv-x="1720" unicode="Ҵ"/><glyph d="M41 1001v86h821v-86h-393v-907h649v993h99v-993h145v-463h-98v369h-893v1001h-330z" horiz-adv-x="1411" unicode="ҵ"/><glyph d="M182 899v563h103v-567q0 -266 325 -266q96 0 192 17.5t261 76.5v739h102v-1368h119v-463h-98v369h-123v635q-261 -103 -461 -103q-204 0 -312 90.5t-108 276.5z" horiz-adv-x="1372" unicode="Ҷ"/><glyph d="M164 711v376h98v-364q0 -138 67 -199t206 -61q98 0 187 35t185 112v477h99v-993h118v-463h-98v369h-119v516q-100 -77 -196.5 -110t-208.5 -33q-167 0 -252.5 87t-85.5 251z" horiz-adv-x="1188" unicode="ҷ"/><glyph d="M182 899v563h103v-567q0 -266 325 -266h15v370h86v-366q73 7 147.5 25t204.5 65v739h102v-1462h-102v635q-174 -72 -352 -96v-326h-86v319h-23q-204 0 -312 90.5t-108 276.5z" horiz-adv-x="1372" unicode="Ҹ"/><glyph d="M164 711v376h98v-364q0 -138 67 -199t206 -61h2v311h86v-305q142 25 284 141v477h99v-1087h-99v516q-144 -108 -284 -133v-252h-86v242h-35q-167 0 -252.5 87t-85.5 251z" horiz-adv-x="1188" unicode="ҹ"/><glyph d="M207 0v1462h102v-635q274 111 461 111q205 0 312.5 -94t107.5 -281v-563h-103v567q0 138 -83 206.5t-242 68.5q-70 0 -130.5 -9t-115 -24t-105.5 -33.5t-102 -36.5v-739h-102z" horiz-adv-x="1352" unicode="Һ"/><glyph d="M182 0v1087h99v-516q100 77 196.5 110.5t208.5 33.5q167 0 252.5 -87t85.5 -251v-377h-98v365q0 138 -67 199t-206 61q-93 0 -183.5 -34t-188.5 -114v-477h-99z" horiz-adv-x="1167" unicode="һ"/><glyph d="M61 909q0 66 21 111h100q-18 -50 -18 -107q0 -66 39 -97.5t121 -31.5q9 209 90.5 368.5t224.5 246t324 86.5q268 0 407 -185t139 -546v-66h-1077q19 -315 168.5 -463.5t429.5 -148.5q94 0 181.5 15t201.5 52v-96q-179 -67 -403 -67q-326 0 -498.5 179t-187.5 529 q-129 2 -196 58.5t-67 162.5zM432 782h967q0 298 -112 452.5t-329 154.5q-237 0 -373 -157t-153 -450z" horiz-adv-x="1636" unicode="Ҽ"/><glyph d="M53 750q0 65 21 110h100q-18 -50 -18 -106q0 -127 145 -133q22 225 147 356t322 131q192 0 303 -134t111 -364v-80h-783q2 -224 104.5 -342t293.5 -118q93 0 163.5 13t178.5 56v-90q-92 -40 -170 -54.5t-172 -14.5q-235 0 -367.5 144t-134.5 404q-126 7 -185 66t-59 156z M408 618h671q0 189 -82 295.5t-227 106.5q-160 0 -254 -106.5t-108 -295.5z" horiz-adv-x="1303" unicode="ҽ"/><glyph d="M61 909q0 66 21 111h100q-18 -50 -18 -107q0 -66 39 -97.5t121 -31.5q9 209 90.5 368.5t224.5 246t324 86.5q268 0 407 -185t139 -546v-66h-1077q19 -315 168.5 -463.5t429.5 -148.5q94 0 181.5 15t201.5 52v-96q-179 -67 -403 -67v-349h-99v353q-559 52 -587 704 q-129 2 -196 58.5t-67 162.5zM432 782h967q0 298 -112 452.5t-329 154.5q-237 0 -373 -157t-153 -450z" horiz-adv-x="1636" unicode="Ҿ"/><glyph d="M53 750q0 65 21 110h100q-18 -50 -18 -106q0 -127 145 -133q22 225 147 356t322 131q192 0 303 -134t111 -364v-80h-783q2 -224 104.5 -342t293.5 -118q93 0 163.5 13t178.5 56v-90q-92 -40 -170 -54.5t-174 -14.5v-349h-99v357q-189 29 -294 168t-107 372 q-126 7 -185 66t-59 156zM408 618h671q0 189 -82 295.5t-227 106.5q-160 0 -254 -106.5t-108 -295.5z" horiz-adv-x="1303" unicode="ҿ"/><glyph d="M207 0v1462h102v-1462h-102z" horiz-adv-x="516" unicode="Ӏ"/><glyph d="M0 0l625 745l-592 717h127l588 -708v708h102v-708l588 708h127l-594 -710l626 -752h-135l-612 741v-741h-102v741l-613 -741h-135zM481 1872h88q15 -110 68 -155.5t164 -45.5q110 0 163.5 47t65.5 154h88q-21 -281 -319 -281q-149 0 -227 66.5t-91 214.5z" horiz-adv-x="1597" unicode="Ӂ"/><glyph d="M6 0l506 555l-469 532h121l467 -528v528h100v-528l467 528h121l-471 -528l508 -559h-127l-498 551v-551h-100v551l-498 -551h-127zM362 1522h88q15 -110 68 -155.5t164 -45.5q110 0 163.5 47t65.5 154h88q-21 -281 -319 -281q-149 0 -227 66.5t-91 214.5z" horiz-adv-x="1362" unicode="ӂ"/><glyph d="M207 0v1462h102v-727l725 727h129l-694 -692q54 12 100 12q322 0 491 -159.5t169 -468.5q0 -323 -136 -494.5t-391 -171.5q-135 0 -249 49v101q134 -56 249 -56q202 0 309 149t107 425q0 262 -146.5 396t-428.5 134q-143 0 -234 -41v-645h-102z" horiz-adv-x="1341" unicode="Ӄ"/><glyph d="M182 0v1087h99v-528l520 528h123l-482 -481q288 0 433 -138.5t145 -410.5q0 -177 -49 -302.5t-140 -191t-213 -65.5q-126 0 -217 58v100q47 -28 98.5 -48t121.5 -20q142 0 218 120.5t76 350.5q0 225 -117.5 342t-344.5 117q-92 0 -172 -26v-492h-99z" horiz-adv-x="1087" unicode="ӄ"/><glyph d="M0 2v92q61 -22 113 -22q87 0 135.5 108t106 466t114.5 816h719v-1368h153l-147 -463h-117l131 369h-123v1366h-530q-41 -339 -87 -643t-77.5 -433t-66 -191.5t-83.5 -92t-124 -29.5q-67 0 -117 25z" horiz-adv-x="1395" unicode="Ӆ"/><glyph d="M20 -2v90q19 -6 54 -6q113 0 182.5 238.5t105.5 766.5h572v-993h153l-147 -463h-117l131 369h-118v995h-385q-30 -395 -73.5 -602.5t-112 -305t-177.5 -97.5q-39 0 -68 8z" horiz-adv-x="1116" unicode="ӆ"/><glyph d="M207 0v1462h102v-647h854v647h103v-1315q0 -331 -123 -495t-383 -164q-76 0 -135 10.5t-131 40.5v94q134 -51 256 -51q208 0 310.5 137.5t102.5 427.5v574h-854v-721h-102z" horiz-adv-x="1473" unicode="Ӈ"/><glyph d="M182 0v1087h99v-475h690v475h98v-1052q0 -270 -81 -398.5t-261 -128.5q-126 0 -213 54v98q97 -61 205 -61q132 0 192 108.5t60 327.5v491h-690v-526h-99z" horiz-adv-x="1251" unicode="ӈ"/><glyph d="M207 0v1462h102v-649h854v649h103v-1368h153l-147 -463h-117l131 369h-123v719h-854v-719h-102z" horiz-adv-x="1473" unicode="Ӊ"/><glyph d="M182 0v1087h99v-479h690v479h98v-993h154l-148 -463h-117l132 369h-119v522h-690v-522h-99z" horiz-adv-x="1251" unicode="ӊ"/><glyph d="M182 899v563h103v-567q0 -266 325 -266q96 0 192 17.5t261 76.5v739h102v-1462h-123v-369h-98v463h119v541q-261 -103 -461 -103q-204 0 -312 90.5t-108 276.5z" horiz-adv-x="1372" unicode="Ӌ"/><glyph d="M164 711v376h98v-364q0 -138 67 -199t206 -61q98 0 187 35t185 112v477h99v-1087h-119v-369h-99v463h119v422q-100 -77 -196.5 -110t-208.5 -33q-167 0 -252.5 87t-85.5 251z" horiz-adv-x="1188" unicode="ӌ"/><glyph d="M207 0v1462h158l518 -1286h6l518 1286h154v-1368h153l-147 -463h-117l131 369h-123v1108q0 116 12 240h-8l-547 -1348h-65l-545 1350h-8q8 -124 8 -254v-1096h-98z" horiz-adv-x="1767" unicode="Ӎ"/><glyph d="M182 0v1087h131l314 -800q37 -97 61 -181l62 175l313 806h137v-993h154l-148 -463h-116l131 369h-115v967q-22 -63 -46.5 -129t-326.5 -838h-88l-301 764q-19 46 -35.5 97t-36.5 110v-971h-90z" horiz-adv-x="1382" unicode="ӎ"/><glyph d="M207 0v1462h102v-1462h-102z" horiz-adv-x="516" unicode="ӏ"/><glyph d="M0 0l588 1468h65l576 -1468h-115l-203 516h-594l-204 -516h-113zM354 608h523l-199 527q-25 62 -60 172q-27 -96 -59 -174zM301 1860h88q15 -110 68 -155.5t164 -45.5q110 0 163.5 47t65.5 154h88q-21 -281 -319 -281q-149 0 -227 66.5t-91 214.5z" horiz-adv-x="1229" unicode="Ӑ"/><glyph d="M98 289q0 159 132.5 247t383.5 93l207 6v72q0 155 -63 234t-203 79q-151 0 -313 -84l-37 86q179 84 354 84q179 0 267.5 -93t88.5 -290v-723h-73l-25 172h-8q-82 -105 -168.5 -148.5t-204.5 -43.5q-160 0 -249 82t-89 227zM203 285q0 -102 62.5 -158.5t176.5 -56.5 q174 0 274.5 99.5t100.5 276.5v107l-190 -8q-229 -11 -326.5 -71.5t-97.5 -188.5zM228 1522h88q15 -110 68 -155.5t164 -45.5q110 0 163.5 47t65.5 154h88q-21 -281 -319 -281q-149 0 -227 66.5t-91 214.5z" horiz-adv-x="1085" unicode="ӑ"/><glyph d="M0 0l588 1468h65l576 -1468h-115l-203 516h-594l-204 -516h-113zM354 608h523l-199 527q-25 62 -60 172q-27 -96 -59 -174zM367 1727q0 46 15.5 66t47.5 20q64 0 64 -86t-64 -86q-63 0 -63 86zM748 1727q0 46 15.5 66t47.5 20q64 0 64 -86t-64 -86q-63 0 -63 86z" horiz-adv-x="1229" unicode="Ӓ"/><glyph d="M98 289q0 159 132.5 247t383.5 93l207 6v72q0 155 -63 234t-203 79q-151 0 -313 -84l-37 86q179 84 354 84q179 0 267.5 -93t88.5 -290v-723h-73l-25 172h-8q-82 -105 -168.5 -148.5t-204.5 -43.5q-160 0 -249 82t-89 227zM203 285q0 -102 62.5 -158.5t176.5 -56.5 q174 0 274.5 99.5t100.5 276.5v107l-190 -8q-229 -11 -326.5 -71.5t-97.5 -188.5zM282 1389q0 46 15.5 66t47.5 20q64 0 64 -86t-64 -86q-63 0 -63 86zM663 1389q0 46 15.5 66t47.5 20q64 0 64 -86t-64 -86q-63 0 -63 86z" horiz-adv-x="1085" unicode="ӓ"/><glyph d="M-2 0l653 1462h877v-94h-615v-553h576v-94h-576v-627h615v-94h-717v516h-475l-227 -516h-111zM377 608h434v760h-100z" horiz-adv-x="1653" unicode="Ӕ"/><glyph d="M98 289q0 154 125 243t377 97l201 6v72q0 155 -61.5 234t-198.5 79q-148 0 -305 -84l-37 86q173 84 346 84q261 0 325 -211q111 213 347 213q184 0 289.5 -134.5t105.5 -363.5v-80h-715q0 -460 348 -460q85 0 150 12t174 57v-90q-92 -41 -165 -55t-161 -14 q-295 0 -397 256q-68 -133 -168 -194.5t-252 -61.5q-156 0 -242 82.5t-86 226.5zM203 285q0 -102 61 -158.5t170 -56.5q169 0 266 99.5t97 276.5v107l-187 -8q-219 -11 -313 -71.5t-94 -188.5zM903 618h604q0 188 -77.5 295t-212.5 107q-284 0 -314 -402z" horiz-adv-x="1731" unicode="ӕ"/><glyph d="M207 0v1462h799v-94h-697v-553h658v-94h-658v-627h697v-94h-799zM274 1860h88q15 -110 68 -155.5t164 -45.5q110 0 163.5 47t65.5 154h88q-21 -281 -319 -281q-149 0 -227 66.5t-91 214.5z" horiz-adv-x="1130" unicode="Ӗ"/><glyph d="M119 535q0 260 128 416.5t345 156.5q192 0 303 -134t111 -364v-80h-783q2 -224 104.5 -342t293.5 -118q93 0 163.5 13t178.5 56v-90q-92 -40 -170 -54.5t-172 -14.5q-237 0 -369.5 146t-132.5 409zM229 618h672q0 189 -82 295.5t-227 106.5q-157 0 -252 -103.5 t-111 -298.5zM261 1522h88q15 -110 68 -155.5t164 -45.5q110 0 163.5 47t65.5 154h88q-21 -281 -319 -281q-149 0 -227 66.5t-91 214.5z" horiz-adv-x="1124" unicode="ӗ"/><glyph d="M127 715v61h1077q-34 610 -565 610q-189 0 -416 -73v100q128 43 220.5 57.5t195.5 14.5q329 0 501.5 -195.5t172.5 -560.5q0 -224 -75 -394t-217 -262.5t-335 -92.5q-275 0 -417 185.5t-142 549.5zM238 682q0 -295 115.5 -450.5t336.5 -155.5q227 0 363.5 160.5 t150.5 445.5h-966z" horiz-adv-x="1442" unicode="Ә"/><glyph d="M119 477v80h782q-2 223 -103.5 342t-293.5 119q-89 0 -162.5 -14t-179.5 -56v90q90 39 165.5 54.5t176.5 15.5q237 0 369.5 -146t132.5 -409q0 -172 -59 -303.5t-167 -200.5t-248 -69q-191 0 -302 133.5t-111 363.5zM223 469q0 -186 81.5 -293.5t227.5 -107.5 q157 0 252 104t111 297h-672z" horiz-adv-x="1124" unicode="ә"/><glyph d="M127 715v61h1077q-34 610 -565 610q-189 0 -416 -73v100q128 43 220.5 57.5t195.5 14.5q329 0 501.5 -195.5t172.5 -560.5q0 -224 -75 -394t-217 -262.5t-335 -92.5q-275 0 -417 185.5t-142 549.5zM238 682q0 -295 115.5 -450.5t336.5 -155.5q227 0 363.5 160.5 t150.5 445.5h-966zM488 1727q0 46 15.5 66t47.5 20q64 0 64 -86t-64 -86q-63 0 -63 86zM869 1727q0 46 15.5 66t47.5 20q64 0 64 -86t-64 -86q-63 0 -63 86z" horiz-adv-x="1442" unicode="Ӛ"/><glyph d="M119 477v80h782q-2 223 -103.5 342t-293.5 119q-89 0 -162.5 -14t-179.5 -56v90q90 39 165.5 54.5t176.5 15.5q237 0 369.5 -146t132.5 -409q0 -172 -59 -303.5t-167 -200.5t-248 -69q-191 0 -302 133.5t-111 363.5zM223 469q0 -186 81.5 -293.5t227.5 -107.5 q157 0 252 104t111 297h-672zM310 1389q0 46 15.5 66t47.5 20q64 0 64 -86t-64 -86q-63 0 -63 86zM691 1389q0 46 15.5 66t47.5 20q64 0 64 -86t-64 -86q-63 0 -63 86z" horiz-adv-x="1124" unicode="ӛ"/><glyph d="M0 0l625 745l-592 717h127l588 -708v708h102v-708l588 708h127l-594 -710l626 -752h-135l-612 741v-741h-102v741l-613 -741h-135zM545 1727q0 46 15.5 66t47.5 20q64 0 64 -86t-64 -86q-63 0 -63 86zM926 1727q0 46 15.5 66t47.5 20q64 0 64 -86t-64 -86q-63 0 -63 86z" horiz-adv-x="1597" unicode="Ӝ"/><glyph d="M6 0l506 555l-469 532h121l467 -528v528h100v-528l467 528h121l-471 -528l508 -559h-127l-498 551v-551h-100v551l-498 -551h-127zM426 1389q0 46 15.5 66t47.5 20q64 0 64 -86t-64 -86q-63 0 -63 86zM807 1389q0 46 15.5 66t47.5 20q64 0 64 -86t-64 -86q-63 0 -63 86z" horiz-adv-x="1362" unicode="ӝ"/><glyph d="M82 66v104q95 -46 203 -71t204 -25q200 0 315.5 86.5t115.5 242.5q0 152 -112.5 230t-336.5 78h-217v96h225q212 0 313 80t101 227q0 125 -92.5 200t-241.5 75q-111 0 -204 -31.5t-201 -108.5l-58 80q202 154 463 154q205 0 323.5 -98t118.5 -265q0 -286 -303 -352v-6 q332 -71 332 -356q0 -201 -141.5 -313.5t-399.5 -112.5q-242 0 -407 86zM310 1727q0 46 15.5 66t47.5 20q64 0 64 -86t-64 -86q-63 0 -63 86zM691 1727q0 46 15.5 66t47.5 20q64 0 64 -86t-64 -86q-63 0 -63 86z" horiz-adv-x="1145" unicode="Ӟ"/><glyph d="M68 55v99q103 -49 178 -66.5t160 -17.5q148 0 230.5 62.5t82.5 178.5q0 113 -79 167t-237 54h-151v86h135q295 0 295 203q0 97 -68 148t-194 51q-80 0 -149 -18.5t-148 -53.5l-37 82q174 78 338 78q178 0 270 -74t92 -205q0 -189 -194 -241v-6q121 -30 176 -99.5 t55 -177.5q0 -151 -110.5 -238t-306.5 -87q-106 0 -193.5 20.5t-144.5 54.5zM194 1389q0 46 15.5 66t47.5 20q64 0 64 -86t-64 -86q-63 0 -63 86zM575 1389q0 46 15.5 66t47.5 20q64 0 64 -86t-64 -86q-63 0 -63 86z" horiz-adv-x="926" unicode="ӟ"/><glyph d="M82 63v109q198 -96 414 -96q206 0 319 85t113 240q0 151 -122 231.5t-351 80.5h-152v86l565 567h-749v96h882v-96l-559 -551q286 0 441 -107t155 -302q0 -207 -142 -316.5t-407 -109.5q-248 0 -407 83z" horiz-adv-x="1153" unicode="Ӡ"/><glyph d="M31 -322q90 -43 174 -61t174 -18q181 0 286 108t105 293q0 172 -110.5 259t-342.5 87h-124v80l507 573h-645v88h781v-73l-517 -578q291 -3 423 -112t132 -324q0 -148 -62 -260.5t-174.5 -172t-254.5 -59.5q-209 0 -352 68v102z" horiz-adv-x="942" unicode="ӡ"/><glyph d="M207 0v1462h98v-956q0 -102 -8 -342h6l864 1298h103v-1462h-99v950q0 162 13 350h-8l-867 -1300h-102zM461 1589v82h555v-82h-555z" horiz-adv-x="1477" unicode="Ӣ"/><glyph d="M182 0v1087h94v-786l-6 -205l645 991h132v-1087h-95v781l4 210l-645 -991h-129zM338 1251v82h555v-82h-555z" horiz-adv-x="1229" unicode="ӣ"/><glyph d="M207 0v1462h98v-956q0 -102 -8 -342h6l864 1298h103v-1462h-99v950q0 162 13 350h-8l-867 -1300h-102zM483 1727q0 46 15.5 66t47.5 20q64 0 64 -86t-64 -86q-63 0 -63 86zM864 1727q0 46 15.5 66t47.5 20q64 0 64 -86t-64 -86q-63 0 -63 86z" horiz-adv-x="1477" unicode="Ӥ"/><glyph d="M182 0v1087h94v-786l-6 -205l645 991h132v-1087h-95v781l4 210l-645 -991h-129zM361 1389q0 46 15.5 66t47.5 20q64 0 64 -86t-64 -86q-63 0 -63 86zM742 1389q0 46 15.5 66t47.5 20q64 0 64 -86t-64 -86q-63 0 -63 86z" horiz-adv-x="1229" unicode="ӥ"/><glyph d="M129 735q0 349 175.5 549.5t479.5 200.5q306 0 479 -201.5t173 -550.5q0 -348 -174 -550.5t-480 -202.5q-305 0 -479 202.5t-174 552.5zM240 733q0 -314 140 -485.5t402 -171.5q264 0 403.5 170t139.5 487q0 316 -139.5 484.5t-401.5 168.5q-261 0 -402.5 -170 t-141.5 -483zM529 1727q0 46 15.5 66t47.5 20q64 0 64 -86t-64 -86q-63 0 -63 86zM910 1727q0 46 15.5 66t47.5 20q64 0 64 -86t-64 -86q-63 0 -63 86z" horiz-adv-x="1565" unicode="Ӧ"/><glyph d="M119 545q0 266 129 414.5t354 148.5q224 0 351.5 -150.5t127.5 -412.5q0 -266 -129 -415.5t-356 -149.5q-143 0 -252 69t-167 198t-58 298zM223 545q0 -224 98.5 -349.5t278.5 -125.5t278.5 125.5t98.5 349.5q0 225 -99.5 349t-279.5 124t-277.5 -123.5t-97.5 -349.5z M346 1389q0 46 15.5 66t47.5 20q64 0 64 -86t-64 -86q-63 0 -63 86zM727 1389q0 46 15.5 66t47.5 20q64 0 64 -86t-64 -86q-63 0 -63 86z" horiz-adv-x="1200" unicode="ӧ"/><glyph d="M129 735q0 349 175.5 549.5t479.5 200.5q306 0 479 -201.5t173 -550.5q0 -348 -174 -550.5t-480 -202.5q-305 0 -479 202.5t-174 552.5zM240 698q8 -299 147.5 -460.5t394.5 -161.5q256 0 395.5 160t147.5 462h-1085zM242 793h1081q-13 288 -152.5 440.5t-386.5 152.5 q-250 0 -389 -153.5t-153 -439.5z" horiz-adv-x="1565" unicode="Ө"/><glyph d="M119 545q0 266 129 414.5t354 148.5q224 0 351.5 -150.5t127.5 -412.5q0 -266 -129 -415.5t-356 -149.5q-143 0 -252 69t-167 198t-58 298zM223 522q4 -211 103 -331.5t274 -120.5q174 0 272.5 118.5t104.5 333.5h-754zM225 610h750q-16 196 -114.5 302t-262.5 106 q-165 0 -262 -107.5t-111 -300.5z" horiz-adv-x="1200" unicode="ө"/><glyph d="M129 735q0 349 175.5 549.5t479.5 200.5q306 0 479 -201.5t173 -550.5q0 -348 -174 -550.5t-480 -202.5q-305 0 -479 202.5t-174 552.5zM240 698q8 -299 147.5 -460.5t394.5 -161.5q256 0 395.5 160t147.5 462h-1085zM242 793h1081q-13 288 -152.5 440.5t-386.5 152.5 q-250 0 -389 -153.5t-153 -439.5zM529 1727q0 46 15.5 66t47.5 20q64 0 64 -86t-64 -86q-63 0 -63 86zM910 1727q0 46 15.5 66t47.5 20q64 0 64 -86t-64 -86q-63 0 -63 86z" horiz-adv-x="1565" unicode="Ӫ"/><glyph d="M119 545q0 266 129 414.5t354 148.5q224 0 351.5 -150.5t127.5 -412.5q0 -266 -129 -415.5t-356 -149.5q-143 0 -252 69t-167 198t-58 298zM223 522q4 -211 103 -331.5t274 -120.5q174 0 272.5 118.5t104.5 333.5h-754zM225 610h750q-16 196 -114.5 302t-262.5 106 q-165 0 -262 -107.5t-111 -300.5zM346 1389q0 46 15.5 66t47.5 20q64 0 64 -86t-64 -86q-63 0 -63 86zM727 1389q0 46 15.5 66t47.5 20q64 0 64 -86t-64 -86q-63 0 -63 86z" horiz-adv-x="1200" unicode="ӫ"/><glyph d="M70 31v94q167 -51 364 -51q270 0 425 169t169 476h-774v94h772q-22 278 -174.5 428t-417.5 150q-80 0 -154.5 -17.5t-162.5 -60.5l-41 92q164 78 368 78q324 0 508.5 -192t184.5 -525q0 -239 -83 -417t-239.5 -273.5t-361.5 -95.5q-238 0 -383 51zM329 1727q0 46 15.5 66 t47.5 20q64 0 64 -86t-64 -86q-63 0 -63 86zM710 1727q0 46 15.5 66t47.5 20q64 0 64 -86t-64 -86q-63 0 -63 86z" horiz-adv-x="1266" unicode="Ӭ"/><glyph d="M68 31v92q127 -53 284 -53q196 0 313 124.5t119 335.5h-620v88h616q-17 197 -119.5 298.5t-281.5 101.5q-106 0 -266 -60l-29 89q56 23 140 42t153 19q244 0 377 -144t133 -407q0 -269 -141.5 -423t-387.5 -154q-92 0 -171 15t-119 36zM214 1389q0 46 15.5 66t47.5 20 q64 0 64 -86t-64 -86q-63 0 -63 86zM595 1389q0 46 15.5 66t47.5 20q64 0 64 -86t-64 -86q-63 0 -63 86z" horiz-adv-x="1006" unicode="ӭ"/><glyph d="M10 1462h121l447 -854q35 -69 63 -143h4l25 61l420 936h114l-469 -1028q-45 -99 -86 -182.5t-91 -143.5t-117 -94t-165 -34q-119 0 -192 30v103q86 -37 182 -37q72 0 123.5 24.5t95.5 79t107 182.5zM338 1589v82h555v-82h-555z" horiz-adv-x="1204" unicode="Ӯ"/><glyph d="M0 1087h102l230 -610q105 -281 133 -379h6q42 129 137 385l230 604h102l-487 -1263q-59 -154 -99 -208t-93.5 -81t-129.5 -27q-57 0 -127 21v86q58 -16 125 -16q51 0 90 24t70.5 74.5t73 160t53.5 142.5zM194 1251v82h555v-82h-555z" horiz-adv-x="940" unicode="ӯ"/><glyph d="M10 1462h121l447 -854q35 -69 63 -143h4l25 61l420 936h114l-469 -1028q-45 -99 -86 -182.5t-91 -143.5t-117 -94t-165 -34q-119 0 -192 30v103q86 -37 182 -37q72 0 123.5 24.5t95.5 79t107 182.5zM365 1727q0 46 15.5 66t47.5 20q64 0 64 -86t-64 -86q-63 0 -63 86z M746 1727q0 46 15.5 66t47.5 20q64 0 64 -86t-64 -86q-63 0 -63 86z" horiz-adv-x="1204" unicode="Ӱ"/><glyph d="M0 1087h102l230 -610q105 -281 133 -379h6q42 129 137 385l230 604h102l-487 -1263q-59 -154 -99 -208t-93.5 -81t-129.5 -27q-57 0 -127 21v86q58 -16 125 -16q51 0 90 24t70.5 74.5t73 160t53.5 142.5zM214 1389q0 46 15.5 66t47.5 20q64 0 64 -86t-64 -86 q-63 0 -63 86zM595 1389q0 46 15.5 66t47.5 20q64 0 64 -86t-64 -86q-63 0 -63 86z" horiz-adv-x="940" unicode="ӱ"/><glyph d="M10 1462h121l447 -854q35 -69 63 -143h4l25 61l420 936h114l-469 -1028q-45 -99 -86 -182.5t-91 -143.5t-117 -94t-165 -34q-119 0 -192 30v103q86 -37 182 -37q72 0 123.5 24.5t95.5 79t107 182.5zM367 1579v16q31 33 67 90t121 222h136v-17q-135 -202 -254 -311h-70z M705 1579v16q31 33 67 90t121 222h136v-17q-135 -202 -254 -311h-70z" horiz-adv-x="1204" unicode="Ӳ"/><glyph d="M0 1087h102l230 -610q105 -281 133 -379h6q42 129 137 385l230 604h102l-487 -1263q-59 -154 -99 -208t-93.5 -81t-129.5 -27q-57 0 -127 21v86q58 -16 125 -16q51 0 90 24t70.5 74.5t73 160t53.5 142.5zM212 1241v16q31 33 67 90t121 222h136v-17q-135 -202 -254 -311 h-70zM550 1241v16q31 33 67 90t121 222h136v-17q-135 -202 -254 -311h-70z" horiz-adv-x="940" unicode="ӳ"/><glyph d="M182 899v563h103v-567q0 -266 325 -266q96 0 192 17.5t261 76.5v739h102v-1462h-102v635q-261 -103 -461 -103q-204 0 -312 90.5t-108 276.5zM420 1727q0 46 15.5 66t47.5 20q64 0 64 -86t-64 -86q-63 0 -63 86zM801 1727q0 46 15.5 66t47.5 20q64 0 64 -86t-64 -86 q-63 0 -63 86z" horiz-adv-x="1372" unicode="Ӵ"/><glyph d="M164 711v376h98v-364q0 -138 67 -199t206 -61q98 0 187 35t185 112v477h99v-1087h-99v516q-100 -77 -196.5 -110t-208.5 -33q-167 0 -252.5 87t-85.5 251zM331 1389q0 46 15.5 66t47.5 20q64 0 64 -86t-64 -86q-63 0 -63 86zM712 1389q0 46 15.5 66t47.5 20q64 0 64 -86 t-64 -86q-63 0 -63 86z" horiz-adv-x="1188" unicode="ӵ"/><glyph d="M207 0v1462h801v-94h-699v-1274h99v-463h-99v369h-102z" horiz-adv-x="1028" unicode="Ӷ"/><glyph d="M182 0v1087h639v-86h-540v-907h98v-463h-98v369h-99z" horiz-adv-x="862" unicode="ӷ"/><glyph d="M207 0v1462h102v-645h283q251 0 377.5 -95.5t126.5 -301.5q0 -202 -124 -311t-358 -109h-407zM309 90h289q204 0 295.5 83t91.5 247q0 163 -95 235t-312 72h-269v-637zM1360 0v1462h102v-1462h-102zM576 1727q0 46 15.5 66t47.5 20q64 0 64 -86t-64 -86q-63 0 -63 86z M957 1727q0 46 15.5 66t47.5 20q64 0 64 -86t-64 -86q-63 0 -63 86z" horiz-adv-x="1669" unicode="Ӹ"/><glyph d="M182 0v1087h99v-458h346q383 0 383 -301q0 -155 -107 -241.5t-307 -86.5h-414zM281 94h331q141 0 217 59t76 177q0 108 -67 156.5t-232 48.5h-325v-441zM1200 0v1087h98v-1087h-98zM486 1389q0 46 15.5 66t47.5 20q64 0 64 -86t-64 -86q-63 0 -63 86zM867 1389 q0 46 15.5 66t47.5 20q64 0 64 -86t-64 -86q-63 0 -63 86z" horiz-adv-x="1481" unicode="ӹ"/><glyph d="M47 678v94h160v690h801v-94h-699v-596h439v-94h-439v-584h119v-244q0 -104 -46 -161.5t-136 -57.5q-57 0 -99 21v92q45 -18 84 -18q99 0 99 124v150h-123v678h-160z" horiz-adv-x="1028" unicode="Ӻ"/><glyph d="M18 506v86h164v495h639v-86h-540v-409h366v-86h-366v-412h118v-244q0 -104 -46 -161.5t-136 -57.5q-59 0 -98 21v92q45 -18 84 -18q98 0 98 124v150h-119v506h-164z" horiz-adv-x="862" unicode="ӻ"/><glyph d="M0 0l492 762l-447 700h115l395 -626l401 626h109l-453 -698l430 -670h119v-244q0 -104 -46 -161.5t-136 -57.5q-59 0 -98 21v92q45 -18 84 -18q98 0 98 124v150h-78l-432 682l-440 -682h-113z" horiz-adv-x="1192" unicode="Ӽ"/><glyph d="M55 0l394 559l-379 528h114l324 -458l321 458h109l-373 -528l332 -465h109v-244q0 -104 -46 -161.5t-137 -57.5q-59 0 -98 21v92q45 -18 84 -18q98 0 98 124v150h-57l-342 485l-344 -485h-109z" horiz-adv-x="1036" unicode="ӽ"/><glyph d="M0 0l477 741h-330v90h299l-401 631h115l395 -626l401 626h109l-410 -631h303v-90h-331l475 -741h-117l-432 682l-440 -682h-113z" horiz-adv-x="1102" unicode="Ӿ"/><glyph d="M55 0l371 526h-303v82h291l-344 479h114l324 -458l321 458h109l-338 -479h297v-82h-309l377 -526h-115l-342 485l-344 -485h-109z" horiz-adv-x="1020" unicode="ӿ"/><glyph d="M111 420q0 206 126 301.5t377 95.5h295v645h103v-1462h-420q-233 0 -357 108.5t-124 311.5zM221 420q0 -164 91.5 -247t295.5 -83h301v637h-280q-217 0 -312.5 -71.5t-95.5 -235.5z" horiz-adv-x="1219" unicode="Ԁ"/><glyph d="M119 528q0 282 118 431t343 149q118 0 204 -43t154 -147h6q-6 126 -6 247v391h98v-1556h-65l-25 166h-8q-124 -186 -356 -186q-225 0 -344 140t-119 408zM223 530q0 -462 359 -462q184 0 270 107t86 353v17q0 252 -84.5 362.5t-273.5 110.5q-178 0 -267.5 -125 t-89.5 -363z" horiz-adv-x="1219" unicode="ԁ"/><glyph d="M113 385q0 210 144.5 321t408.5 111h190v645h102v-1083q0 -303 273 -303q116 0 175.5 75t59.5 222v475h103v-481q0 -184 -89.5 -285.5t-254.5 -101.5q-236 0 -330 182q-121 -182 -348 -182q-207 0 -320.5 105t-113.5 300zM223 391q0 -156 85.5 -238.5t246.5 -82.5 q142 0 221.5 79t79.5 213v363h-197q-436 0 -436 -334z" horiz-adv-x="1759" unicode="Ԃ"/><glyph d="M119 528q0 282 118 431t343 149q112 0 192 -47t135 -143h6q-6 126 -6 247v391h99v-1142q0 -177 61 -261.5t197 -84.5q109 0 173 73.5t64 231.5v327h98v-333q0 -189 -88 -288t-256 -99q-249 0 -315 223h-6q-109 -223 -352 -223q-225 0 -344 140t-119 408zM223 530 q0 -462 359 -462q166 0 245.5 111t79.5 349v17q0 242 -77 357.5t-250 115.5q-178 0 -267.5 -125t-89.5 -363z" horiz-adv-x="1769" unicode="ԃ"/><glyph d="M82 1329q112 82 218 118t232 36q194 0 304 -98t110 -265q0 -141 -78 -231t-223 -121v-6q171 -37 246 -124.5t86 -250.5q12 -175 71 -243t193 -68q121 0 180.5 73t59.5 222v477h102v-481q0 -188 -88 -287.5t-254 -99.5q-191 0 -279.5 97.5t-97.5 307.5q-7 172 -108 249 t-322 77h-194v96h194q199 0 301.5 79.5t102.5 227.5q0 126 -85 200.5t-221 74.5q-103 0 -192 -30.5t-201 -109.5z" horiz-adv-x="1774" unicode="Ԅ"/><glyph d="M80 1030q80 35 157.5 56.5t165.5 21.5q165 0 257 -74t92 -209q0 -91 -49.5 -152.5t-145.5 -84.5v-6q113 -24 165.5 -83t68.5 -173q13 -98 40.5 -154t72.5 -80t138 -24q236 0 236 305v327h98v-333q0 -189 -85 -288t-249 -99q-116 0 -185.5 33t-108 103.5t-58.5 209.5 q-15 111 -81 158.5t-220 47.5h-143v86h112q141 0 215 52t74 151q0 93 -65 146t-185 53q-123 0 -280 -72z" horiz-adv-x="1546" unicode="ԅ"/><glyph d="M82 1329q202 154 463 154q205 0 323.5 -99t118.5 -264q0 -141 -77 -230.5t-226 -121.5v-6q171 -35 244 -118t73 -238v-312h119v-463h-98v369h-123v403q0 155 -112.5 231.5t-340.5 76.5h-206v96h225q212 0 313 80t101 227q0 125 -92.5 200t-241.5 75q-112 0 -205.5 -32 t-200.5 -108z" horiz-adv-x="1184" unicode="Ԇ"/><glyph d="M86 1030q174 78 338 78q178 0 270 -74t92 -205q0 -189 -194 -241v-6q122 -31 170.5 -95t48.5 -174v-219h119v-463h-99v369h-118v319q0 109 -78 161t-236 52h-147v86h135q295 0 295 203q0 97 -68 148t-194 51q-80 0 -149 -18.5t-148 -53.5z" horiz-adv-x="983" unicode="ԇ"/><glyph d="M0 2v92q61 -22 111 -22q51 0 85 31.5t58 88t59 220.5t76.5 435.5t87.5 614.5h631v-1079q0 -167 61 -237t195 -70q250 0 250 297v475h102v-481q0 -184 -93.5 -285.5t-258.5 -101.5q-186 0 -272 99t-86 302v985h-443l-36 -258q-30 -216 -69 -463.5t-80 -398.5t-99.5 -210 t-157.5 -59q-66 0 -121 25z" horiz-adv-x="1907" unicode="Ԉ"/><glyph d="M20 -2v90q20 -6 50 -6q115 0 184.5 233t107.5 772h541v-718q0 -301 256 -301q111 0 175.5 71.5t64.5 225.5v335h98v-333q0 -188 -86.5 -287.5t-251.5 -99.5q-354 0 -354 401v614h-354q-30 -400 -73.5 -607t-114 -302.5t-181.5 -95.5q-33 0 -62 8z" horiz-adv-x="1667" unicode="ԉ"/><glyph d="M207 0v1462h102v-649h813v649h103v-1089q0 -153 60.5 -226t195.5 -73q250 0 250 288v486h102v-481q0 -184 -91.5 -285.5t-260.5 -101.5q-184 0 -271.5 100.5t-87.5 300.5v338h-813v-719h-102z" horiz-adv-x="2023" unicode="Ԋ"/><glyph d="M182 0v1087h99v-477h659v477h98v-714q0 -305 254 -305q118 0 180 75.5t62 221.5v335h98v-333q0 -189 -87.5 -288t-252.5 -99q-176 0 -264 99t-88 302v143h-659v-524h-99z" horiz-adv-x="1802" unicode="ԋ"/><glyph d="M129 733q0 229 90.5 399t259.5 260.5t391 90.5q102 0 214.5 -21t197.5 -57l-39 -94q-80 35 -180.5 57.5t-196.5 22.5q-290 0 -458 -174t-168 -484q0 -311 148 -486t413 -175q243 0 359 137.5t116 427.5h-410v96h518v-88q0 -335 -146 -500t-441 -165q-313 0 -490.5 200 t-177.5 553z" horiz-adv-x="1503" unicode="Ԍ"/><glyph d="M119 539q0 173 70.5 302.5t205 198t320.5 68.5q207 0 370 -68l-32 -88q-150 66 -336 66q-234 0 -364 -123.5t-130 -351.5t116 -350.5t333 -122.5q383 0 383 391h-379v86h477v-68q0 -246 -122 -372.5t-361 -126.5q-260 0 -405.5 147.5t-145.5 411.5z" horiz-adv-x="1257" unicode="ԍ"/><glyph d="M10 1366v96h1057v-96h-479v-983q0 -161 62.5 -235t203.5 -74q240 0 240 299v475h102v-481q0 -187 -90 -287t-252 -100q-187 0 -278 98.5t-91 302.5v985h-475z" horiz-adv-x="1386" unicode="Ԏ"/><glyph d="M41 1001v86h821v-86h-362v-618q0 -315 256 -315q239 0 239 305v327h99v-333q0 -188 -86.5 -287.5t-251.5 -99.5q-355 0 -355 401v620h-360z" horiz-adv-x="1264" unicode="ԏ"/><glyph d="M115 385q0 146 100.5 245.5t280.5 131.5v6q-166 29 -252 116t-86 224q0 108 57 194.5t162 133.5t237 47q273 0 463 -111l-51 -90q-181 107 -412 107q-154 0 -251 -77t-97 -210q0 -143 126.5 -219t346.5 -76h166v-96h-196q-233 0 -357.5 -84.5t-124.5 -243.5 q0 -151 110 -230t318 -79q238 0 414 86v-101q-151 -79 -414 -79q-262 0 -401 104.5t-139 300.5z" horiz-adv-x="1159" unicode="Ԑ"/><glyph d="M94 287q0 224 248 284v9q-215 63 -215 239q0 133 103 211t282 78q96 0 174.5 -15.5t165.5 -52.5l-37 -84q-148 64 -303 64q-142 0 -211.5 -53t-69.5 -150q0 -199 326 -199h115v-86h-140q-169 0 -251 -62.5t-82 -174.5q0 -105 87 -165t244 -60q76 0 140 14t174 66v-93 q-135 -77 -322 -77q-202 0 -315 81t-113 226z" horiz-adv-x="928" unicode="ԑ"/><glyph d="M0 2v92q61 -22 113 -22q87 0 135.5 108t106 466t114.5 816h719v-1368h119v-244q0 -104 -46 -161.5t-137 -57.5q-56 0 -98 21v92q45 -18 84 -18q98 0 98 124v150h-123v1366h-530q-41 -339 -87 -643t-77.5 -433t-66 -191.5t-83.5 -92t-124 -29.5q-67 0 -117 25z" horiz-adv-x="1395" unicode="Ԓ"/><glyph d="M20 -2v90q19 -6 54 -6q113 0 182.5 238.5t105.5 766.5h572v-993h119v-244q0 -104 -46 -161.5t-137 -57.5q-56 0 -98 21v92q45 -18 84 -18q98 0 98 124v150h-118v995h-385q-30 -395 -73.5 -602.5t-112 -305t-177.5 -97.5q-39 0 -68 8z" horiz-adv-x="1116" unicode="ԓ"/><glyph d="M0 0l588 1468h65l576 -1468h-115l-203 516h-594l-204 -516h-113zM354 608h523l-199 527q-25 62 -60 172q-27 -96 -59 -174zM397 -338q0 94 60 152.5t157 58.5t157 -59t60 -152q0 -97 -60 -155t-157 -58t-157 58t-60 155zM477 -338q0 -66 37.5 -103.5t99.5 -37.5 t99.5 37.5t37.5 103.5q0 64 -39 101.5t-98 37.5q-62 0 -99.5 -38t-37.5 -101z" horiz-adv-x="1229" unicode="Ḁ"/><glyph d="M98 289q0 159 132.5 247t383.5 93l207 6v72q0 155 -63 234t-203 79q-151 0 -313 -84l-37 86q179 84 354 84q179 0 267.5 -93t88.5 -290v-723h-73l-25 172h-8q-82 -105 -168.5 -148.5t-204.5 -43.5q-160 0 -249 82t-89 227zM203 285q0 -102 62.5 -158.5t176.5 -56.5 q174 0 274.5 99.5t100.5 276.5v107l-190 -8q-229 -11 -326.5 -71.5t-97.5 -188.5zM303 -338q0 94 60 152.5t157 58.5t157 -59t60 -152q0 -97 -60 -155t-157 -58t-157 58t-60 155zM383 -338q0 -66 37.5 -103.5t99.5 -37.5t99.5 37.5t37.5 103.5q0 64 -39 101.5t-98 37.5 q-62 0 -99.5 -38t-37.5 -101z" horiz-adv-x="1085" unicode="ḁ"/><glyph d="M207 0v1462h158l518 -1286h6l518 1286h154v-1462h-103v1108q0 116 12 240h-8l-547 -1348h-65l-545 1350h-8q8 -124 8 -254v-1096h-98zM778 1581v16q73 79 144.5 171.5t97.5 140.5h141v-17q-36 -52 -122.5 -138t-190.5 -173h-70z" horiz-adv-x="1767" unicode="Ḿ"/><glyph d="M182 0v1087h82l21 -149h6q45 81 128 125.5t183 44.5q257 0 330 -193h4q53 93 142.5 143t203.5 50q178 0 267 -95t89 -302v-711h-98v713q0 159 -62 232t-190 73q-167 0 -247 -92t-80 -289v-637h-101v743q0 275 -252 275q-171 0 -249 -99.5t-78 -318.5v-600h-99zM837 1241 v16q73 79 144.5 171.5t97.5 140.5h141v-17q-36 -52 -122.5 -138t-190.5 -173h-70z" horiz-adv-x="1808" unicode="ḿ"/><glyph d="M51 1462h107l256 -942q15 -57 28 -105.5t23.5 -91t19 -82t15.5 -79.5q24 136 102 413l250 887h113l293 -1018q51 -176 73 -284q13 72 33.5 153t308.5 1149h103l-404 -1462h-84l-321 1128q-40 139 -60 228q-16 -87 -45.5 -200t-322.5 -1156h-86zM645 1890v17h142 q26 -48 98.5 -142t142.5 -170v-16h-69q-96 79 -188.5 171.5t-125.5 139.5z" horiz-adv-x="1827" unicode="Ẁ"/><glyph d="M31 1087h106l174 -630q61 -234 80 -344h6q59 234 86 311l224 663h90l213 -661q72 -235 88 -311h6q8 65 80 348l166 624h100l-295 -1087h-104l-238 727q-23 74 -59 217h-6l-21 -74l-45 -145l-242 -725h-98zM481 1552v17h142q26 -48 98.5 -142t142.5 -170v-16h-69 q-96 79 -188.5 171.5t-125.5 139.5z" horiz-adv-x="1481" unicode="ẁ"/><glyph d="M51 1462h107l256 -942q15 -57 28 -105.5t23.5 -91t19 -82t15.5 -79.5q24 136 102 413l250 887h113l293 -1018q51 -176 73 -284q13 72 33.5 153t308.5 1149h103l-404 -1462h-84l-321 1128q-40 139 -60 228q-16 -87 -45.5 -200t-322.5 -1156h-86zM815 1579v16 q73 79 144.5 171.5t97.5 140.5h141v-17q-36 -52 -122.5 -138t-190.5 -173h-70z" horiz-adv-x="1827" unicode="Ẃ"/><glyph d="M31 1087h106l174 -630q61 -234 80 -344h6q59 234 86 311l224 663h90l213 -661q72 -235 88 -311h6q8 65 80 348l166 624h100l-295 -1087h-104l-238 727q-23 74 -59 217h-6l-21 -74l-45 -145l-242 -725h-98zM661 1241v16q73 79 144.5 171.5t97.5 140.5h141v-17 q-36 -52 -122.5 -138t-190.5 -173h-70z" horiz-adv-x="1481" unicode="ẃ"/><glyph d="M51 1462h107l256 -942q15 -57 28 -105.5t23.5 -91t19 -82t15.5 -79.5q24 136 102 413l250 887h113l293 -1018q51 -176 73 -284q13 72 33.5 153t308.5 1149h103l-404 -1462h-84l-321 1128q-40 139 -60 228q-16 -87 -45.5 -200t-322.5 -1156h-86zM655 1727q0 46 15.5 66 t47.5 20q64 0 64 -86t-64 -86q-63 0 -63 86zM1036 1727q0 46 15.5 66t47.5 20q64 0 64 -86t-64 -86q-63 0 -63 86z" horiz-adv-x="1827" unicode="Ẅ"/><glyph d="M31 1087h106l174 -630q61 -234 80 -344h6q59 234 86 311l224 663h90l213 -661q72 -235 88 -311h6q8 65 80 348l166 624h100l-295 -1087h-104l-238 727q-23 74 -59 217h-6l-21 -74l-45 -145l-242 -725h-98zM498 1389q0 46 15.5 66t47.5 20q64 0 64 -86t-64 -86 q-63 0 -63 86zM879 1389q0 46 15.5 66t47.5 20q64 0 64 -86t-64 -86q-63 0 -63 86z" horiz-adv-x="1481" unicode="ẅ"/><glyph d="M0 0l588 1468h65l576 -1468h-115l-203 516h-594l-204 -516h-113zM354 608h523l-199 527q-25 62 -60 172q-27 -96 -59 -174zM548 -227q0 96 64 96q31 0 48.5 -25t17.5 -71q0 -45 -17.5 -71t-48.5 -26q-64 0 -64 97z" horiz-adv-x="1229" unicode="Ạ"/><glyph d="M98 289q0 159 132.5 247t383.5 93l207 6v72q0 155 -63 234t-203 79q-151 0 -313 -84l-37 86q179 84 354 84q179 0 267.5 -93t88.5 -290v-723h-73l-25 172h-8q-82 -105 -168.5 -148.5t-204.5 -43.5q-160 0 -249 82t-89 227zM203 285q0 -102 62.5 -158.5t176.5 -56.5 q174 0 274.5 99.5t100.5 276.5v107l-190 -8q-229 -11 -326.5 -71.5t-97.5 -188.5zM448 -227q0 96 64 96q31 0 48.5 -25t17.5 -71q0 -45 -17.5 -71t-48.5 -26q-64 0 -64 97z" horiz-adv-x="1085" unicode="ạ"/><glyph d="M0 0l588 1468h65l576 -1468h-115l-203 516h-594l-204 -516h-113zM354 608h523l-199 527q-25 62 -60 172q-27 -96 -59 -174zM501 1927v78q52 12 107 12q108 0 168.5 -45.5t60.5 -128.5q0 -140 -168 -176l-10 -121h-80l-10 178q89 15 129.5 43t40.5 72q0 48 -33.5 72 t-111.5 24q-48 0 -93 -8z" horiz-adv-x="1229" unicode="Ả"/><glyph d="M98 289q0 159 132.5 247t383.5 93l207 6v72q0 155 -63 234t-203 79q-151 0 -313 -84l-37 86q179 84 354 84q179 0 267.5 -93t88.5 -290v-723h-73l-25 172h-8q-82 -105 -168.5 -148.5t-204.5 -43.5q-160 0 -249 82t-89 227zM203 285q0 -102 62.5 -158.5t176.5 -56.5 q174 0 274.5 99.5t100.5 276.5v107l-190 -8q-229 -11 -326.5 -71.5t-97.5 -188.5zM395 1589v78q52 12 107 12q108 0 168.5 -45.5t60.5 -128.5q0 -140 -168 -176l-10 -121h-80l-10 178q89 15 129.5 43t40.5 72q0 48 -33.5 72t-111.5 24q-48 0 -93 -8z" horiz-adv-x="1085" unicode="ả"/><glyph d="M0 0l588 1468h65l576 -1468h-115l-203 516h-594l-204 -516h-113zM354 608h523l-199 527q-25 62 -60 172q-27 -96 -59 -174zM334 1579v16q141 136 234 261h106q101 -135 229 -261v-16h-67q-128 93 -217 176q-89 -83 -217 -176h-68zM824 1774v16q42 54 65.5 90t69.5 121 h125v-16q-90 -121 -193 -211h-67z" horiz-adv-x="1229" unicode="Ấ"/><glyph d="M98 289q0 159 132.5 247t383.5 93l207 6v72q0 155 -63 234t-203 79q-151 0 -313 -84l-37 86q179 84 354 84q179 0 267.5 -93t88.5 -290v-723h-73l-25 172h-8q-82 -105 -168.5 -148.5t-204.5 -43.5q-160 0 -249 82t-89 227zM203 285q0 -102 62.5 -158.5t176.5 -56.5 q174 0 274.5 99.5t100.5 276.5v107l-190 -8q-229 -11 -326.5 -71.5t-97.5 -188.5zM248 1241v16q141 136 234 261h106q101 -135 229 -261v-16h-67q-128 93 -217 176q-89 -83 -217 -176h-68zM738 1436v16q42 54 65.5 90t69.5 121h125v-16q-90 -121 -193 -211h-67z" horiz-adv-x="1085" unicode="ấ"/><glyph d="M0 0l588 1468h65l576 -1468h-115l-203 516h-594l-204 -516h-113zM354 608h523l-199 527q-25 62 -60 172q-27 -96 -59 -174zM158 1985v16h125q47 -86 69 -119.5t66 -91.5v-16h-67q-115 100 -193 211zM334 1579v16q141 136 234 261h106q101 -135 229 -261v-16h-67 q-128 93 -217 176q-89 -83 -217 -176h-68z" horiz-adv-x="1229" unicode="Ầ"/><glyph d="M98 289q0 159 132.5 247t383.5 93l207 6v72q0 155 -63 234t-203 79q-151 0 -313 -84l-37 86q179 84 354 84q179 0 267.5 -93t88.5 -290v-723h-73l-25 172h-8q-82 -105 -168.5 -148.5t-204.5 -43.5q-160 0 -249 82t-89 227zM203 285q0 -102 62.5 -158.5t176.5 -56.5 q174 0 274.5 99.5t100.5 276.5v107l-190 -8q-229 -11 -326.5 -71.5t-97.5 -188.5zM72 1647v16h125q47 -86 69 -119.5t66 -91.5v-16h-67q-115 100 -193 211zM248 1241v16q141 136 234 261h106q101 -135 229 -261v-16h-67q-128 93 -217 176q-89 -83 -217 -176h-68z" horiz-adv-x="1085" unicode="ầ"/><glyph d="M0 0l588 1468h65l576 -1468h-115l-203 516h-594l-204 -516h-113zM354 608h523l-199 527q-25 62 -60 172q-27 -96 -59 -174zM334 1579v16q141 136 234 261h106q101 -135 229 -261v-16h-67q-128 93 -217 176q-89 -83 -217 -176h-68zM822 2042v72q34 8 86 8q84 0 131 -36 t47 -99q0 -107 -131 -136l-4 -81h-68l-10 131q63 11 94 28t31 56q0 37 -29 50t-76 13q-31 0 -71 -6z" horiz-adv-x="1229" unicode="Ẩ"/><glyph d="M98 289q0 159 132.5 247t383.5 93l207 6v72q0 155 -63 234t-203 79q-151 0 -313 -84l-37 86q179 84 354 84q179 0 267.5 -93t88.5 -290v-723h-73l-25 172h-8q-82 -105 -168.5 -148.5t-204.5 -43.5q-160 0 -249 82t-89 227zM203 285q0 -102 62.5 -158.5t176.5 -56.5 q174 0 274.5 99.5t100.5 276.5v107l-190 -8q-229 -11 -326.5 -71.5t-97.5 -188.5zM248 1241v16q141 136 234 261h106q101 -135 229 -261v-16h-67q-128 93 -217 176q-89 -83 -217 -176h-68zM736 1704v72q34 8 86 8q84 0 131 -36t47 -99q0 -107 -131 -136l-4 -81h-68l-10 131 q63 11 94 28t31 56q0 37 -29 50t-76 13q-31 0 -71 -6z" horiz-adv-x="1085" unicode="ẩ"/><glyph d="M0 0l588 1468h65l576 -1468h-115l-203 516h-594l-204 -516h-113zM354 608h523l-199 527q-25 62 -60 172q-27 -96 -59 -174zM318 1933q14 97 60 154t124 57q39 0 73.5 -19.5t66 -43t60.5 -43t58 -19.5q75 0 98 127h76q-11 -101 -58.5 -156t-121.5 -55q-39 0 -74.5 20 t-67.5 43.5t-61 43.5t-55 20q-80 0 -105 -129h-73zM334 1579v16q141 136 234 261h106q101 -135 229 -261v-16h-67q-128 93 -217 176q-89 -83 -217 -176h-68z" horiz-adv-x="1229" unicode="Ẫ"/><glyph d="M98 289q0 159 132.5 247t383.5 93l207 6v72q0 155 -63 234t-203 79q-151 0 -313 -84l-37 86q179 84 354 84q179 0 267.5 -93t88.5 -290v-723h-73l-25 172h-8q-82 -105 -168.5 -148.5t-204.5 -43.5q-160 0 -249 82t-89 227zM203 285q0 -102 62.5 -158.5t176.5 -56.5 q174 0 274.5 99.5t100.5 276.5v107l-190 -8q-229 -11 -326.5 -71.5t-97.5 -188.5zM232 1595q14 97 60 154t124 57q39 0 73.5 -19.5t66 -43t60.5 -43t58 -19.5q75 0 98 127h76q-11 -101 -58.5 -156t-121.5 -55q-39 0 -74.5 20t-67.5 43.5t-61 43.5t-55 20q-80 0 -105 -129 h-73zM248 1241v16q141 136 234 261h106q101 -135 229 -261v-16h-67q-128 93 -217 176q-89 -83 -217 -176h-68z" horiz-adv-x="1085" unicode="ẫ"/><glyph d="M0 0l588 1468h65l576 -1468h-115l-203 516h-594l-204 -516h-113zM354 608h523l-199 527q-25 62 -60 172q-27 -96 -59 -174zM548 -227q0 96 64 96q31 0 48.5 -25t17.5 -71q0 -45 -17.5 -71t-48.5 -26q-64 0 -64 97zM328 1579v16q62 67 131.5 156t110.5 156h98 q68 -120 242 -312v-16h-70q-122 101 -221 207q-108 -114 -221 -207h-70z" horiz-adv-x="1229" unicode="Ậ"/><glyph d="M98 289q0 159 132.5 247t383.5 93l207 6v72q0 155 -63 234t-203 79q-151 0 -313 -84l-37 86q179 84 354 84q179 0 267.5 -93t88.5 -290v-723h-73l-25 172h-8q-82 -105 -168.5 -148.5t-204.5 -43.5q-160 0 -249 82t-89 227zM203 285q0 -102 62.5 -158.5t176.5 -56.5 q174 0 274.5 99.5t100.5 276.5v107l-190 -8q-229 -11 -326.5 -71.5t-97.5 -188.5zM251 1241v16q62 67 131.5 156t110.5 156h98q68 -120 242 -312v-16h-70q-122 101 -221 207q-108 -114 -221 -207h-70zM448 -227q0 96 64 96q31 0 48.5 -25t17.5 -71q0 -45 -17.5 -71 t-48.5 -26q-64 0 -64 97z" horiz-adv-x="1085" unicode="ậ"/><glyph d="M0 0l588 1468h65l576 -1468h-115l-203 516h-594l-204 -516h-113zM354 608h523l-199 527q-25 62 -60 172q-27 -96 -59 -174zM342 1825h82q14 -87 60.5 -124.5t134.5 -37.5t134.5 37.5t61.5 124.5h80q-30 -246 -278 -246q-253 0 -275 246zM555 1839v17q34 42 59.5 80 t75.5 131h125v-17q-37 -53 -93 -113.5t-99 -97.5h-68z" horiz-adv-x="1229" unicode="Ắ"/><glyph d="M98 289q0 159 132.5 247t383.5 93l207 6v72q0 155 -63 234t-203 79q-151 0 -313 -84l-37 86q179 84 354 84q179 0 267.5 -93t88.5 -290v-723h-73l-25 172h-8q-82 -105 -168.5 -148.5t-204.5 -43.5q-160 0 -249 82t-89 227zM203 285q0 -102 62.5 -158.5t176.5 -56.5 q174 0 274.5 99.5t100.5 276.5v107l-190 -8q-229 -11 -326.5 -71.5t-97.5 -188.5zM276 1487h82q14 -87 60.5 -124.5t134.5 -37.5t134.5 37.5t61.5 124.5h80q-30 -246 -278 -246q-253 0 -275 246zM489 1501v17q34 42 59.5 80t75.5 131h125v-17q-37 -53 -93 -113.5t-99 -97.5 h-68z" horiz-adv-x="1085" unicode="ắ"/><glyph d="M0 0l588 1468h65l576 -1468h-115l-203 516h-594l-204 -516h-113zM354 608h523l-199 527q-25 62 -60 172q-27 -96 -59 -174zM342 1825h82q14 -87 60.5 -124.5t134.5 -37.5t134.5 37.5t61.5 124.5h80q-30 -246 -278 -246q-253 0 -275 246zM410 2050v17h125 q51 -94 70 -122.5t65 -88.5v-17h-68q-42 37 -99 98.5t-93 112.5z" horiz-adv-x="1229" unicode="Ằ"/><glyph d="M98 289q0 159 132.5 247t383.5 93l207 6v72q0 155 -63 234t-203 79q-151 0 -313 -84l-37 86q179 84 354 84q179 0 267.5 -93t88.5 -290v-723h-73l-25 172h-8q-82 -105 -168.5 -148.5t-204.5 -43.5q-160 0 -249 82t-89 227zM203 285q0 -102 62.5 -158.5t176.5 -56.5 q174 0 274.5 99.5t100.5 276.5v107l-190 -8q-229 -11 -326.5 -71.5t-97.5 -188.5zM276 1487h82q14 -87 60.5 -124.5t134.5 -37.5t134.5 37.5t61.5 124.5h80q-30 -246 -278 -246q-253 0 -275 246zM344 1712v17h125q51 -94 70 -122.5t65 -88.5v-17h-68q-42 37 -99 98.5 t-93 112.5z" horiz-adv-x="1085" unicode="ằ"/><glyph d="M0 0l588 1468h65l576 -1468h-115l-203 516h-594l-204 -516h-113zM354 608h523l-199 527q-25 62 -60 172q-27 -96 -59 -174zM342 1825h82q14 -87 60.5 -124.5t134.5 -37.5t134.5 37.5t61.5 124.5h80q-30 -246 -278 -246q-253 0 -275 246zM496 2056v72q34 8 90 8 q80 0 127 -37t47 -100q0 -107 -127 -131l-6 -43h-70l-10 90q62 11 93.5 28.5t31.5 55.5q0 63 -98 63q-39 0 -78 -6z" horiz-adv-x="1229" unicode="Ẳ"/><glyph d="M98 289q0 159 132.5 247t383.5 93l207 6v72q0 155 -63 234t-203 79q-151 0 -313 -84l-37 86q179 84 354 84q179 0 267.5 -93t88.5 -290v-723h-73l-25 172h-8q-82 -105 -168.5 -148.5t-204.5 -43.5q-160 0 -249 82t-89 227zM203 285q0 -102 62.5 -158.5t176.5 -56.5 q174 0 274.5 99.5t100.5 276.5v107l-190 -8q-229 -11 -326.5 -71.5t-97.5 -188.5zM276 1487h82q14 -87 60.5 -124.5t134.5 -37.5t134.5 37.5t61.5 124.5h80q-30 -246 -278 -246q-253 0 -275 246zM430 1718v72q34 8 90 8q80 0 127 -37t47 -100q0 -107 -127 -131l-6 -43h-70 l-10 90q62 11 93.5 28.5t31.5 55.5q0 63 -98 63q-39 0 -78 -6z" horiz-adv-x="1085" unicode="ẳ"/></font>
</defs>
</svg>
